Tags
Language
Tags
June 2024
Su Mo Tu We Th Fr Sa
26 27 28 29 30 31 1
2 3 4 5 6 7 8
9 10 11 12 13 14 15
16 17 18 19 20 21 22
23 24 25 26 27 28 29
30 1 2 3 4 5 6

Bobby "Blue" Bland - Further On Up The Road: The Duke Recordings 1955-1962 (2016) {2CD Set Southern Routes SR-3002}

Posted By: ruskaval
Bobby "Blue" Bland - Further On Up The Road: The Duke Recordings 1955-1962 (2016) {2CD Set Southern Routes SR-3002}

Bobby "Blue" Bland - Further On Up The Road: The Duke Recordings 1955-1962 (2016) {2CD Set Southern Routes SR-3002}
EAC rip (secure mode) | FLAC (tracks)+CUE+LOG -> 604 Mb | MP3 @320 -> 332 Mb
Full Artwork @ 300 dpi (png) -> 27 Mb | 5% repair rar
© 1955-62, 2016 Duke Records / Southern Routes | SR-3002
Blues / Rhythm & Blues / Soul / Electric Texas Blues / Soul-Blues

There's nobody like Bobby Blue Bland on Duke Records – especially during the early years that are featured on this collection! Bland came out of Memphis with a very unique, really amazing sound right from the start – an approach to blues that was a lot more sophisticated than most of his contemporaries, even those on the LA scene – with lots of jazz in his phrasing, and his backings as well – and this sublime vocal approach that often had Bobby growling in a way that seemed to come from deep down in the depths of his soul, but never in any sort of gimmicky sort of style. Bland was always the perfect balance of cool, class, and outright blues power – and that was never more true than on these sides.
Bobby "Blue" Bland - Further On Up The Road: The Duke Recordings 1955-1962 (2016) {2CD Set Southern Routes SR-3002}

2CD set features a whopping 57 tracks in all – with titles that include "It's My Life Baby", "Honey Bee", "I'm Not Ashamed", "Is It Real", "I Can't Put You Down Baby", "Don't Want No Woman", "Loan Me A Helping Hand", "Bobby's Blues", "You've Got Bad Intentions", "I'll Take Care Of You", "Cry Cry Cry", "You're Worth It All", "That's The Way Love Is", "Call On Me", "Blue Moon", "I've Just Got To Forget You", and "How Does A Cheatin Woman Feel". –Dusty Groove
Bobby "Blue" Bland - Further On Up The Road: The Duke Recordings 1955-1962 (2016) {2CD Set Southern Routes SR-3002}

This all-new import compilation (available on 2CD or 2LPs) from Southern Routes presents a powerful set of Bobby Blue Bland's sublime recordings for Don Robey's Houston TX-based, Duke Records, originally released from 1955 through the end of 1962. During this term his music was a Tour de Force, Bland's powerhouse vocals backed by savage, slashing guitars. He delivered hit after hit and by 1961 with the release of his legendary LP "Two Steps From The Blues" (included herein) Bobby Bland had redeemed Texas Electric Blues and Southern Soul simultaneously. This is excellent, essential music – without a doubt, some of the greatest blues and soul material ever recorded… –Southern Routes
Bobby "Blue" Bland - Further On Up The Road: The Duke Recordings 1955-1962 (2016) {2CD Set Southern Routes SR-3002}


Track Listing:
Disc 1:

01. It's My Life Baby
02. Lost Lovers Blues
03. Honey Bee
04. Time Out
05. A Million Miles From Nowhere
06. You Or None
07. I Woke Up Screaming
08. I Can't Put You Down Baby
09. You've Got Bad Intentions
10. I Don't Believe
11. I Learned My Lesson
12. Don't Want No Woman
13. I Smell Trouble
14. Sometime Tomorrow
15. Farther On Up The Road
16. Teach Me (How To Love You)
17. Bobby's Blues
18. Loan Me A Helping Hand
19. You Got Me (Where You Want Me)
20. Last Night
21. Little Boy Blue
22. You Did Me Wrong
23. I Lost Sight Of The World
24. I'm Not Ashamed
25. Wishing Well
26. Is It Real?
27. That's Why
28. Hold Me Tenderly
29. Someday

Bobby "Blue" Bland - Further On Up The Road: The Duke Recordings 1955-1962 (2016) {2CD Set Southern Routes SR-3002}


Disc 2:
01. I'll Take Care Of You
02. Cry, Cry, Cry
03. Lead Me On
04. I've Been Wrong So Long
05. I Pity The Fool
06. Close To You
07. Two Steps From The Blues
08. Don't Cry No More
09. How Does A Cheatin' Woman Feel
10. St. James Infirmary
11. I've Just Got To Forget You
12. Jelly Jelly Jelly
13. Ain't That Lovin' You
14. You're The One (That I Adore)
15. Who Will The Next Fool Be
16. Blue Moon
17. Blues In The Night
18. Twistin' Up The Road
19. Stormy Monday Blues
20. Turn On Your Love Light
21. Your Friends
22. Yield Not To Temptation
23. You're Worth It All
24. No Sweeter Girl
25. The Feeling Is Gone
26. 36-22-36
27. Call On Me
28. That's The Way Love Is

Bobby "Blue" Bland - Further On Up The Road: The Duke Recordings 1955-1962 (2016) {2CD Set Southern Routes SR-3002}


Exact Audio Copy V1.0 beta 6 from 9. April 2015

EAC extraction logfile from 6. August 2016, 22:25

Bobby Blue Bland / Further On Up The Road: The Duke Recordings 1955-1962 (Disc 1)

Used drive : TSSTcorpCDDVDW SH-224BB Adapter: 1 ID: 0

Read mode : Secure
Utilize accurate stream : Yes
Defeat audio cache : Yes
Make use of C2 pointers : No

Read offset correction : 6
Overread into Lead-In and Lead-Out : No
Fill up missing offset samples with silence : Yes
Delete leading and trailing silent blocks : No
Null samples used in CRC calculations : Yes
Used interface : Native Win32 interface for Win NT & 2000
Gap handling : Appended to previous track

Used output format : User Defined Encoder
Selected bitrate : 768 kBit/s
Quality : High
Add ID3 tag : No
Command line compressor : C:\Program Files (x86)\Exact Audio Copy\Flac\flac.exe
Additional command line options : -8 -V -T "ARTIST=%artist%" -T "TITLE=%title%" -T "ALBUM=%albumtitle%" -T "DATE=%year%" -T "TRACKNUMBER=%tracknr%" -T "TOTALTRACKS=%numtracks%" -T "GENRE=%genre%" -T "ALBUMARTIST=%albumartist%" -T "ALBUM ARTIST=%albumartist%" -T "COMMENT=EAC Secure Mode, Test & Copy, AccurateRip, FLAC -8" %source%


TOC of the extracted CD

Track | Start | Length | Start sector | End sector
––––––––––––––––––––––––––––-
1 | 0:00.00 | 2:43.44 | 0 | 12268
2 | 2:43.44 | 2:36.73 | 12269 | 24041
3 | 5:20.42 | 2:30.22 | 24042 | 35313
4 | 7:50.64 | 2:50.10 | 35314 | 48073
5 | 10:40.74 | 2:51.63 | 48074 | 60961
6 | 13:32.62 | 2:53.50 | 60962 | 73986
7 | 16:26.37 | 2:47.36 | 73987 | 86547
8 | 19:13.73 | 2:38.31 | 86548 | 98428
9 | 21:52.29 | 2:32.29 | 98429 | 109857
10 | 24:24.58 | 2:41.49 | 109858 | 121981
11 | 27:06.32 | 2:46.31 | 121982 | 134462
12 | 29:52.63 | 2:39.14 | 134463 | 146401
13 | 32:32.02 | 2:36.30 | 146402 | 158131
14 | 35:08.32 | 2:25.65 | 158132 | 169071
15 | 37:34.22 | 2:59.67 | 169072 | 182563
16 | 40:34.14 | 2:07.73 | 182564 | 192161
17 | 42:42.12 | 2:19.57 | 192162 | 202643
18 | 45:01.69 | 2:25.52 | 202644 | 213570
19 | 47:27.46 | 2:28.00 | 213571 | 224670
20 | 49:55.46 | 2:52.60 | 224671 | 237630
21 | 52:48.31 | 2:39.13 | 237631 | 249568
22 | 55:27.44 | 2:36.19 | 249569 | 261287
23 | 58:03.63 | 2:36.02 | 261288 | 272989
24 | 60:39.65 | 2:37.40 | 272990 | 284804
25 | 63:17.30 | 2:34.68 | 284805 | 296422
26 | 65:52.23 | 2:27.57 | 296423 | 307504
27 | 68:20.05 | 1:53.07 | 307505 | 315986
28 | 70:13.12 | 2:19.17 | 315987 | 326428
29 | 72:32.29 | 2:12.34 | 326429 | 336362


Track 1

Filename C:\Rips\Bobby Blue Bland - Further On Up The Road The Duke Recordings 1955-1962 (2015) [FLAC]\CD1\01 - It's My Life Baby.wav

Pre-gap length 0:00:02.00

Peak level 100.0 %
Extraction speed 1.7 X
Track quality 100.0 %
Test CRC 001DB3F1
Copy CRC 001DB3F1
Track not present in AccurateRip database
Copy OK

Track 2

Filename C:\Rips\Bobby Blue Bland - Further On Up The Road The Duke Recordings 1955-1962 (2015) [FLAC]\CD1\02 - Lost Lovers Blues.wav

Peak level 90.0 %
Extraction speed 1.8 X
Track quality 100.0 %
Test CRC 09DA777A
Copy CRC 09DA777A
Track not present in AccurateRip database
Copy OK

Track 3

Filename C:\Rips\Bobby Blue Bland - Further On Up The Road The Duke Recordings 1955-1962 (2015) [FLAC]\CD1\03 - Honey Bee.wav

Peak level 100.0 %
Extraction speed 1.8 X
Track quality 100.0 %
Test CRC 75C25B71
Copy CRC 75C25B71
Track not present in AccurateRip database
Copy OK

Track 4

Filename C:\Rips\Bobby Blue Bland - Further On Up The Road The Duke Recordings 1955-1962 (2015) [FLAC]\CD1\04 - Time Out.wav

Peak level 96.6 %
Extraction speed 2.0 X
Track quality 100.0 %
Test CRC 5498355B
Copy CRC 5498355B
Track not present in AccurateRip database
Copy OK

Track 5

Filename C:\Rips\Bobby Blue Bland - Further On Up The Road The Duke Recordings 1955-1962 (2015) [FLAC]\CD1\05 - A Million Miles From Nowhere.wav

Peak level 95.5 %
Extraction speed 2.1 X
Track quality 100.0 %
Test CRC 76084250
Copy CRC 76084250
Track not present in AccurateRip database
Copy OK

Track 6

Filename C:\Rips\Bobby Blue Bland - Further On Up The Road The Duke Recordings 1955-1962 (2015) [FLAC]\CD1\06 - You Or None.wav

Peak level 94.4 %
Extraction speed 1.9 X
Track quality 100.0 %
Test CRC 6CE0B417
Copy CRC 6CE0B417
Track not present in AccurateRip database
Copy OK

Track 7

Filename C:\Rips\Bobby Blue Bland - Further On Up The Road The Duke Recordings 1955-1962 (2015) [FLAC]\CD1\07 - I Woke Up Screaming.wav

Peak level 95.2 %
Extraction speed 2.3 X
Track quality 100.0 %
Test CRC ADE3F128
Copy CRC ADE3F128
Track not present in AccurateRip database
Copy OK

Track 8

Filename C:\Rips\Bobby Blue Bland - Further On Up The Road The Duke Recordings 1955-1962 (2015) [FLAC]\CD1\08 - I Can't Put You Down Baby.wav

Peak level 60.9 %
Extraction speed 2.4 X
Track quality 100.0 %
Test CRC D988D6A2
Copy CRC D988D6A2
Track not present in AccurateRip database
Copy OK

Track 9

Filename C:\Rips\Bobby Blue Bland - Further On Up The Road The Duke Recordings 1955-1962 (2015) [FLAC]\CD1\09 - You've Got Bad Intentions.wav

Peak level 75.2 %
Extraction speed 1.8 X
Track quality 99.9 %
Test CRC 255A5B88
Copy CRC 255A5B88
Track not present in AccurateRip database
Copy OK

Track 10

Filename C:\Rips\Bobby Blue Bland - Further On Up The Road The Duke Recordings 1955-1962 (2015) [FLAC]\CD1\10 - I Don't Believe.wav

Peak level 68.4 %
Extraction speed 1.9 X
Track quality 99.9 %
Test CRC 9D62568D
Copy CRC 9D62568D
Track not present in AccurateRip database
Copy OK

Track 11

Filename C:\Rips\Bobby Blue Bland - Further On Up The Road The Duke Recordings 1955-1962 (2015) [FLAC]\CD1\11 - I Learned My Lesson.wav

Peak level 80.8 %
Extraction speed 2.6 X
Track quality 100.0 %
Test CRC 58DDF5A6
Copy CRC 58DDF5A6
Track not present in AccurateRip database
Copy OK

Track 12

Filename C:\Rips\Bobby Blue Bland - Further On Up The Road The Duke Recordings 1955-1962 (2015) [FLAC]\CD1\12 - Don't Want No Woman.wav

Peak level 73.1 %
Extraction speed 2.6 X
Track quality 100.0 %
Test CRC EE6F2B48
Copy CRC EE6F2B48
Track not present in AccurateRip database
Copy OK

Track 13

Filename C:\Rips\Bobby Blue Bland - Further On Up The Road The Duke Recordings 1955-1962 (2015) [FLAC]\CD1\13 - I Smell Trouble.wav

Peak level 67.9 %
Extraction speed 2.6 X
Track quality 100.0 %
Test CRC A0BCE191
Copy CRC A0BCE191
Track not present in AccurateRip database
Copy OK

Track 14

Filename C:\Rips\Bobby Blue Bland - Further On Up The Road The Duke Recordings 1955-1962 (2015) [FLAC]\CD1\14 - Sometime Tomorrow.wav

Peak level 89.1 %
Extraction speed 2.7 X
Track quality 100.0 %
Test CRC 322DC689
Copy CRC 322DC689
Track not present in AccurateRip database
Copy OK

Track 15

Filename C:\Rips\Bobby Blue Bland - Further On Up The Road The Duke Recordings 1955-1962 (2015) [FLAC]\CD1\15 - Farther Up The Road.wav

Peak level 96.0 %
Extraction speed 2.1 X
Track quality 99.9 %
Test CRC 4FE58365
Copy CRC 4FE58365
Track not present in AccurateRip database
Copy OK

Track 16

Filename C:\Rips\Bobby Blue Bland - Further On Up The Road The Duke Recordings 1955-1962 (2015) [FLAC]\CD1\16 - Teach Me (How To Love You).wav

Peak level 64.7 %
Extraction speed 2.7 X
Track quality 100.0 %
Test CRC 90E5D4B1
Copy CRC 90E5D4B1
Track not present in AccurateRip database
Copy OK

Track 17

Filename C:\Rips\Bobby Blue Bland - Further On Up The Road The Duke Recordings 1955-1962 (2015) [FLAC]\CD1\17 - Bobby's Blues.wav

Peak level 89.1 %
Extraction speed 1.9 X
Track quality 99.9 %
Test CRC FA94CDF0
Copy CRC FA94CDF0
Track not present in AccurateRip database
Copy OK

Track 18

Filename C:\Rips\Bobby Blue Bland - Further On Up The Road The Duke Recordings 1955-1962 (2015) [FLAC]\CD1\18 - Loan Me A Helping Hand.wav

Peak level 81.9 %
Extraction speed 2.9 X
Track quality 100.0 %
Test CRC B605DDF5
Copy CRC B605DDF5
Track not present in AccurateRip database
Copy OK

Track 19

Filename C:\Rips\Bobby Blue Bland - Further On Up The Road The Duke Recordings 1955-1962 (2015) [FLAC]\CD1\19 - You Got Me (Where You Want Me).wav

Peak level 81.6 %
Extraction speed 3.0 X
Track quality 100.0 %
Test CRC EF571A40
Copy CRC EF571A40
Track not present in AccurateRip database
Copy OK

Track 20

Filename C:\Rips\Bobby Blue Bland - Further On Up The Road The Duke Recordings 1955-1962 (2015) [FLAC]\CD1\20 - Last Night.wav

Peak level 89.1 %
Extraction speed 3.2 X
Track quality 100.0 %
Test CRC A39FC265
Copy CRC A39FC265
Track not present in AccurateRip database
Copy OK

Track 21

Filename C:\Rips\Bobby Blue Bland - Further On Up The Road The Duke Recordings 1955-1962 (2015) [FLAC]\CD1\21 - Little Boy Blue.wav

Peak level 76.8 %
Extraction speed 3.1 X
Track quality 100.0 %
Test CRC 5F902F51
Copy CRC 5F902F51
Track not present in AccurateRip database
Copy OK

Track 22

Filename C:\Rips\Bobby Blue Bland - Further On Up The Road The Duke Recordings 1955-1962 (2015) [FLAC]\CD1\22 - You Did Me Wrong.wav

Peak level 89.1 %
Extraction speed 3.2 X
Track quality 100.0 %
Test CRC E7F7AFC1
Copy CRC E7F7AFC1
Track not present in AccurateRip database
Copy OK

Track 23

Filename C:\Rips\Bobby Blue Bland - Further On Up The Road The Duke Recordings 1955-1962 (2015) [FLAC]\CD1\23 - I Lost Sight Of The World.wav

Peak level 87.7 %
Extraction speed 2.1 X
Track quality 99.9 %
Test CRC 923E2D81
Copy CRC 923E2D81
Track not present in AccurateRip database
Copy OK

Track 24

Filename C:\Rips\Bobby Blue Bland - Further On Up The Road The Duke Recordings 1955-1962 (2015) [FLAC]\CD1\24 - I'm Not Ashamed.wav

Peak level 66.5 %
Extraction speed 3.3 X
Track quality 100.0 %
Test CRC B2B6F165
Copy CRC B2B6F165
Track not present in AccurateRip database
Copy OK

Track 25

Filename C:\Rips\Bobby Blue Bland - Further On Up The Road The Duke Recordings 1955-1962 (2015) [FLAC]\CD1\25 - Wishing Well.wav

Peak level 62.7 %
Extraction speed 3.3 X
Track quality 100.0 %
Test CRC 9B24E5B7
Copy CRC 9B24E5B7
Track not present in AccurateRip database
Copy OK

Track 26

Filename C:\Rips\Bobby Blue Bland - Further On Up The Road The Duke Recordings 1955-1962 (2015) [FLAC]\CD1\26 - Is It Real.wav

Peak level 82.1 %
Extraction speed 3.3 X
Track quality 100.0 %
Test CRC 0766D704
Copy CRC 0766D704
Track not present in AccurateRip database
Copy OK

Track 27

Filename C:\Rips\Bobby Blue Bland - Further On Up The Road The Duke Recordings 1955-1962 (2015) [FLAC]\CD1\27 - That's Why.wav

Peak level 60.9 %
Extraction speed 3.2 X
Track quality 100.0 %
Test CRC 7C9A1F45
Copy CRC 7C9A1F45
Track not present in AccurateRip database
Copy OK

Track 28

Filename C:\Rips\Bobby Blue Bland - Further On Up The Road The Duke Recordings 1955-1962 (2015) [FLAC]\CD1\28 - Hold Me Tenderly.wav

Peak level 88.8 %
Extraction speed 3.4 X
Track quality 100.0 %
Test CRC 4A6CA441
Copy CRC 4A6CA441
Track not present in AccurateRip database
Copy OK

Track 29

Filename C:\Rips\Bobby Blue Bland - Further On Up The Road The Duke Recordings 1955-1962 (2015) [FLAC]\CD1\29 - Someday.wav

Peak level 83.5 %
Extraction speed 2.0 X
Track quality 99.9 %
Test CRC ED47930B
Copy CRC ED47930B
Track not present in AccurateRip database
Copy OK


None of the tracks are present in the AccurateRip database

No errors occurred

End of status report

–– CUETools DB Plugin V2.1.6

[CTDB TOCID: GpIQF5Qq_YxBTQkULgVFbuXM9ms-] disk not present in database
Submit result: GpIQF5Qq_YxBTQkULgVFbuXM9ms- has been uploaded


==== Log checksum 05E5F71A6446F198624FA947DFFCCEB929885626570394E172602D27D2CF9638 ====

Exact Audio Copy V1.0 beta 6 from 9. April 2015

EAC extraction logfile from 7. August 2016, 7:02

Bobby Blue Bland / Further On Up The Road: The Duke Recordings 1955-1962 (Disc 2)

Used drive : TSSTcorpCDDVDW SH-224BB Adapter: 1 ID: 0

Read mode : Secure
Utilize accurate stream : Yes
Defeat audio cache : Yes
Make use of C2 pointers : No

Read offset correction : 6
Overread into Lead-In and Lead-Out : No
Fill up missing offset samples with silence : Yes
Delete leading and trailing silent blocks : No
Null samples used in CRC calculations : Yes
Used interface : Native Win32 interface for Win NT & 2000
Gap handling : Appended to previous track

Used output format : User Defined Encoder
Selected bitrate : 768 kBit/s
Quality : High
Add ID3 tag : No
Command line compressor : C:\Program Files (x86)\Exact Audio Copy\Flac\flac.exe
Additional command line options : -8 -V -T "ARTIST=%artist%" -T "TITLE=%title%" -T "ALBUM=%albumtitle%" -T "DATE=%year%" -T "TRACKNUMBER=%tracknr%" -T "TOTALTRACKS=%numtracks%" -T "GENRE=%genre%" -T "ALBUMARTIST=%albumartist%" -T "ALBUM ARTIST=%albumartist%" -T "COMMENT=EAC Secure Mode, Test & Copy, AccurateRip, FLAC -8" %source%


TOC of the extracted CD

Track | Start | Length | Start sector | End sector
––––––––––––––––––––––––––––-
1 | 0:00.00 | 2:21.30 | 0 | 10604
2 | 2:21.30 | 2:43.08 | 10605 | 22837
3 | 5:04.38 | 2:05.17 | 22838 | 32229
4 | 7:09.55 | 2:19.67 | 32230 | 42721
5 | 9:29.47 | 2:42.56 | 42722 | 54927
6 | 12:12.28 | 2:05.35 | 54928 | 64337
7 | 14:17.63 | 2:35.57 | 64338 | 76019
8 | 16:53.45 | 2:26.04 | 76020 | 86973
9 | 19:19.49 | 2:39.14 | 86974 | 98912
10 | 21:58.63 | 2:25.44 | 98913 | 109831
11 | 24:24.32 | 2:35.09 | 109832 | 121465
12 | 26:59.41 | 3:24.40 | 121466 | 136805
13 | 30:24.06 | 2:33.50 | 136806 | 148330
14 | 32:57.56 | 2:35.10 | 148331 | 159965
15 | 35:32.66 | 2:28.22 | 159966 | 171087
16 | 38:01.13 | 2:15.50 | 171088 | 181262
17 | 40:16.63 | 3:36.08 | 181263 | 197470
18 | 43:52.71 | 2:32.55 | 197471 | 208925
19 | 46:25.51 | 4:10.17 | 208926 | 227692
20 | 50:35.68 | 2:38.33 | 227693 | 239575
21 | 53:14.26 | 2:33.00 | 239576 | 251050
22 | 55:47.26 | 2:36.35 | 251051 | 262785
23 | 58:23.61 | 2:24.01 | 262786 | 273586
24 | 60:47.62 | 2:39.14 | 273587 | 285525
25 | 63:27.01 | 2:31.55 | 285526 | 296905
26 | 65:58.56 | 2:51.70 | 296906 | 309800
27 | 68:50.51 | 2:35.50 | 309801 | 321475
28 | 71:26.26 | 2:38.51 | 321476 | 333376


Track 1

Filename C:\Rips\Bobby Blue Bland - Further On Up The Road The Duke Recordings 1955-1962 (2015) [FLAC]\CD2\01 - I'll Take Care Of You.wav

Pre-gap length 0:00:02.00

Peak level 70.6 %
Extraction speed 1.3 X
Track quality 99.9 %
Test CRC BB816CB7
Copy CRC BB816CB7
Track not present in AccurateRip database
Copy OK

Track 2

Filename C:\Rips\Bobby Blue Bland - Further On Up The Road The Duke Recordings 1955-1962 (2015) [FLAC]\CD2\02 - Cry, Cry, Cry.wav

Peak level 86.8 %
Extraction speed 1.8 X
Track quality 100.0 %
Test CRC 4BEF0176
Copy CRC 4BEF0176
Track not present in AccurateRip database
Copy OK

Track 3

Filename C:\Rips\Bobby Blue Bland - Further On Up The Road The Duke Recordings 1955-1962 (2015) [FLAC]\CD2\03 - Lead Me On.wav

Peak level 65.9 %
Extraction speed 1.8 X
Track quality 100.0 %
Test CRC 74E7D9AD
Copy CRC 74E7D9AD
Track not present in AccurateRip database
Copy OK

Track 4

Filename C:\Rips\Bobby Blue Bland - Further On Up The Road The Duke Recordings 1955-1962 (2015) [FLAC]\CD2\04 - I've Been Wrong So Long.wav

Peak level 81.4 %
Extraction speed 1.1 X
Track quality 100.0 %
Test CRC 8B9BF410
Copy CRC 8B9BF410
Track not present in AccurateRip database
Copy OK

Track 5

Filename C:\Rips\Bobby Blue Bland - Further On Up The Road The Duke Recordings 1955-1962 (2015) [FLAC]\CD2\05 - I Pity The Fool.wav

Peak level 62.7 %
Extraction speed 0.9 X
Track quality 100.0 %
Test CRC 11912894
Copy CRC 11912894
Track not present in AccurateRip database
Copy OK

Track 6

Filename C:\Rips\Bobby Blue Bland - Further On Up The Road The Duke Recordings 1955-1962 (2015) [FLAC]\CD2\06 - Close To You.wav

Peak level 77.0 %
Extraction speed 0.7 X
Track quality 99.9 %
Test CRC 87B49EBC
Copy CRC 87B49EBC
Track not present in AccurateRip database
Copy OK

Track 7

Filename C:\Rips\Bobby Blue Bland - Further On Up The Road The Duke Recordings 1955-1962 (2015) [FLAC]\CD2\07 - Two Steps From The Blues.wav

Peak level 78.0 %
Extraction speed 2.2 X
Track quality 100.0 %
Test CRC BBD87C86
Copy CRC BBD87C86
Track not present in AccurateRip database
Copy OK

Track 8

Filename C:\Rips\Bobby Blue Bland - Further On Up The Road The Duke Recordings 1955-1962 (2015) [FLAC]\CD2\08 - Don't Cry No More.wav

Peak level 87.5 %
Extraction speed 1.7 X
Track quality 99.9 %
Test CRC 2A67E31F
Copy CRC 2A67E31F
Track not present in AccurateRip database
Copy OK

Track 9

Filename C:\Rips\Bobby Blue Bland - Further On Up The Road The Duke Recordings 1955-1962 (2015) [FLAC]\CD2\09 - How Does A Cheatin' Woman Feel.wav

Peak level 100.0 %
Extraction speed 2.3 X
Track quality 100.0 %
Test CRC 02E15F48
Copy CRC 02E15F48
Track not present in AccurateRip database
Copy OK

Track 10

Filename C:\Rips\Bobby Blue Bland - Further On Up The Road The Duke Recordings 1955-1962 (2015) [FLAC]\CD2\10 - St. James Infirmary.wav

Peak level 100.0 %
Extraction speed 2.4 X
Track quality 100.0 %
Test CRC 8A9C17DC
Copy CRC 8A9C17DC
Track not present in AccurateRip database
Copy OK

Track 11

Filename C:\Rips\Bobby Blue Bland - Further On Up The Road The Duke Recordings 1955-1962 (2015) [FLAC]\CD2\11 - I've Just Got To Forget You.wav

Peak level 95.2 %
Extraction speed 2.5 X
Track quality 100.0 %
Test CRC 0B6F8949
Copy CRC 0B6F8949
Track not present in AccurateRip database
Copy OK

Track 12

Filename C:\Rips\Bobby Blue Bland - Further On Up The Road The Duke Recordings 1955-1962 (2015) [FLAC]\CD2\12 - Jelly Jelly Jelly.wav

Peak level 100.0 %
Extraction speed 2.1 X
Track quality 99.9 %
Test CRC 05D58344
Copy CRC 05D58344
Track not present in AccurateRip database
Copy OK

Track 13

Filename C:\Rips\Bobby Blue Bland - Further On Up The Road The Duke Recordings 1955-1962 (2015) [FLAC]\CD2\13 - Ain't That Lovin' You.wav

Peak level 100.0 %
Extraction speed 1.9 X
Track quality 99.9 %
Test CRC 492F82FC
Copy CRC 492F82FC
Track not present in AccurateRip database
Copy OK

Track 14

Filename C:\Rips\Bobby Blue Bland - Further On Up The Road The Duke Recordings 1955-1962 (2015) [FLAC]\CD2\14 - You're The One (That I Adore).wav

Peak level 88.6 %
Extraction speed 2.7 X
Track quality 100.0 %
Test CRC 7C47D7E2
Copy CRC 7C47D7E2
Track not present in AccurateRip database
Copy OK

Track 15

Filename C:\Rips\Bobby Blue Bland - Further On Up The Road The Duke Recordings 1955-1962 (2015) [FLAC]\CD2\15 - Who Will The Next Fool Be.wav

Peak level 100.0 %
Extraction speed 2.6 X
Track quality 100.0 %
Test CRC CAA8E6BE
Copy CRC CAA8E6BE
Track not present in AccurateRip database
Copy OK

Track 16

Filename C:\Rips\Bobby Blue Bland - Further On Up The Road The Duke Recordings 1955-1962 (2015) [FLAC]\CD2\16 - Blue Moon.wav

Peak level 96.9 %
Extraction speed 2.7 X
Track quality 100.0 %
Test CRC D8BC3617
Copy CRC D8BC3617
Track not present in AccurateRip database
Copy OK

Track 17

Filename C:\Rips\Bobby Blue Bland - Further On Up The Road The Duke Recordings 1955-1962 (2015) [FLAC]\CD2\17 - Blues In The Night.wav

Peak level 97.2 %
Extraction speed 2.3 X
Track quality 99.9 %
Test CRC 17E7927D
Copy CRC 17E7927D
Track not present in AccurateRip database
Copy OK

Track 18

Filename C:\Rips\Bobby Blue Bland - Further On Up The Road The Duke Recordings 1955-1962 (2015) [FLAC]\CD2\18 - Twistin' Up The Road.wav

Peak level 97.0 %
Extraction speed 2.0 X
Track quality 99.9 %
Test CRC 776F2A7B
Copy CRC 776F2A7B
Track not present in AccurateRip database
Copy OK

Track 19

Filename C:\Rips\Bobby Blue Bland - Further On Up The Road The Duke Recordings 1955-1962 (2015) [FLAC]\CD2\19 - Stormy Monday Blues.wav

Peak level 92.4 %
Extraction speed 3.3 X
Track quality 100.0 %
Test CRC 6B22DFE6
Copy CRC 6B22DFE6
Track not present in AccurateRip database
Copy OK

Track 20

Filename C:\Rips\Bobby Blue Bland - Further On Up The Road The Duke Recordings 1955-1962 (2015) [FLAC]\CD2\20 - Turn On Your Love Light.wav

Peak level 100.0 %
Extraction speed 3.1 X
Track quality 100.0 %
Test CRC F656BB73
Copy CRC F656BB73
Track not present in AccurateRip database
Copy OK

Track 21

Filename C:\Rips\Bobby Blue Bland - Further On Up The Road The Duke Recordings 1955-1962 (2015) [FLAC]\CD2\21 - Your Friends.wav

Peak level 94.3 %
Extraction speed 3.1 X
Track quality 100.0 %
Test CRC A2AA2EFC
Copy CRC A2AA2EFC
Track not present in AccurateRip database
Copy OK

Track 22

Filename C:\Rips\Bobby Blue Bland - Further On Up The Road The Duke Recordings 1955-1962 (2015) [FLAC]\CD2\22 - Yield Not To Temptation.wav

Peak level 98.0 %
Extraction speed 3.2 X
Track quality 100.0 %
Test CRC 4C5F1313
Copy CRC 4C5F1313
Track not present in AccurateRip database
Copy OK

Track 23

Filename C:\Rips\Bobby Blue Bland - Further On Up The Road The Duke Recordings 1955-1962 (2015) [FLAC]\CD2\23 - You're Worth It All.wav

Peak level 93.1 %
Extraction speed 3.2 X
Track quality 100.0 %
Test CRC 66E17C78
Copy CRC 66E17C78
Track not present in AccurateRip database
Copy OK

Track 24

Filename C:\Rips\Bobby Blue Bland - Further On Up The Road The Duke Recordings 1955-1962 (2015) [FLAC]\CD2\24 - No Sweeter Girl.wav

Peak level 96.3 %
Extraction speed 3.3 X
Track quality 100.0 %
Test CRC 454C6AE9
Copy CRC 454C6AE9
Track not present in AccurateRip database
Copy OK

Track 25

Filename C:\Rips\Bobby Blue Bland - Further On Up The Road The Duke Recordings 1955-1962 (2015) [FLAC]\CD2\25 - The Feeling Is Gone.wav

Peak level 90.9 %
Extraction speed 2.1 X
Track quality 99.9 %
Test CRC DDA094E5
Copy CRC DDA094E5
Track not present in AccurateRip database
Copy OK

Track 26

Filename C:\Rips\Bobby Blue Bland - Further On Up The Road The Duke Recordings 1955-1962 (2015) [FLAC]\CD2\26 - 36-22-36.wav

Peak level 98.0 %
Extraction speed 3.5 X
Track quality 100.0 %
Test CRC ED1F8F97
Copy CRC ED1F8F97
Track not present in AccurateRip database
Copy OK

Track 27

Filename C:\Rips\Bobby Blue Bland - Further On Up The Road The Duke Recordings 1955-1962 (2015) [FLAC]\CD2\27 - Call On Me.wav

Peak level 98.3 %
Extraction speed 2.2 X
Track quality 99.9 %
Test CRC 4EAE757E
Copy CRC 4EAE757E
Track not present in AccurateRip database
Copy OK

Track 28

Filename C:\Rips\Bobby Blue Bland - Further On Up The Road The Duke Recordings 1955-1962 (2015) [FLAC]\CD2\28 - That's The Way Love Is.wav

Peak level 100.0 %
Extraction speed 2.2 X
Track quality 99.9 %
Test CRC 6E5DC9E5
Copy CRC 6E5DC9E5
Track not present in AccurateRip database
Copy OK


None of the tracks are present in the AccurateRip database

No errors occurred

End of status report

–– CUETools DB Plugin V2.1.6

[CTDB TOCID: MNVLzy.07nzq5CBjEm_y.AHPICI-] disk not present in database
Submit result: MNVLzy.07nzq5CBjEm_y.AHPICI- has been uploaded


==== Log checksum 76BAB893451F77A19DB497A58AD33EBC70FE01FDAA83BEFF8DFA09015F126738 ====


Bobby "Blue" Bland - Further On Up The Road: The Duke Recordings 1955-1962 (2016) {2CD Set Southern Routes SR-3002}



===