Tags
Language
Tags

Bowling for Soup - Older, Fatter, Still the Greatest Ever (Live from Brixton) (2019)

Posted By: delpotro
Bowling for Soup - Older, Fatter, Still the Greatest Ever (Live from Brixton) (2019)

Bowling for Soup - Older, Fatter, Still the Greatest Ever (Live from Brixton) (2019)
EAC Rip | FLAC (tracks+log+.cue) - 555 Mb | MP3 CBR 320 kbps - 190 Mb | Scans included | 01:13:21
Alternative Rock, Pop Punk | Label: Brando Records

2018 live release. February 17th 2018 - the biggest night in Bowling for Soup's almost twenty five years together as a band. That evening, the band played to four and a half thousand people at London's Brixton Academy on the closing night of their most successful UK tour in their history - The Get Happy Tour 2018. Several months later, Bowling for Soup are delighted to confirm that the Brixton show was captured in all it's hilarious and entertaining glory. The Get Happy Tour 2018 saw Bowling for Soup play their iconic album Drunk Enough To Dance in full, with a selection of the band's other biggest hits like 'High School Never Ends', '1985' and 'Today Is Gonna Be A Great Day (Phineas and Ferb)'. The non Drunk Enough To Dance songs were mixed in throughout the set to keep the fans guessing at what surprises may come next - something which worked to great effect throughout the tour - and every twist and turn was captured at the Brixton Academy show for Bowling for Soup fans all around the world to enjoy.
Tracklist:
1. BFS Theme
2. I Don't Wanna Rock
3. Emily
4. Girl All The Bad Guys Want
5. On And On (About You)
6. Surf Colorado
7. Almost
8. Life After Lisa
9. Where To Begin
10. The Last Rock Show
11. Punk Rock 101
12. Self - Centered
13. The Hard Way
14. The Bitch Song
15. Out The Window
16. Cold Shower Tuesdays
17. Today Is Gonna Be A Great Day (Theme Song To Phineas And Ferb)
18. Running From Your Dad
19. High School Never Ends
20. Scaring Myself
21. Greatest Day
22. Ohio (Come Back To Texas)
23. Star Song
24. 1985

Exact Audio Copy V1.3 from 2. September 2016

EAC extraction logfile from 29. January 2019, 16:25

Bowling for Soup / Live from Brixton: Older, Fatter, But Still the Greatest Ever!

Used drive : PLEXTOR DVDR PX-755A Adapter: 1 ID: 0

Read mode : Secure
Utilize accurate stream : Yes
Defeat audio cache : Yes
Make use of C2 pointers : No

Read offset correction : 30
Overread into Lead-In and Lead-Out : Yes
Fill up missing offset samples with silence : Yes
Delete leading and trailing silent blocks : No
Null samples used in CRC calculations : Yes
Used interface : Native Win32 interface for Win NT & 2000
Gap handling : Appended to previous track

Used output format : User Defined Encoder
Selected bitrate : 1024 kBit/s
Quality : High
Add ID3 tag : No
Command line compressor : C:\Program Files (x86)\Exact Audio Copy\FLAC\FLAC.EXE
Additional command line options : -8 -e -p -V -T "ARTIST=%artist%" -T "TITLE=%title%" -T "ALBUM=%albumtitle%" -T "DATE=%year%" -T "TRACKNUMBER=%tracknr%" -T "GENRE=%genre%" -T "TOTALTRACKS=%numtracks%" %source% -o %dest%


TOC of the extracted CD

Track | Start | Length | Start sector | End sector
––––––––––––––––––––––––––––-
1 | 0:00.00 | 1:19.72 | 0 | 5996
2 | 1:19.72 | 3:34.72 | 5997 | 22118
3 | 4:54.69 | 3:04.32 | 22119 | 35950
4 | 7:59.26 | 3:36.32 | 35951 | 52182
5 | 11:35.58 | 3:04.07 | 52183 | 65989
6 | 14:39.65 | 3:34.74 | 65990 | 82113
7 | 18:14.64 | 3:27.18 | 82114 | 97656
8 | 21:42.07 | 2:57.20 | 97657 | 110951
9 | 24:39.27 | 4:06.42 | 110952 | 129443
10 | 28:45.69 | 1:37.40 | 129444 | 136758
11 | 30:23.34 | 2:11.17 | 136759 | 146600
12 | 32:34.51 | 2:54.51 | 146601 | 159701
13 | 35:29.27 | 3:00.30 | 159702 | 173231
14 | 38:29.57 | 3:16.64 | 173232 | 187995
15 | 41:46.46 | 2:54.20 | 187996 | 201065
16 | 44:40.66 | 3:36.64 | 201066 | 217329
17 | 48:17.55 | 1:16.54 | 217330 | 223083
18 | 49:34.34 | 3:03.31 | 223084 | 236839
19 | 52:37.65 | 3:11.71 | 236840 | 251235
20 | 55:49.61 | 3:12.08 | 251236 | 265643
21 | 59:01.69 | 3:11.45 | 265644 | 280013
22 | 62:13.39 | 4:02.38 | 280014 | 298201
23 | 66:16.02 | 3:00.48 | 298202 | 311749
24 | 69:16.50 | 4:04.28 | 311750 | 330077


Track 1

Filename D:\MyRED\EAC Rips\Bowling for Soup\Bowling for Soup - 2019 - Live from Brixton - Older, Fatter, But Still the Greatest Ever! {BRANDO1801}\01 - Bowling for Soup - BFS Theme.wav

Pre-gap length 0:00:02.00

Peak level 99.0 %
Extraction speed 1.7 X
Track quality 100.0 %
Test CRC 5090BCBB
Copy CRC 5090BCBB
Track not present in AccurateRip database
Copy OK

Track 2

Filename D:\MyRED\EAC Rips\Bowling for Soup\Bowling for Soup - 2019 - Live from Brixton - Older, Fatter, But Still the Greatest Ever! {BRANDO1801}\02 - Bowling for Soup - I Don't Wanna Rock.wav

Peak level 100.0 %
Extraction speed 2.1 X
Track quality 100.0 %
Test CRC 007C025F
Copy CRC 007C025F
Track not present in AccurateRip database
Copy OK

Track 3

Filename D:\MyRED\EAC Rips\Bowling for Soup\Bowling for Soup - 2019 - Live from Brixton - Older, Fatter, But Still the Greatest Ever! {BRANDO1801}\03 - Bowling for Soup - Emily.wav

Peak level 100.0 %
Extraction speed 2.1 X
Track quality 100.0 %
Test CRC 5AF4E1D9
Copy CRC 5AF4E1D9
Track not present in AccurateRip database
Copy OK

Track 4

Filename D:\MyRED\EAC Rips\Bowling for Soup\Bowling for Soup - 2019 - Live from Brixton - Older, Fatter, But Still the Greatest Ever! {BRANDO1801}\04 - Bowling for Soup - Girl All the Bad Guys Want.wav

Peak level 100.0 %
Extraction speed 1.5 X
Track quality 99.9 %
Test CRC 85BCCA3E
Copy CRC 85BCCA3E
Track not present in AccurateRip database
Copy OK

Track 5

Filename D:\MyRED\EAC Rips\Bowling for Soup\Bowling for Soup - 2019 - Live from Brixton - Older, Fatter, But Still the Greatest Ever! {BRANDO1801}\05 - Bowling for Soup - On and On (About You).wav

Peak level 100.0 %
Extraction speed 2.1 X
Track quality 100.0 %
Test CRC A741B0E0
Copy CRC A741B0E0
Track not present in AccurateRip database
Copy OK

Track 6

Filename D:\MyRED\EAC Rips\Bowling for Soup\Bowling for Soup - 2019 - Live from Brixton - Older, Fatter, But Still the Greatest Ever! {BRANDO1801}\06 - Bowling for Soup - Surf Colorado.wav

Peak level 100.0 %
Extraction speed 2.1 X
Track quality 100.0 %
Test CRC 7662CA8F
Copy CRC 7662CA8F
Track not present in AccurateRip database
Copy OK

Track 7

Filename D:\MyRED\EAC Rips\Bowling for Soup\Bowling for Soup - 2019 - Live from Brixton - Older, Fatter, But Still the Greatest Ever! {BRANDO1801}\07 - Bowling for Soup - Almost.wav

Peak level 100.0 %
Extraction speed 2.1 X
Track quality 100.0 %
Test CRC 5202094B
Copy CRC 5202094B
Track not present in AccurateRip database
Copy OK

Track 8

Filename D:\MyRED\EAC Rips\Bowling for Soup\Bowling for Soup - 2019 - Live from Brixton - Older, Fatter, But Still the Greatest Ever! {BRANDO1801}\08 - Bowling for Soup - Life After Lisa.wav

Peak level 100.0 %
Extraction speed 1.3 X
Track quality 99.9 %
Test CRC D0B751D7
Copy CRC D0B751D7
Track not present in AccurateRip database
Copy OK

Track 9

Filename D:\MyRED\EAC Rips\Bowling for Soup\Bowling for Soup - 2019 - Live from Brixton - Older, Fatter, But Still the Greatest Ever! {BRANDO1801}\09 - Bowling for Soup - Where to Begin.wav

Peak level 100.0 %
Extraction speed 2.2 X
Track quality 100.0 %
Test CRC CBC4EAE1
Copy CRC CBC4EAE1
Track not present in AccurateRip database
Copy OK

Track 10

Filename D:\MyRED\EAC Rips\Bowling for Soup\Bowling for Soup - 2019 - Live from Brixton - Older, Fatter, But Still the Greatest Ever! {BRANDO1801}\10 - Bowling for Soup - The Last Rock Show.wav

Peak level 100.0 %
Extraction speed 1.8 X
Track quality 100.0 %
Test CRC 22C073BD
Copy CRC 22C073BD
Track not present in AccurateRip database
Copy OK

Track 11

Filename D:\MyRED\EAC Rips\Bowling for Soup\Bowling for Soup - 2019 - Live from Brixton - Older, Fatter, But Still the Greatest Ever! {BRANDO1801}\11 - Bowling for Soup - Punk Rock 101.wav

Peak level 100.0 %
Extraction speed 1.9 X
Track quality 100.0 %
Test CRC FA4A208E
Copy CRC FA4A208E
Track not present in AccurateRip database
Copy OK

Track 12

Filename D:\MyRED\EAC Rips\Bowling for Soup\Bowling for Soup - 2019 - Live from Brixton - Older, Fatter, But Still the Greatest Ever! {BRANDO1801}\12 - Bowling for Soup - Self-Centered.wav

Peak level 100.0 %
Extraction speed 2.0 X
Track quality 100.0 %
Test CRC 6E4CD137
Copy CRC 6E4CD137
Track not present in AccurateRip database
Copy OK

Track 13

Filename D:\MyRED\EAC Rips\Bowling for Soup\Bowling for Soup - 2019 - Live from Brixton - Older, Fatter, But Still the Greatest Ever! {BRANDO1801}\13 - Bowling for Soup - The Hard Way.wav

Peak level 100.0 %
Extraction speed 2.1 X
Track quality 100.0 %
Test CRC A48311B7
Copy CRC A48311B7
Track not present in AccurateRip database
Copy OK

Track 14

Filename D:\MyRED\EAC Rips\Bowling for Soup\Bowling for Soup - 2019 - Live from Brixton - Older, Fatter, But Still the Greatest Ever! {BRANDO1801}\14 - Bowling for Soup - The Bitch Song.wav

Peak level 100.0 %
Extraction speed 1.4 X
Track quality 99.9 %
Test CRC C2193705
Copy CRC C2193705
Track not present in AccurateRip database
Copy OK

Track 15

Filename D:\MyRED\EAC Rips\Bowling for Soup\Bowling for Soup - 2019 - Live from Brixton - Older, Fatter, But Still the Greatest Ever! {BRANDO1801}\15 - Bowling for Soup - Out the Window.wav

Peak level 100.0 %
Extraction speed 1.3 X
Track quality 99.9 %
Test CRC 601A527D
Copy CRC 601A527D
Track not present in AccurateRip database
Copy OK

Track 16

Filename D:\MyRED\EAC Rips\Bowling for Soup\Bowling for Soup - 2019 - Live from Brixton - Older, Fatter, But Still the Greatest Ever! {BRANDO1801}\16 - Bowling for Soup - Cold Shower Tuesdays.wav

Peak level 100.0 %
Extraction speed 2.1 X
Track quality 100.0 %
Test CRC C419A3B0
Copy CRC C419A3B0
Track not present in AccurateRip database
Copy OK

Track 17

Filename D:\MyRED\EAC Rips\Bowling for Soup\Bowling for Soup - 2019 - Live from Brixton - Older, Fatter, But Still the Greatest Ever! {BRANDO1801}\17 - Bowling for Soup - Today Is Gonna Be a Great Day (Theme Song to Phineas and Ferb).wav

Peak level 99.1 %
Extraction speed 1.7 X
Track quality 100.0 %
Test CRC 11F232D5
Copy CRC 11F232D5
Track not present in AccurateRip database
Copy OK

Track 18

Filename D:\MyRED\EAC Rips\Bowling for Soup\Bowling for Soup - 2019 - Live from Brixton - Older, Fatter, But Still the Greatest Ever! {BRANDO1801}\18 - Bowling for Soup - Running from Your Dad.wav

Peak level 99.7 %
Extraction speed 2.1 X
Track quality 100.0 %
Test CRC A12CFD15
Copy CRC A12CFD15
Track not present in AccurateRip database
Copy OK

Track 19

Filename D:\MyRED\EAC Rips\Bowling for Soup\Bowling for Soup - 2019 - Live from Brixton - Older, Fatter, But Still the Greatest Ever! {BRANDO1801}\19 - Bowling for Soup - High School Never Ends.wav

Peak level 100.0 %
Extraction speed 2.1 X
Track quality 100.0 %
Test CRC 94C45711
Copy CRC 94C45711
Track not present in AccurateRip database
Copy OK

Track 20

Filename D:\MyRED\EAC Rips\Bowling for Soup\Bowling for Soup - 2019 - Live from Brixton - Older, Fatter, But Still the Greatest Ever! {BRANDO1801}\20 - Bowling for Soup - Scaring Myself.wav

Peak level 100.0 %
Extraction speed 2.1 X
Track quality 100.0 %
Test CRC D8D92034
Copy CRC D8D92034
Track not present in AccurateRip database
Copy OK

Track 21

Filename D:\MyRED\EAC Rips\Bowling for Soup\Bowling for Soup - 2019 - Live from Brixton - Older, Fatter, But Still the Greatest Ever! {BRANDO1801}\21 - Bowling for Soup - Greatest Day.wav

Peak level 100.0 %
Extraction speed 2.1 X
Track quality 100.0 %
Test CRC 049E6B66
Copy CRC 049E6B66
Track not present in AccurateRip database
Copy OK

Track 22

Filename D:\MyRED\EAC Rips\Bowling for Soup\Bowling for Soup - 2019 - Live from Brixton - Older, Fatter, But Still the Greatest Ever! {BRANDO1801}\22 - Bowling for Soup - Ohio (Come Back to Texas).wav

Peak level 100.0 %
Extraction speed 2.2 X
Track quality 100.0 %
Test CRC FF35FCE7
Copy CRC FF35FCE7
Track not present in AccurateRip database
Copy OK

Track 23

Filename D:\MyRED\EAC Rips\Bowling for Soup\Bowling for Soup - 2019 - Live from Brixton - Older, Fatter, But Still the Greatest Ever! {BRANDO1801}\23 - Bowling for Soup - Star Song.wav

Peak level 100.0 %
Extraction speed 2.1 X
Track quality 100.0 %
Test CRC CEBBA5DB
Copy CRC CEBBA5DB
Track not present in AccurateRip database
Copy OK

Track 24

Filename D:\MyRED\EAC Rips\Bowling for Soup\Bowling for Soup - 2019 - Live from Brixton - Older, Fatter, But Still the Greatest Ever! {BRANDO1801}\24 - Bowling for Soup - 1985.wav

Peak level 100.0 %
Extraction speed 2.4 X
Track quality 99.9 %
Test CRC 6BCE75C4
Copy CRC 6BCE75C4
Track not present in AccurateRip database
Copy OK


None of the tracks are present in the AccurateRip database

No errors occurred

End of status report

–– CUETools DB Plugin V2.1.6

[CTDB TOCID: ToA5ccFVdeLm1JwbJ7HThxeXKN0-] disk not present in database
Submit result: ToA5ccFVdeLm1JwbJ7HThxeXKN0- has been uploaded


==== Log checksum 8A442B462A9DDF5CC491DCA97660315263AA7CC002FA8C119A67002D7D88FE09 ====

Thanks to the Original ripper malinwa001 !