Subcategories

Brain Damage - Walk the Walk (2015)

Posted By: aasana
Brain Damage - Walk the Walk (2015)

Brain Damage - Walk the Walk (2015)
EAC Rip | FLAC (tracks+.cue+.log) | 42:14 min | 258 MB
Reggae, Dub | Label: Jarring Effects

With more than 11 albums behind him already, Martin Nathan ventures since 15 years into many artistic and stylistic experiments, under the name of Brain Damage. Alternately dark, atmospheric, aggressive or poetic, his universe seems to be constantly evolving, what may be the key to his project longevity.

Acclaimed as one of the founders of the French dub scene, he presents, early in 1999, the first dub live-act of its kind in France. After producing the famous « Brain Booster » track, embryo of the French dub-steppa, he forges connections with some masters of the style in the UK (Zion Train, Alpha & Omega, The Disciples). 2002, in London, alongside the singer Tena Stelin, he composes the standard « Genetic Weapon », — still recently taken over by OBF Sound System —, and produces afterwards his two first albums on the Parisian label Hammerbass. 2006, always accompanied by the bassist Raphaël Talis, he joins the label Jarring Effects. A trilogy of three experimental and conceptual opuses follows, developed in collaboration with a host of international artists (Black Sifichi, Mark Stewart, Hakim Bey), openly breaking the codes and blowing up the very boundaries of the style, where he was a bit hastily catalogued.

After his sidekick left, 2011 marks the beginning of a new chapter, prompting into new directions the project that becomes more polymorphous than ever. Martin Nathan balances then collaborations (High Tone, Vibronics, Sir Jean) and his solo works, getting always closer to the roots of his favorite style.

2015 the realization in Kingston, Jamaica, of a part of his upcoming album seems to confirm it. His friendship with Samuel Clayton Jr, sound engineer and internationally respected producer (Steel Pulse / Toots & the Maytals) was decisive in the choice of this destination. This essential figure in Jamaica indeed opens the doors of the mythical Harry J Studio (Bob Marley / Burning Spear) to Brain Damage, and enables improbable connections with legendary artists for unforgettable studio sessions.

01. Brain Damage - Walk the Walk (feat. Ras Michael) (4:27)
02. Brain Damage - Vamp Dem (feat. Kiddus I) (3:52)
03. Brain Damage - Lion and Goat (feat. Winston McAnuff) (4:30)
04. Brain Damage - Mama Words (feat. Horace Andy) (3:54)
05. Brain Damage - Pray Fi Di Youts (feat. Willi Williams) (4:36)
06. Brain Damage - Fyah Bun (feat. Willi Williams) (4:08)
07. Brain Damage - Youts of Today– Harry J 2015 (feat. Horace Andy) (3:37)
08. Brain Damage - Birthday Song (feat. Winston McAnuff) (3:58)
09. Brain Damage - Grandma Puddin' (feat. Kiddus I) (4:46)
10. Brain Damage - Love Makes the World Go Round (feat. Ras Michael) (4:25)

Exact Audio Copy V1.1 from 23. June 2015

EAC extraction logfile from 6. June 2016, 9:42

Brain Damage / Walk the Walk

Used drive : MATSHITADVD-RAM UJ8G2 Adapter: 1 ID: 1

Read mode : Secure
Utilize accurate stream : Yes
Defeat audio cache : Yes
Make use of C2 pointers : No

Read offset correction : 103
Overread into Lead-In and Lead-Out : No
Fill up missing offset samples with silence : Yes
Delete leading and trailing silent blocks : No
Null samples used in CRC calculations : Yes
Used interface : Native Win32 interface for Win NT & 2000
Gap handling : Appended to previous track

Used output format : User Defined Encoder
Selected bitrate : 1024 kBit/s
Quality : High
Add ID3 tag : No
Command line compressor : C:\Program Files (x86)\Exact Audio Copy\Flac\flac.exe
Additional command line options : -8 -V -T "ARTIST=%artist%" -T "TITLE=%title%" -T "ALBUM=%albumtitle%" -T "DATE=%year%" -T "TRACKNUMBER=%tracknr%" -T "GENRE=%genre%" -T "PERFORMER=%albuminterpret%" -T "COMPOSER=%composer%" %haslyrics%–tag-from-file=LYRICS="%lyricsfile%"%haslyrics% -T "ALBUMARTIST=%albumartist%" -T "DISCNUMBER=%cdnumber%" -T "TOTALDISCS=%totalcds%" -T "TOTALTRACKS=%numtracks%" -T "COMMENT=%comment%" %source% -o %dest%


TOC of the extracted CD

Track | Start | Length | Start sector | End sector
––––––––––––––––––––––––––––-
1 | 0:00.00 | 4:26.50 | 0 | 19999
2 | 4:26.50 | 3:51.63 | 20000 | 37387
3 | 8:18.38 | 4:29.64 | 37388 | 57626
4 | 12:48.27 | 3:53.74 | 57627 | 75175
5 | 16:42.26 | 4:36.02 | 75176 | 95877
6 | 21:18.28 | 4:08.19 | 95878 | 114496
7 | 25:26.47 | 3:37.32 | 114497 | 130803
8 | 29:04.04 | 3:58.22 | 130804 | 148675
9 | 33:02.26 | 4:46.34 | 148676 | 170159
10 | 37:48.60 | 4:25.28 | 170160 | 190062


Track 1

Filename D:\EAC Rips\Brain Damage - 2015 - Walk the Walk [CD - FLAC]\01 - Walk the Walk (feat. Ras Michael).wav

Pre-gap length 0:00:02.00

Peak level 100.0 %
Extraction speed 1.5 X
Track quality 100.0 %
Test CRC C78DB5AB
Copy CRC C78DB5AB
Track not present in AccurateRip database
Copy OK

Track 2

Filename D:\EAC Rips\Brain Damage - 2015 - Walk the Walk [CD - FLAC]\02 - Vamp Dem (feat. Kiddus I).wav

Pre-gap length 0:00:01.96

Peak level 100.0 %
Extraction speed 1.6 X
Track quality 100.0 %
Test CRC F159300F
Copy CRC F159300F
Track not present in AccurateRip database
Copy OK

Track 3

Filename D:\EAC Rips\Brain Damage - 2015 - Walk the Walk [CD - FLAC]\03 - Lion and Goat (feat. Winston McAnuff).wav

Pre-gap length 0:00:01.26

Peak level 100.0 %
Extraction speed 1.8 X
Track quality 100.0 %
Test CRC B205DEDD
Copy CRC B205DEDD
Track not present in AccurateRip database
Copy OK

Track 4

Filename D:\EAC Rips\Brain Damage - 2015 - Walk the Walk [CD - FLAC]\04 - Mama Words (feat. Horace Andy).wav

Pre-gap length 0:00:01.38

Peak level 100.0 %
Extraction speed 1.9 X
Track quality 100.0 %
Test CRC 3A54B067
Copy CRC 3A54B067
Track not present in AccurateRip database
Copy OK

Track 5

Filename D:\EAC Rips\Brain Damage - 2015 - Walk the Walk [CD - FLAC]\05 - Pray Fi Di Youts (feat. Willi Williams).wav

Peak level 100.0 %
Extraction speed 2.1 X
Track quality 100.0 %
Test CRC C7BB9D1A
Copy CRC C7BB9D1A
Track not present in AccurateRip database
Copy OK

Track 6

Filename D:\EAC Rips\Brain Damage - 2015 - Walk the Walk [CD - FLAC]\06 - Fyah Bun (feat. Willi Williams).wav

Pre-gap length 0:00:02.21

Peak level 100.0 %
Extraction speed 2.2 X
Track quality 100.0 %
Test CRC 891411A7
Copy CRC 891411A7
Track not present in AccurateRip database
Copy OK

Track 7

Filename D:\EAC Rips\Brain Damage - 2015 - Walk the Walk [CD - FLAC]\07 - Youts of Today– Harry J 2015 (feat. Horace Andy).wav

Peak level 100.0 %
Extraction speed 2.0 X
Track quality 99.9 %
Test CRC 70BE6B1B
Copy CRC 70BE6B1B
Track not present in AccurateRip database
Copy OK

Track 8

Filename D:\EAC Rips\Brain Damage - 2015 - Walk the Walk [CD - FLAC]\08 - Birthday Song (feat. Winston McAnuff).wav

Pre-gap length 0:00:01.00

Peak level 100.0 %
Extraction speed 2.4 X
Track quality 100.0 %
Test CRC F842564E
Copy CRC F842564E
Track not present in AccurateRip database
Copy OK

Track 9

Filename D:\EAC Rips\Brain Damage - 2015 - Walk the Walk [CD - FLAC]\09 - Grandma Puddin' (feat. Kiddus I).wav

Pre-gap length 0:00:02.64

Peak level 100.0 %
Extraction speed 2.5 X
Track quality 100.0 %
Test CRC F2161B6C
Copy CRC F2161B6C
Track not present in AccurateRip database
Copy OK

Track 10

Filename D:\EAC Rips\Brain Damage - 2015 - Walk the Walk [CD - FLAC]\10 - Love Makes the World Go Round (feat. Ras Michael).wav

Pre-gap length 0:00:01.62

Peak level 100.0 %
Extraction speed 2.6 X
Track quality 100.0 %
Test CRC 03ADE13F
Copy CRC 03ADE13F
Track not present in AccurateRip database
Copy OK


None of the tracks are present in the AccurateRip database

No errors occurred

End of status report

–– CUETools DB Plugin V2.1.6

[CTDB TOCID: JrMp7yunYyadXUQOfqQ6fDF9D_M-] disk not present in database
Submit result: JrMp7yunYyadXUQOfqQ6fDF9D_M- has been uploaded


==== Log checksum C1673DE832D08F250419BC00838C45BE24864E2E357EA4D9B471637DD84723F7 ====