Subcategories

Brian Culbertson - XX (2020)

Posted By: delpotro
Brian Culbertson - XX (2020)

Brian Culbertson - XX (2020)
XLD Rip | FLAC (tracks+log+.cue) - 371 Mb | MP3 CBR 320 kbps - 130 Mb | 00:56:48
Jazz-Funk, Smooth Jazz | Label: BCM Entertainment

As chart-topping multi-instrumentalist, songwriter and producer Brian Culbertson crafts his 20th album, the aptly titled "XX".Culbertson's catalogue includes recordings of jazz - contemporary and straight ahead - as well as R&B, funk, instrumental pop and New Age. "XX," which drops April 10, reflects his remarkable diversity. "It's a mix of things that I've done throughout my twenty records. There's a lot of funky instrumentals, some pop-sounding tracks, a couple slow jams, straight-ahead jazz, gospel, some vocals, lots of horns and some straight-up FUNK! The album is very much a mixture of some modern sounding programming along with live instruments, too. Real drums on almost everything mixed with programming. Definitely a cool sound," said Culbertson.
Tracklist:
1. Get Up! (feat. Mr. Talkbox & Marcus Anderson) (05:06)
2. Dance Like This (feat. Bootsy Collins) (04:41)
3. The Hangout (feat. Ray Parker Jr.) (06:20)
4. Prelude to More Than Thankful (00:41)
5. More Than Thankful (feat. Avery*Sunshine) (04:45)
6. It’s a Love Thing (06:24)
7. Time Flies (04:44)
8. Sexy Love (feat. Jubu Smith) (06:16)
9. Keep Movin' (feat. Everette Harp) (05:19)
10. The Truth (feat. Noel Gourdin) (06:24)
11. Intro to Looking Back (00:46)
12. Looking Back (feat. Patches Stewart) (05:18)

X Lossless Decoder version 20191004 (152.0)

XLD extraction logfile from 2020-03-27 11:00:46 +0000

Brian Culbertson / XX

Used drive : MATSHITA BD-MLT UJ240AF (revision 1.00)
Media type : Pressed CD

Ripper mode : XLD Secure Ripper
Disable audio cache : OK for the drive with a cache less than 1375KiB
Make use of C2 pointers : NO
Read offset correction : 103
Max retry count : 25
Gap status : Analyzed, Appended (except HTOA)

TOC of the extracted CD
Track | Start | Length | Start sector | End sector
––––––––––––––––––––––––––––-
1 | 00:00:00 | 05:06:49 | 0 | 22998
2 | 05:06:49 | 04:41:44 | 22999 | 44117
3 | 09:48:18 | 06:20:22 | 44118 | 72639
4 | 16:08:40 | 00:41:03 | 72640 | 75717
5 | 16:49:43 | 04:45:35 | 75718 | 97127
6 | 21:35:03 | 06:24:04 | 97128 | 125931
7 | 27:59:07 | 04:44:00 | 125932 | 147231
8 | 32:43:07 | 06:16:33 | 147232 | 175464
9 | 38:59:40 | 05:19:12 | 175465 | 199401
10 | 44:18:52 | 06:24:57 | 199402 | 228258
11 | 50:43:34 | 00:46:22 | 228259 | 231730
12 | 51:29:56 | 05:18:46 | 231731 | 255626

AccurateRip Summary
Disc not found in AccurateRip DB.

All Tracks
Album gain : -7.51 dB
Peak : 0.999969
Statistics
Read error : 0
Jitter error (maybe fixed) : 0
Retry sector count : 0
Damaged sector count : 0

Track 01
Filename : /Users/imac/Working Folder/XLD/Brian Culbertson - XX (2020) [FLAC]/01 - Brian Culbertson Feat. Mr. Talkbox & Marcus Anderson - Get Up!.flac
/Users/imac/Working Folder/XLD/Brian Culbertson - XX (2020) [MP3-320]/01 - Brian Culbertson Feat. Mr. Talkbox & Marcus Anderson - Get Up!.mp3
/Users/imac/Working Folder/XLD/Brian Culbertson - XX (2020) [MP3-V0]/01 - Brian Culbertson Feat. Mr. Talkbox & Marcus Anderson - Get Up!.mp3
/Users/imac/Working Folder/XLD/Brian Culbertson - XX (2020) [MP3-V2]/01 - Brian Culbertson Feat. Mr. Talkbox & Marcus Anderson - Get Up!.mp3
Pre-gap length : 00:02:00

Track gain : -8.87 dB
Peak : 0.999969
CRC32 hash (test run) : 545AFFFA
CRC32 hash : 545AFFFA
CRC32 hash (skip zero) : A7C51C6F
AccurateRip v1 signature : E378CCB0
AccurateRip v2 signature : EE0E12CB
->Track not present in AccurateRip database.
Statistics
Read error : 0
Jitter error (maybe fixed) : 0
Retry sector count : 0
Damaged sector count : 0

Track 02
Filename : /Users/imac/Working Folder/XLD/Brian Culbertson - XX (2020) [FLAC]/02 - Brian Culbertson Feat. Bootsy Collins - Dance Like This.flac
/Users/imac/Working Folder/XLD/Brian Culbertson - XX (2020) [MP3-320]/02 - Brian Culbertson Feat. Bootsy Collins - Dance Like This.mp3
/Users/imac/Working Folder/XLD/Brian Culbertson - XX (2020) [MP3-V0]/02 - Brian Culbertson Feat. Bootsy Collins - Dance Like This.mp3
/Users/imac/Working Folder/XLD/Brian Culbertson - XX (2020) [MP3-V2]/02 - Brian Culbertson Feat. Bootsy Collins - Dance Like This.mp3

Track gain : -8.06 dB
Peak : 0.991211
CRC32 hash (test run) : BBAE32A5
CRC32 hash : BBAE32A5
CRC32 hash (skip zero) : A85BAFEE
AccurateRip v1 signature : 6DA8356E
AccurateRip v2 signature : 1D1AA2BB
->Track not present in AccurateRip database.
Statistics
Read error : 0
Jitter error (maybe fixed) : 0
Retry sector count : 0
Damaged sector count : 0

Track 03
Filename : /Users/imac/Working Folder/XLD/Brian Culbertson - XX (2020) [FLAC]/03 - Brian Culbertson Feat. Ray Parker Jr. - The Hangout.flac
/Users/imac/Working Folder/XLD/Brian Culbertson - XX (2020) [MP3-320]/03 - Brian Culbertson Feat. Ray Parker Jr. - The Hangout.mp3
/Users/imac/Working Folder/XLD/Brian Culbertson - XX (2020) [MP3-V0]/03 - Brian Culbertson Feat. Ray Parker Jr. - The Hangout.mp3
/Users/imac/Working Folder/XLD/Brian Culbertson - XX (2020) [MP3-V2]/03 - Brian Culbertson Feat. Ray Parker Jr. - The Hangout.mp3

Track gain : -8.79 dB
Peak : 0.999969
CRC32 hash (test run) : 8EB9CE40
CRC32 hash : 8EB9CE40
CRC32 hash (skip zero) : 62555515
AccurateRip v1 signature : D16049B9
AccurateRip v2 signature : 089F324B
->Track not present in AccurateRip database.
Statistics
Read error : 0
Jitter error (maybe fixed) : 0
Retry sector count : 0
Damaged sector count : 0

Track 04
Filename : /Users/imac/Working Folder/XLD/Brian Culbertson - XX (2020) [FLAC]/04 - Brian Culbertson - Prelude to More Than Thankful.flac
/Users/imac/Working Folder/XLD/Brian Culbertson - XX (2020) [MP3-320]/04 - Brian Culbertson - Prelude to More Than Thankful.mp3
/Users/imac/Working Folder/XLD/Brian Culbertson - XX (2020) [MP3-V0]/04 - Brian Culbertson - Prelude to More Than Thankful.mp3
/Users/imac/Working Folder/XLD/Brian Culbertson - XX (2020) [MP3-V2]/04 - Brian Culbertson - Prelude to More Than Thankful.mp3

Track gain : -0.12 dB
Peak : 0.866333
CRC32 hash (test run) : 28964882
CRC32 hash : 28964882
CRC32 hash (skip zero) : 7B78B2D9
AccurateRip v1 signature : E819E9AF
AccurateRip v2 signature : CAC6A5BF
->Track not present in AccurateRip database.
Statistics
Read error : 0
Jitter error (maybe fixed) : 0
Retry sector count : 0
Damaged sector count : 0

Track 05
Filename : /Users/imac/Working Folder/XLD/Brian Culbertson - XX (2020) [FLAC]/05 - Brian Culbertson Feat. Avery*Sunshine - More Than Thankful.flac
/Users/imac/Working Folder/XLD/Brian Culbertson - XX (2020) [MP3-320]/05 - Brian Culbertson Feat. Avery*Sunshine - More Than Thankful.mp3
/Users/imac/Working Folder/XLD/Brian Culbertson - XX (2020) [MP3-V0]/05 - Brian Culbertson Feat. Avery*Sunshine - More Than Thankful.mp3
/Users/imac/Working Folder/XLD/Brian Culbertson - XX (2020) [MP3-V2]/05 - Brian Culbertson Feat. Avery*Sunshine - More Than Thankful.mp3

Track gain : -8.49 dB
Peak : 0.999969
CRC32 hash (test run) : 29798786
CRC32 hash : 29798786
CRC32 hash (skip zero) : 7028F594
AccurateRip v1 signature : C8FF9CFE
AccurateRip v2 signature : 69404B60
->Track not present in AccurateRip database.
Statistics
Read error : 0
Jitter error (maybe fixed) : 0
Retry sector count : 0
Damaged sector count : 0

Track 06
Filename : /Users/imac/Working Folder/XLD/Brian Culbertson - XX (2020) [FLAC]/06 - Brian Culbertson - It's a Love Thing.flac
/Users/imac/Working Folder/XLD/Brian Culbertson - XX (2020) [MP3-320]/06 - Brian Culbertson - It's a Love Thing.mp3
/Users/imac/Working Folder/XLD/Brian Culbertson - XX (2020) [MP3-V0]/06 - Brian Culbertson - It's a Love Thing.mp3
/Users/imac/Working Folder/XLD/Brian Culbertson - XX (2020) [MP3-V2]/06 - Brian Culbertson - It's a Love Thing.mp3

Track gain : -6.27 dB
Peak : 0.999969
CRC32 hash (test run) : 62394718
CRC32 hash : 62394718
CRC32 hash (skip zero) : 96C839E9
AccurateRip v1 signature : 818503BE
AccurateRip v2 signature : 9C2866E0
->Track not present in AccurateRip database.
Statistics
Read error : 0
Jitter error (maybe fixed) : 0
Retry sector count : 0
Damaged sector count : 0

Track 07
Filename : /Users/imac/Working Folder/XLD/Brian Culbertson - XX (2020) [FLAC]/07 - Brian Culbertson - Time Flies.flac
/Users/imac/Working Folder/XLD/Brian Culbertson - XX (2020) [MP3-320]/07 - Brian Culbertson - Time Flies.mp3
/Users/imac/Working Folder/XLD/Brian Culbertson - XX (2020) [MP3-V0]/07 - Brian Culbertson - Time Flies.mp3
/Users/imac/Working Folder/XLD/Brian Culbertson - XX (2020) [MP3-V2]/07 - Brian Culbertson - Time Flies.mp3

Track gain : -6.57 dB
Peak : 0.999969
CRC32 hash (test run) : 49833157
CRC32 hash : 49833157
CRC32 hash (skip zero) : 1575FDF8
AccurateRip v1 signature : E72F5447
AccurateRip v2 signature : CC9EB65E
->Track not present in AccurateRip database.
Statistics
Read error : 0
Jitter error (maybe fixed) : 0
Retry sector count : 0
Damaged sector count : 0

Track 08
Filename : /Users/imac/Working Folder/XLD/Brian Culbertson - XX (2020) [FLAC]/08 - Brian Culbertson Feat. Jubu Smith - Sexy Love.flac
/Users/imac/Working Folder/XLD/Brian Culbertson - XX (2020) [MP3-320]/08 - Brian Culbertson Feat. Jubu Smith - Sexy Love.mp3
/Users/imac/Working Folder/XLD/Brian Culbertson - XX (2020) [MP3-V0]/08 - Brian Culbertson Feat. Jubu Smith - Sexy Love.mp3
/Users/imac/Working Folder/XLD/Brian Culbertson - XX (2020) [MP3-V2]/08 - Brian Culbertson Feat. Jubu Smith - Sexy Love.mp3

Track gain : -6.80 dB
Peak : 0.999969
CRC32 hash (test run) : 609F1DAB
CRC32 hash : 609F1DAB
CRC32 hash (skip zero) : FCC1FDD1
AccurateRip v1 signature : 0D388822
AccurateRip v2 signature : 3D724C21
->Track not present in AccurateRip database.
Statistics
Read error : 0
Jitter error (maybe fixed) : 0
Retry sector count : 0
Damaged sector count : 0

Track 09
Filename : /Users/imac/Working Folder/XLD/Brian Culbertson - XX (2020) [FLAC]/09 - Brian Culbertson Feat. Everette Harp - Keep Movin'.flac
/Users/imac/Working Folder/XLD/Brian Culbertson - XX (2020) [MP3-320]/09 - Brian Culbertson Feat. Everette Harp - Keep Movin'.mp3
/Users/imac/Working Folder/XLD/Brian Culbertson - XX (2020) [MP3-V0]/09 - Brian Culbertson Feat. Everette Harp - Keep Movin'.mp3
/Users/imac/Working Folder/XLD/Brian Culbertson - XX (2020) [MP3-V2]/09 - Brian Culbertson Feat. Everette Harp - Keep Movin'.mp3

Track gain : -8.28 dB
Peak : 0.999969
CRC32 hash (test run) : 812414A0
CRC32 hash : 812414A0
CRC32 hash (skip zero) : 04674A97
AccurateRip v1 signature : A1E3F70C
AccurateRip v2 signature : 32BB0169
->Track not present in AccurateRip database.
Statistics
Read error : 0
Jitter error (maybe fixed) : 0
Retry sector count : 0
Damaged sector count : 0

Track 10
Filename : /Users/imac/Working Folder/XLD/Brian Culbertson - XX (2020) [FLAC]/10 - Brian Culbertson Feat. Noel Gourdin - The Truth.flac
/Users/imac/Working Folder/XLD/Brian Culbertson - XX (2020) [MP3-320]/10 - Brian Culbertson Feat. Noel Gourdin - The Truth.mp3
/Users/imac/Working Folder/XLD/Brian Culbertson - XX (2020) [MP3-V0]/10 - Brian Culbertson Feat. Noel Gourdin - The Truth.mp3
/Users/imac/Working Folder/XLD/Brian Culbertson - XX (2020) [MP3-V2]/10 - Brian Culbertson Feat. Noel Gourdin - The Truth.mp3

Track gain : -6.96 dB
Peak : 0.999969
CRC32 hash (test run) : DBDDBB66
CRC32 hash : DBDDBB66
CRC32 hash (skip zero) : 27EA6278
AccurateRip v1 signature : 66540EC2
AccurateRip v2 signature : 5C9EB6F8
->Track not present in AccurateRip database.
Statistics
Read error : 0
Jitter error (maybe fixed) : 0
Retry sector count : 0
Damaged sector count : 0

Track 11
Filename : /Users/imac/Working Folder/XLD/Brian Culbertson - XX (2020) [FLAC]/11 - Brian Culbertson - Intro to Looking Back.flac
/Users/imac/Working Folder/XLD/Brian Culbertson - XX (2020) [MP3-320]/11 - Brian Culbertson - Intro to Looking Back.mp3
/Users/imac/Working Folder/XLD/Brian Culbertson - XX (2020) [MP3-V0]/11 - Brian Culbertson - Intro to Looking Back.mp3
/Users/imac/Working Folder/XLD/Brian Culbertson - XX (2020) [MP3-V2]/11 - Brian Culbertson - Intro to Looking Back.mp3

Track gain : -0.92 dB
Peak : 0.989227
CRC32 hash (test run) : C8B9CC5B
CRC32 hash : C8B9CC5B
CRC32 hash (skip zero) : FEDCEC92
AccurateRip v1 signature : AD539BDA
AccurateRip v2 signature : 0D395D64
->Track not present in AccurateRip database.
Statistics
Read error : 0
Jitter error (maybe fixed) : 0
Retry sector count : 0
Damaged sector count : 0

Track 12
Filename : /Users/imac/Working Folder/XLD/Brian Culbertson - XX (2020) [FLAC]/12 - Brian Culbertson Feat. Patches Stewart - Looking Back.flac
/Users/imac/Working Folder/XLD/Brian Culbertson - XX (2020) [MP3-320]/12 - Brian Culbertson Feat. Patches Stewart - Looking Back.mp3
/Users/imac/Working Folder/XLD/Brian Culbertson - XX (2020) [MP3-V0]/12 - Brian Culbertson Feat. Patches Stewart - Looking Back.mp3
/Users/imac/Working Folder/XLD/Brian Culbertson - XX (2020) [MP3-V2]/12 - Brian Culbertson Feat. Patches Stewart - Looking Back.mp3

Track gain : -4.25 dB
Peak : 0.999969
CRC32 hash (test run) : 8F0460D1
CRC32 hash : 8F0460D1
CRC32 hash (skip zero) : A2756E95
AccurateRip v1 signature : 5C0868EF
AccurateRip v2 signature : 7386DF27
->Track not present in AccurateRip database.
Statistics
Read error : 0
Jitter error (maybe fixed) : 0
Retry sector count : 0
Damaged sector count : 0

No errors occurred

End of status report

––-BEGIN XLD SIGNATURE––-
CcyfrBentzkj8L7alHzX0l_oGTZ6aFFFcmzsmJ628rTIUyB6tXLR7a4y8sL6.d23fSG8kxudsqofWrOMN761ydywcFZ8fZRhz47blNi
––-END XLD SIGNATURE––-

Thanks to the Original ripper swampsnake !