Tags
Language
Tags

Bruce Springsteen - Live At The Roxy (2015) [Bootleg]

Posted By:
Bruce Springsteen - Live At The Roxy (2015) [Bootleg]

Bruce Springsteen - Live At The Roxy (2015)
EAC Rip | FLAC (tracks+log+.cue) - 746 Mb | MP3 CBR 320 kbps - 251 Mb | 01:49:26
Classic Rock, Folk Rock, Singer-Songwriter | Label: FM In Concert

Bruce Springsteen AKA The Boss was a singer songwriter signed to Columbia records in the early seventies. Having recorded two critically well received albums (Greetings From Asbury Park and The Wild the Innocent and the E Street Shuffle) he broke through commercially worldwide with the album Born To Run which was released on the 25th August 1975. Whilst the album broke Bruce his relationship with his manager had soured to the extent that he was subsequently embroiled in litigation for two years and unable to record for over twelve months. This gave Bruce and the band the opportunity to hone their craft by playing extensively across the USA and also a well-documented appearance in the UK. This recording is the complete performance from a stint at The Roxy in Los Angeles in October 1975. The set was broadcast on radio and is considered to be one of the great live performances featuring songs from the recently released Born To Run album and also key songs from his previous two albums alongside some covers which he made his own in new arrangements. This album contains a radio performance of Bruce Springsteen and The E Street Band from The Roxy Los Angeles. Includes complete Performance from the early Show at The Roxy. Proven Sales Record for Live Bruce Springsteen material.
Tracklist:
Disc: 1
1. Thunder Road
2. Tenth Ave Freeze-Out
3. Spirit In The Night
4. Pretty Flamingo
5. She's The One
6. Born To Run
7. 4th Of July Asbury Park (Sandy)
8. Backstreets
9. Kitty's Back

Disc: 2
1. Jungleland
2. Rosalita (Come Out Tonight)
3. Going Back
4. Detroit Medley Including (Devil With the Blue Dress On/Good Golly Miss Molly/CC Rider/Jenny Jenny)

Exact Audio Copy V1.3 from 2. September 2016

EAC extraction logfile from 24. February 2018, 12:51

Bruce Springsteen & The E Street Band / Live At The Roxy (Los Angeles, October 17th 1975 - CD 1)

Used drive : HL-DT-STDVDRAM GH24NSC0 Adapter: 1 ID: 0

Read mode : Secure
Utilize accurate stream : Yes
Defeat audio cache : Yes
Make use of C2 pointers : No

Read offset correction : 6
Overread into Lead-In and Lead-Out : No
Fill up missing offset samples with silence : Yes
Delete leading and trailing silent blocks : No
Null samples used in CRC calculations : Yes
Used interface : Native Win32 interface for Win NT & 2000
Gap handling : Not detected, thus appended to previous track

Used output format : Internal WAV Routines
Sample format : 44.100 Hz; 16 Bit; Stereo


TOC of the extracted CD

Track | Start | Length | Start sector | End sector
––––––––––––––––––––––––––––-
1 | 0:00.00 | 7:10.44 | 0 | 32293
2 | 7:10.44 | 3:57.14 | 32294 | 50082
3 | 11:07.58 | 7:18.14 | 50083 | 82946
4 | 18:25.72 | 11:54.65 | 82947 | 136561
5 | 30:20.62 | 5:51.74 | 136562 | 162960
6 | 36:12.61 | 5:51.03 | 162961 | 189288
7 | 42:03.64 | 6:44.02 | 189289 | 219590
8 | 48:47.66 | 6:53.59 | 219591 | 250624


Track 1

Filename H:\Bruce Springsteen - Live At The Roxy\cd 1\01. Bruce Springsteen & The E Street Band - Thunder Road.wav

Peak level 97.0 %
Extraction speed 1.8 X
Track quality 99.9 %
Copy CRC DC0E9F14
Accurately ripped (confidence 2) [1BB2AB96] (AR v2)
Copy OK

Track 2

Filename H:\Bruce Springsteen - Live At The Roxy\cd 1\02. Bruce Springsteen & The E Street Band - Tenth Avenue Freeze-Out.wav

Peak level 97.6 %
Extraction speed 2.1 X
Track quality 100.0 %
Copy CRC 959B4186
Accurately ripped (confidence 2) [7B546285] (AR v2)
Copy OK

Track 3

Filename H:\Bruce Springsteen - Live At The Roxy\cd 1\03. Bruce Springsteen & The E Street Band - Spirit In The Night.wav

Peak level 97.7 %
Extraction speed 2.5 X
Track quality 100.0 %
Copy CRC FCDB530E
Accurately ripped (confidence 2) [96502C75] (AR v2)
Copy OK

Track 4

Filename H:\Bruce Springsteen - Live At The Roxy\cd 1\04. Bruce Springsteen & The E Street Band - Pretty Flamingo.wav

Peak level 97.6 %
Extraction speed 2.9 X
Track quality 100.0 %
Copy CRC 2ADB28EB
Accurately ripped (confidence 2) [B4368355] (AR v2)
Copy OK

Track 5

Filename H:\Bruce Springsteen - Live At The Roxy\cd 1\05. Bruce Springsteen & The E Street Band - She's The One.wav

Peak level 97.7 %
Extraction speed 3.1 X
Track quality 100.0 %
Copy CRC 8C77B3DE
Accurately ripped (confidence 2) [6A8E22EF] (AR v2)
Copy OK

Track 6

Filename H:\Bruce Springsteen - Live At The Roxy\cd 1\06. Bruce Springsteen & The E Street Band - Born To Run.wav

Peak level 97.6 %
Extraction speed 3.2 X
Track quality 100.0 %
Copy CRC 77ACB6C6
Accurately ripped (confidence 2) [BB6D79D2] (AR v2)
Copy OK

Track 7

Filename H:\Bruce Springsteen - Live At The Roxy\cd 1\07. Bruce Springsteen & The E Street Band - 4th Of July, Asbury Park (Sandy).wav

Peak level 97.7 %
Extraction speed 2.9 X
Track quality 99.9 %
Copy CRC B0F74C13
Accurately ripped (confidence 2) [6409F29E] (AR v2)
Copy OK

Track 8

Filename H:\Bruce Springsteen - Live At The Roxy\cd 1\08. Bruce Springsteen & The E Street Band - Backstreets.wav

Peak level 97.7 %
Extraction speed 3.6 X
Track quality 100.0 %
Copy CRC F3ED073C
Accurately ripped (confidence 1) [8D896865] (AR v2)
Copy OK


All tracks accurately ripped

No errors occurred

End of status report

–– CUETools DB Plugin V2.1.6

[CTDB TOCID: TWUzNDVZgkhwF9T272WEjwXy.ac-] found
Submit result: TWUzNDVZgkhwF9T272WEjwXy.ac- has been confirmed
Track | CTDB Status
1 | (6/6) Accurately ripped
2 | (6/6) Accurately ripped
3 | (6/6) Accurately ripped
4 | (6/6) Accurately ripped
5 | (6/6) Accurately ripped
6 | (6/6) Accurately ripped
7 | (6/6) Accurately ripped
8 | (6/6) Accurately ripped


==== Log checksum 522C7C4E5C08BAF262F8308B7368D95EECCDFC479D07F00AB768B21552F1E2CF ====

––––––––––––––––––––––––––––––

Exact Audio Copy V1.3 from 2. September 2016

EAC extraction logfile from 24. February 2018, 12:51

Bruce Springsteen & The E Street Band / Live At The Roxy (Los Angeles, October 17th 1975 - CD 1)

Used drive : HL-DT-STDVDRAM GH24NSC0 Adapter: 1 ID: 0

Read mode : Secure
Utilize accurate stream : Yes
Defeat audio cache : Yes
Make use of C2 pointers : No

Read offset correction : 6
Overread into Lead-In and Lead-Out : No
Fill up missing offset samples with silence : Yes
Delete leading and trailing silent blocks : No
Null samples used in CRC calculations : Yes
Used interface : Native Win32 interface for Win NT & 2000
Gap handling : Not detected, thus appended to previous track

Used output format : Internal WAV Routines
Sample format : 44.100 Hz; 16 Bit; Stereo


TOC of the extracted CD

Track | Start | Length | Start sector | End sector
––––––––––––––––––––––––––––-
1 | 0:00.00 | 7:10.44 | 0 | 32293
2 | 7:10.44 | 3:57.14 | 32294 | 50082
3 | 11:07.58 | 7:18.14 | 50083 | 82946
4 | 18:25.72 | 11:54.65 | 82947 | 136561
5 | 30:20.62 | 5:51.74 | 136562 | 162960
6 | 36:12.61 | 5:51.03 | 162961 | 189288
7 | 42:03.64 | 6:44.02 | 189289 | 219590
8 | 48:47.66 | 6:53.59 | 219591 | 250624


Track 1

Filename H:\Bruce Springsteen - Live At The Roxy\cd 1\01. Bruce Springsteen & The E Street Band - Thunder Road.wav

Peak level 97.0 %
Extraction speed 1.8 X
Track quality 99.9 %
Copy CRC DC0E9F14
Accurately ripped (confidence 2) [1BB2AB96] (AR v2)
Copy OK

Track 2

Filename H:\Bruce Springsteen - Live At The Roxy\cd 1\02. Bruce Springsteen & The E Street Band - Tenth Avenue Freeze-Out.wav

Peak level 97.6 %
Extraction speed 2.1 X
Track quality 100.0 %
Copy CRC 959B4186
Accurately ripped (confidence 2) [7B546285] (AR v2)
Copy OK

Track 3

Filename H:\Bruce Springsteen - Live At The Roxy\cd 1\03. Bruce Springsteen & The E Street Band - Spirit In The Night.wav

Peak level 97.7 %
Extraction speed 2.5 X
Track quality 100.0 %
Copy CRC FCDB530E
Accurately ripped (confidence 2) [96502C75] (AR v2)
Copy OK

Track 4

Filename H:\Bruce Springsteen - Live At The Roxy\cd 1\04. Bruce Springsteen & The E Street Band - Pretty Flamingo.wav

Peak level 97.6 %
Extraction speed 2.9 X
Track quality 100.0 %
Copy CRC 2ADB28EB
Accurately ripped (confidence 2) [B4368355] (AR v2)
Copy OK

Track 5

Filename H:\Bruce Springsteen - Live At The Roxy\cd 1\05. Bruce Springsteen & The E Street Band - She's The One.wav

Peak level 97.7 %
Extraction speed 3.1 X
Track quality 100.0 %
Copy CRC 8C77B3DE
Accurately ripped (confidence 2) [6A8E22EF] (AR v2)
Copy OK

Track 6

Filename H:\Bruce Springsteen - Live At The Roxy\cd 1\06. Bruce Springsteen & The E Street Band - Born To Run.wav

Peak level 97.6 %
Extraction speed 3.2 X
Track quality 100.0 %
Copy CRC 77ACB6C6
Accurately ripped (confidence 2) [BB6D79D2] (AR v2)
Copy OK

Track 7

Filename H:\Bruce Springsteen - Live At The Roxy\cd 1\07. Bruce Springsteen & The E Street Band - 4th Of July, Asbury Park (Sandy).wav

Peak level 97.7 %
Extraction speed 2.9 X
Track quality 99.9 %
Copy CRC B0F74C13
Accurately ripped (confidence 2) [6409F29E] (AR v2)
Copy OK

Track 8

Filename H:\Bruce Springsteen - Live At The Roxy\cd 1\08. Bruce Springsteen & The E Street Band - Backstreets.wav

Peak level 97.7 %
Extraction speed 3.6 X
Track quality 100.0 %
Copy CRC F3ED073C
Accurately ripped (confidence 1) [8D896865] (AR v2)
Copy OK


All tracks accurately ripped

No errors occurred

End of status report

–– CUETools DB Plugin V2.1.6

[CTDB TOCID: TWUzNDVZgkhwF9T272WEjwXy.ac-] found
Submit result: TWUzNDVZgkhwF9T272WEjwXy.ac- has been confirmed
Track | CTDB Status
1 | (6/6) Accurately ripped
2 | (6/6) Accurately ripped
3 | (6/6) Accurately ripped
4 | (6/6) Accurately ripped
5 | (6/6) Accurately ripped
6 | (6/6) Accurately ripped
7 | (6/6) Accurately ripped
8 | (6/6) Accurately ripped


==== Log checksum 522C7C4E5C08BAF262F8308B7368D95EECCDFC479D07F00AB768B21552F1E2CF ====

Exact Audio Copy V1.3 from 2. September 2016

EAC extraction logfile from 24. February 2018, 13:21

Bruce Springsteen & The E Street Band / Live At The Roxy (Los Angeles, October 17th 1975 - CD 2)

Used drive : HL-DT-STDVDRAM GH24NSC0 Adapter: 1 ID: 0

Read mode : Secure
Utilize accurate stream : Yes
Defeat audio cache : Yes
Make use of C2 pointers : No

Read offset correction : 6
Overread into Lead-In and Lead-Out : No
Fill up missing offset samples with silence : Yes
Delete leading and trailing silent blocks : No
Null samples used in CRC calculations : Yes
Used interface : Native Win32 interface for Win NT & 2000
Gap handling : Not detected, thus appended to previous track

Used output format : Internal WAV Routines
Sample format : 44.100 Hz; 16 Bit; Stereo


TOC of the extracted CD

Track | Start | Length | Start sector | End sector
––––––––––––––––––––––––––––-
1 | 0:00.00 | 18:48.60 | 0 | 84659
2 | 18:48.60 | 9:16.46 | 84660 | 126405
3 | 28:05.31 | 12:56.43 | 126406 | 184648
4 | 41:01.74 | 5:38.56 | 184649 | 210054
5 | 46:40.55 | 7:03.55 | 210055 | 241834


Track 1

Filename H:\Bruce Springsteen - Live At The Roxy\cd 2\01. Bruce Springsteen & The E Street Band - Kitty's Back.wav

Peak level 97.7 %
Extraction speed 2.0 X
Track quality 99.9 %
Copy CRC 6AC7CFBA
Accurately ripped (confidence 2) [683E6A51] (AR v2)
Copy OK

Track 2

Filename H:\Bruce Springsteen - Live At The Roxy\cd 2\02. Bruce Springsteen & The E Street Band - Jungleland.wav

Peak level 95.3 %
Extraction speed 1.7 X
Track quality 100.0 %
Copy CRC 9BC6DFDD
Accurately ripped (confidence 2) [C25EFFAD] (AR v2)
Copy OK

Track 3

Filename H:\Bruce Springsteen - Live At The Roxy\cd 2\03. Bruce Springsteen & The E Street Band - Rosalita (Come Out Tonight).wav

Peak level 97.7 %
Extraction speed 1.8 X
Track quality 99.9 %
Copy CRC FF4B71D9
Accurately ripped (confidence 2) [BD98AB6D] (AR v2)
Copy OK

Track 4

Filename H:\Bruce Springsteen - Live At The Roxy\cd 2\04. Bruce Springsteen & The E Street Band - Going Back.wav

Peak level 97.7 %
Extraction speed 2.0 X
Track quality 100.0 %
Copy CRC 13B485F4
Accurately ripped (confidence 1) [CD9F66D7] (AR v2)
Copy OK

Track 5

Filename H:\Bruce Springsteen - Live At The Roxy\cd 2\05. Bruce Springsteen & The E Street Band - Detroit Medley (Devil With The Blue Dress On, Good Golly Miss Molly, CC Rider, Jenny Jenny).wav

Peak level 97.7 %
Extraction speed 2.1 X
Track quality 100.0 %
Copy CRC 699BB61F
Accurately ripped (confidence 2) [7A7F8ED9] (AR v2)
Copy OK


All tracks accurately ripped

No errors occurred

End of status report

–– CUETools DB Plugin V2.1.6

[CTDB TOCID: HZFx_wc06eLD3tRrX1eazJ6qhE4-] found
Submit result: HZFx_wc06eLD3tRrX1eazJ6qhE4- has been confirmed
Track | CTDB Status
1 | (6/6) Accurately ripped
2 | (6/6) Accurately ripped
3 | (6/6) Accurately ripped
4 | (6/6) Accurately ripped
5 | (6/6) Accurately ripped


==== Log checksum BBCFB834BCA3D91338F74BD100A3FA71CC96A9676BAFD90F621D4B3C25739C9C ====

––––––––––––––––––––––––––––––

Exact Audio Copy V1.3 from 2. September 2016

EAC extraction logfile from 24. February 2018, 13:21

Bruce Springsteen & The E Street Band / Live At The Roxy (Los Angeles, October 17th 1975 - CD 2)

Used drive : HL-DT-STDVDRAM GH24NSC0 Adapter: 1 ID: 0

Read mode : Secure
Utilize accurate stream : Yes
Defeat audio cache : Yes
Make use of C2 pointers : No

Read offset correction : 6
Overread into Lead-In and Lead-Out : No
Fill up missing offset samples with silence : Yes
Delete leading and trailing silent blocks : No
Null samples used in CRC calculations : Yes
Used interface : Native Win32 interface for Win NT & 2000
Gap handling : Not detected, thus appended to previous track

Used output format : Internal WAV Routines
Sample format : 44.100 Hz; 16 Bit; Stereo


TOC of the extracted CD

Track | Start | Length | Start sector | End sector
––––––––––––––––––––––––––––-
1 | 0:00.00 | 18:48.60 | 0 | 84659
2 | 18:48.60 | 9:16.46 | 84660 | 126405
3 | 28:05.31 | 12:56.43 | 126406 | 184648
4 | 41:01.74 | 5:38.56 | 184649 | 210054
5 | 46:40.55 | 7:03.55 | 210055 | 241834


Track 1

Filename H:\Bruce Springsteen - Live At The Roxy\cd 2\01. Bruce Springsteen & The E Street Band - Kitty's Back.wav

Peak level 97.7 %
Extraction speed 2.0 X
Track quality 99.9 %
Copy CRC 6AC7CFBA
Accurately ripped (confidence 2) [683E6A51] (AR v2)
Copy OK

Track 2

Filename H:\Bruce Springsteen - Live At The Roxy\cd 2\02. Bruce Springsteen & The E Street Band - Jungleland.wav

Peak level 95.3 %
Extraction speed 1.7 X
Track quality 100.0 %
Copy CRC 9BC6DFDD
Accurately ripped (confidence 2) [C25EFFAD] (AR v2)
Copy OK

Track 3

Filename H:\Bruce Springsteen - Live At The Roxy\cd 2\03. Bruce Springsteen & The E Street Band - Rosalita (Come Out Tonight).wav

Peak level 97.7 %
Extraction speed 1.8 X
Track quality 99.9 %
Copy CRC FF4B71D9
Accurately ripped (confidence 2) [BD98AB6D] (AR v2)
Copy OK

Track 4

Filename H:\Bruce Springsteen - Live At The Roxy\cd 2\04. Bruce Springsteen & The E Street Band - Going Back.wav

Peak level 97.7 %
Extraction speed 2.0 X
Track quality 100.0 %
Copy CRC 13B485F4
Accurately ripped (confidence 1) [CD9F66D7] (AR v2)
Copy OK

Track 5

Filename H:\Bruce Springsteen - Live At The Roxy\cd 2\05. Bruce Springsteen & The E Street Band - Detroit Medley (Devil With The Blue Dress On, Good Golly Miss Molly, CC Rider, Jenny Jenny).wav

Peak level 97.7 %
Extraction speed 2.1 X
Track quality 100.0 %
Copy CRC 699BB61F
Accurately ripped (confidence 2) [7A7F8ED9] (AR v2)
Copy OK


All tracks accurately ripped

No errors occurred

End of status report

–– CUETools DB Plugin V2.1.6

[CTDB TOCID: HZFx_wc06eLD3tRrX1eazJ6qhE4-] found
Submit result: HZFx_wc06eLD3tRrX1eazJ6qhE4- has been confirmed
Track | CTDB Status
1 | (6/6) Accurately ripped
2 | (6/6) Accurately ripped
3 | (6/6) Accurately ripped
4 | (6/6) Accurately ripped
5 | (6/6) Accurately ripped


==== Log checksum BBCFB834BCA3D91338F74BD100A3FA71CC96A9676BAFD90F621D4B3C25739C9C ====

Thanks to the Original ripper funkyman !