Subcategories

Gary Burton Quartet - In Concert (1968) {2012 FiveFour Remaster}

Posted By: ruskaval
Gary Burton Quartet - In Concert (1968) {2012 FiveFour Remaster}

Gary Burton Quartet - In Concert (1968) {2012 FiveFour Remaster}
EAC rip (secure mode) | FLAC (tracks)+CUE+LOG -> 303 Mb | MP3 @320 -> 121 Mb
Full Artwork @ 600 dpi (jpg) -> 130 Mb | 5% repair rar
© 2012 FiveFour / Cherry Red / Sony Music | FIVEFOUR31
Jazz / Post Bop / Vibes

The final recording by Gary Burton's classic quartet (how about a reunion someday?) features the vibraphonist/leader, guitarist Larry Coryell, bassist Steve Swallow and drummer Bob Moses mixing together aspects of rock, country and folk music in their advanced improvisations. The material (by Mike Gibbs, Burton, Coryell and Bob Dylan) is quite strong, and there are some hints of the avant-garde (including "One, Two, 1-2-3-4" and Burton's freely improvised solo piece "Dreams"). All of the influential Burton-Coryell recordings (among the earliest fusion records) are currently difficult to find and are deserving reissue as a box set.
Gary Burton Quartet - In Concert (1968) {2012 FiveFour Remaster}


Personnel:
Gary Burton - vibes
Larry Coryell - guitar
Steve Swallow - bass
Bob Moses - drums

tracklist:
01 - Blue Comedy
02 - The Sunset Bell
03 - Lines
04 - Walter L.
05 - Wrong Is Right
06 - Dreams
07 - I Want You
08 - One, Two, 1-2-3-4

Exact Audio Copy V1.0 beta 3 from 29. August 2011

EAC extraction logfile from 29. March 2014, 13:55

Gary Burton / In Concert 1968. Recorded Live at Carnegie Recital Hall

Used drive : SlimtypeDVD A DS8A5SH Adapter: 0 ID: 1

Read mode : Secure
Utilize accurate stream : Yes
Defeat audio cache : Yes
Make use of C2 pointers : No

Read offset correction : 6
Overread into Lead-In and Lead-Out : No
Fill up missing offset samples with silence : Yes
Delete leading and trailing silent blocks : No
Null samples used in CRC calculations : Yes
Used interface : Native Win32 interface for Win NT & 2000
Gap handling : Appended to previous track

Used output format : User Defined Encoder
Selected bitrate : 1024 kBit/s
Quality : High
Add ID3 tag : No
Command line compressor : C:\Program Files (x86)\Exact Audio Copy\Flac\flac.exe
Additional command line options : -8 -V -T "ARTIST=%artist%" -T "TITLE=%title%" -T "ALBUM=%albumtitle%" -T "DATE=%year%" -T "TRACKNUMBER=%tracknr%" -T "GENRE=%genre%" -T "PERFORMER=%albuminterpret%" -T "COMPOSER=%composer%" %haslyrics%–tag-from-file=LYRICS="%lyricsfile%"%haslyrics% -T "ALBUMARTIST=%albumartist%" -T "DISCNUMBER=%cdnumber%" -T "TOTALDISCS=%totalcds%" -T "TOTALTRACKS=%numtracks%" -T "COMMENT=%comment%" %source% -o %dest%


TOC of the extracted CD

Track | Start | Length | Start sector | End sector
––––––––––––––––––––––––––––-
1 | 0:00.00 | 9:02.24 | 0 | 40673
2 | 9:02.24 | 5:21.21 | 40674 | 64769
3 | 14:23.45 | 3:20.30 | 64770 | 79799
4 | 17:44.00 | 6:39.46 | 79800 | 109770
5 | 24:23.46 | 6:21.74 | 109771 | 138419
6 | 30:45.45 | 5:56.64 | 138420 | 165183
7 | 36:42.34 | 3:05.66 | 165184 | 179124
8 | 39:48.25 | 11:05.12 | 179125 | 229011


Track 1

Filename C:\EAC rips\Gary Burton - [2012] In Concert 1968. Recorded Live at Carnegie Recital Hall\01 Blue Comedy.wav

Pre-gap length 0:00:02.00

Peak level 99.7 %
Extraction speed 1.2 X
Track quality 100.0 %
Test CRC E4FF960D
Copy CRC E4FF960D
Track not present in AccurateRip database
Copy OK

Track 2

Filename C:\EAC rips\Gary Burton - [2012] In Concert 1968. Recorded Live at Carnegie Recital Hall\02 The Sunset Bell.wav

Peak level 72.3 %
Extraction speed 1.3 X
Track quality 100.0 %
Test CRC 8978AC60
Copy CRC 8978AC60
Track not present in AccurateRip database
Copy OK

Track 3

Filename C:\EAC rips\Gary Burton - [2012] In Concert 1968. Recorded Live at Carnegie Recital Hall\03 Lines.wav

Peak level 89.2 %
Extraction speed 1.4 X
Track quality 100.0 %
Test CRC 6EAD2728
Copy CRC 6EAD2728
Track not present in AccurateRip database
Copy OK

Track 4

Filename C:\EAC rips\Gary Burton - [2012] In Concert 1968. Recorded Live at Carnegie Recital Hall\04 Walter L..wav

Peak level 100.0 %
Extraction speed 1.6 X
Track quality 100.0 %
Test CRC C118A68F
Copy CRC C118A68F
Track not present in AccurateRip database
Copy OK

Track 5

Filename C:\EAC rips\Gary Burton - [2012] In Concert 1968. Recorded Live at Carnegie Recital Hall\05 Wrong Is Right.wav

Pre-gap length 0:00:00.45

Peak level 97.3 %
Extraction speed 1.7 X
Track quality 100.0 %
Test CRC DBB16953
Copy CRC DBB16953
Track not present in AccurateRip database
Copy OK

Track 6

Filename C:\EAC rips\Gary Burton - [2012] In Concert 1968. Recorded Live at Carnegie Recital Hall\06 Dreams.wav

Peak level 76.8 %
Extraction speed 1.8 X
Track quality 100.0 %
Test CRC 1DCCBB16
Copy CRC 1DCCBB16
Track not present in AccurateRip database
Copy OK

Track 7

Filename C:\EAC rips\Gary Burton - [2012] In Concert 1968. Recorded Live at Carnegie Recital Hall\07 I Want You.wav

Peak level 97.2 %
Extraction speed 1.8 X
Track quality 100.0 %
Test CRC C582A691
Copy CRC C582A691
Track not present in AccurateRip database
Copy OK

Track 8

Filename C:\EAC rips\Gary Burton - [2012] In Concert 1968. Recorded Live at Carnegie Recital Hall\08 One, Two, 1-2-3-4.wav

Peak level 99.2 %
Extraction speed 2.1 X
Track quality 100.0 %
Test CRC 1E02832B
Copy CRC 1E02832B
Track not present in AccurateRip database
Copy OK


None of the tracks are present in the AccurateRip database

No errors occurred

End of status report

–– CUETools DB Plugin V2.1.3

[CTDB TOCID: m2TD93WBHHgK_b_RDagfvxRzvX8-] found, Submit result: m2TD93WBHHgK_b_RDagfvxRzvX8- has been confirmed
[f7a80ca2] (1/1) Accurately ripped


==== Log checksum 001E1C50E62FBCD9EFEBF0EDECBDDC8E0FAD453D2B99C8A3E833A5083EED94E3 ====


Gary Burton Quartet - In Concert (1968) {2012 FiveFour Remaster}

Gary Burton Quartet - In Concert (1968) {2012 FiveFour Remaster}


All thanks goes to the original releaser!