Tags
Language
Tags

Canned Heat - Live At Montreux 1973 (2011) {Eagle Records EAGCD450}

Posted By: ruskaval
Canned Heat - Live At Montreux 1973 (2011) {Eagle Records EAGCD450}

Canned Heat - Live At Montreux 1973 (2011) {Eagle Records EAGCD450}
EAC rip (secure mode) | FLAC (tracks)+CUE+LOG -> 400 Mb | MP3 @320 -> 159 Mb
Full Artwork @ 300 dpi (png) -> 120 Mb | 5% repair rar
© 1973, 2011 Eagle Records | EAGCD450
Rock / Blues Rock / Boogie Rock / Modern Electric Blues

A fine little blues-rock jug band from the 1960s, Canned Heat had already been bitten hard by the rock & roll tragedy bug, losing key member Alan "Blind Owl" Wilson to a fatal drug overdose by the time they'd made their sole appearance at Montreux in 1973. Luckily for history's sake, the great bluesman and multi-instrumentalist Clarence "Gatemouth" Brown was on hand to step in with the band for this appearance, sparking things along nicely, and luckily, too: the set was filmed and recorded, eventually appearing on both DVD and CD, making it, particularly because of Brown's contributions, a valuable and fun archival historical release.
Canned Heat - Live At Montreux 1973 (2011) {Eagle Records EAGCD450}

Canned Heat - Live At Montreux 1973 (2011) {Eagle Records EAGCD450}


Tracks
01 - On The Road Again
02 - Please Mr. Nixon
03 - Worried Life Blues
04 - About My Ooh Poo Pa Doo
05 - Funky
06 - Night Time Is The Right Time
07 - Let's Work Together
08 - Rock And Roll Music
09 - Lookin' For My Rainbow
10 - Shake 'N' Boogie

Exact Audio Copy V1.0 beta 3 from 29. August 2011

EAC extraction logfile from 11. July 2014, 20:05

Canned Heat / Live At Montreux 1973

Used drive : TSSTcorpCDDVDW SH-S202J Adapter: 2 ID: 0

Read mode : Secure
Utilize accurate stream : Yes
Defeat audio cache : Yes
Make use of C2 pointers : No

Read offset correction : 6
Overread into Lead-In and Lead-Out : No
Fill up missing offset samples with silence : Yes
Delete leading and trailing silent blocks : No
Null samples used in CRC calculations : Yes
Used interface : Native Win32 interface for Win NT & 2000
Gap handling : Appended to previous track

Used output format : User Defined Encoder
Selected bitrate : 896 kBit/s
Quality : High
Add ID3 tag : No
Command line compressor : C:\Program Files (x86)\Exact Audio Copy\FLAC\FLAC.EXE
Additional command line options : -8 -V -T "ARTIST=%artist%" -T "TITLE=%title%" -T "ALBUM=%albumtitle%" -T "DATE=%year%" -T "TRACKNUMBER=%tracknr%" -T "TOTALTRACKS=%numtracks%" -T "GENRE=%genre%" -T "ALBUMARTIST=%albumartist%" -T "ALBUM ARTIST=%albumartist%" -T "COMMENT=EAC Secure Mode, Test & Copy, AccurateRip, FLAC -8" %source%


TOC of the extracted CD

Track | Start | Length | Start sector | End sector
––––––––––––––––––––––––––––-
1 | 0:00.00 | 5:38.64 | 0 | 25413
2 | 5:38.64 | 9:08.71 | 25414 | 66584
3 | 14:47.60 | 5:05.62 | 66585 | 89521
4 | 19:53.47 | 7:23.04 | 89522 | 122750
5 | 27:16.51 | 6:34.74 | 122751 | 152374
6 | 33:51.50 | 4:38.27 | 152375 | 173251
7 | 38:30.02 | 5:20.06 | 173252 | 197257
8 | 43:50.08 | 2:41.13 | 197258 | 209345
9 | 46:31.21 | 5:59.00 | 209346 | 236270
10 | 52:30.21 | 14:08.02 | 236271 | 299872


Track 1

Filename E:\Musica\Canned Heat\Canned Heat - Live At Montreux 1973 (2011) [FLAC]\01 - On The Road Again.wav

Pre-gap length 0:00:02.00

Peak level 98.3 %
Extraction speed 1.9 X
Track quality 100.0 %
Test CRC FE922958
Copy CRC FE922958
Accurately ripped (confidence 2) [2AC533C9] (AR v1)
Copy OK

Track 2

Filename E:\Musica\Canned Heat\Canned Heat - Live At Montreux 1973 (2011) [FLAC]\02 - Please Mr. Nixon.wav

Peak level 97.7 %
Extraction speed 2.4 X
Track quality 100.0 %
Test CRC CB0B4C7D
Copy CRC CB0B4C7D
Accurately ripped (confidence 2) [84AE1245] (AR v1)
Copy OK

Track 3

Filename E:\Musica\Canned Heat\Canned Heat - Live At Montreux 1973 (2011) [FLAC]\03 - Worried Life Blues.wav

Peak level 96.1 %
Extraction speed 2.6 X
Track quality 100.0 %
Test CRC 498FD64F
Copy CRC 498FD64F
Accurately ripped (confidence 2) [C13D07E7] (AR v1)
Copy OK

Track 4

Filename E:\Musica\Canned Heat\Canned Heat - Live At Montreux 1973 (2011) [FLAC]\04 - About My Ooh Poo Pa Doo.wav

Peak level 91.9 %
Extraction speed 2.9 X
Track quality 100.0 %
Test CRC 53C45CF2
Copy CRC 53C45CF2
Accurately ripped (confidence 2) [405730F7] (AR v1)
Copy OK

Track 5

Filename E:\Musica\Canned Heat\Canned Heat - Live At Montreux 1973 (2011) [FLAC]\05 - Funky.wav

Peak level 95.1 %
Extraction speed 3.1 X
Track quality 100.0 %
Test CRC E3E6DABA
Copy CRC E3E6DABA
Accurately ripped (confidence 2) [732A7762] (AR v1)
Copy OK

Track 6

Filename E:\Musica\Canned Heat\Canned Heat - Live At Montreux 1973 (2011) [FLAC]\06 - Night Time Is The Right Time.wav

Peak level 96.6 %
Extraction speed 3.2 X
Track quality 100.0 %
Test CRC 4CE43CE5
Copy CRC 4CE43CE5
Accurately ripped (confidence 2) [655AEFD1] (AR v1)
Copy OK

Track 7

Filename E:\Musica\Canned Heat\Canned Heat - Live At Montreux 1973 (2011) [FLAC]\07 - Let's Work Together.wav

Peak level 98.7 %
Extraction speed 3.3 X
Track quality 100.0 %
Test CRC D70446BD
Copy CRC D70446BD
Accurately ripped (confidence 2) [F16C2EC9] (AR v1)
Copy OK

Track 8

Filename E:\Musica\Canned Heat\Canned Heat - Live At Montreux 1973 (2011) [FLAC]\08 - Rock And Roll Music.wav

Peak level 97.8 %
Extraction speed 3.1 X
Track quality 100.0 %
Test CRC E7BCA7D4
Copy CRC E7BCA7D4
Accurately ripped (confidence 2) [C211934D] (AR v1)
Copy OK

Track 9

Filename E:\Musica\Canned Heat\Canned Heat - Live At Montreux 1973 (2011) [FLAC]\09 - Lookin' For My Rainbow.wav

Peak level 95.8 %
Extraction speed 3.6 X
Track quality 100.0 %
Test CRC C0848575
Copy CRC C0848575
Accurately ripped (confidence 2) [43610F21] (AR v1)
Copy OK

Track 10

Filename E:\Musica\Canned Heat\Canned Heat - Live At Montreux 1973 (2011) [FLAC]\10 - Shake 'N' Boogie.wav

Peak level 98.0 %
Extraction speed 4.1 X
Track quality 100.0 %
Test CRC 023269EF
Copy CRC 023269EF
Accurately ripped (confidence 2) [666A44CA] (AR v1)
Copy OK


All tracks accurately ripped

No errors occurred

End of status report

==== Log checksum C201F6122A6A70AEDCF8B03DFFED47E658845BDFBE650C157032FBEB4C274100 ====


Canned Heat - Live At Montreux 1973 (2011) {Eagle Records EAGCD450}

Canned Heat - Live At Montreux 1973 (2011) {Eagle Records EAGCD450}



===