Tags
Language
Tags
June 2024
Su Mo Tu We Th Fr Sa
26 27 28 29 30 31 1
2 3 4 5 6 7 8
9 10 11 12 13 14 15
16 17 18 19 20 21 22
23 24 25 26 27 28 29
30 1 2 3 4 5 6

Charley Pride - 50 Golden Years Of Pride (2018)

Posted By: delpotro
Charley Pride - 50 Golden Years Of Pride (2018)

Charley Pride - 50 Golden Years Of Pride (2018)
EAC Rip | FLAC (tracks+log+.cue) - 927 Mb | MP3 CBR 320 kbps - 364 Mb | Covers included | 02:32:15
Country | Label: Sony Music

Country Music legend Charley Pride honours 5 decades of recording with a brand new greatest hits, ’50 Golden Years Of Pride’. This comprehensive 52 track double CD features 18 US country numbers ones from his RCA years, along with the finest moments from his personally owned recordings of the last 2 decades.
Tracklist:
Disc 1
1. Charley Pride – Kiss An Angel Good Mornin'
2. Charley Pride – Kaw-Liga
3. Charley Pride – Mississippi Cotton Picking Delta Town
4. Charley Pride – Is Anybody Goin' To San Antone
5. Charley Pride – Crystal Chandeliers
6. Charley Pride – Does My Ring Hurt Your Finger
7. Charley Pride – All I Have To Offer You (Is Me)
8. Charley Pride – Just Between You And Me
9. Charley Pride – I'm Just Me
10. Charley Pride – Wonder Could I Live There Anymore
11. Charley Pride – Its Gonna Take A Little Bit Longer
12. Charley Pride – Don't Fight The Feelings Of Love
13. Charley Pride – Me And Bobby McGee
14. Charley Pride – My Eyes Can Only See As Far As You
15. Charley Pride – The Happiness Of Having You
16. Charley Pride – Hope You're Feeling Me Like I'm Feeling You
17. Charley Pride – She's Just An Old Love Turned Memory
18. Charley Pride – I'll Be Leaving Alone
19. Charley Pride – Someone Loves You Honey
20. Charley Pride – Burgers & Fries
21. Charley Pride – You're My Jamaica
22. Charley Pride – Honky Tonk Blues
23. Charley Pride – I Don't Think That She's In Love Anymore
24. Charley Pride – Why Baby Why
25. Charley Pride – You're So Good When You're Bad
26. Charley Pride – Mountain Of Love
27. Charley Pride – Night Games
28. Charley Pride – Roll On Mississippi

Disc 2
1. Charley Pride – Just For The Love Of It (feat. Joe Diffie)
2. Charley Pride – It's Just A Matter Of Time
3. Charley Pride – Sea Of Heartbreak
4. Charley Pride – Always On My Mind
5. Charley Pride – Lovesick Blues
6. Charley Pride – After All These Years
7. Charley Pride & Travis Tritt – Burnin' Down The Town
8. Charley Pride – For Today (feat. Hal Ketchum)
9. Charley Pride – You'll Never Walk Alone
10. Charley Pride – He'll Have To Go
11. Charley Pride – I Don't Know Why I Love You (But I Do)
12. Charley Pride – Is It Really Over
13. Charley Pride – I Need Somebody Bad
14. Charley Pride – Mansions For Me
15. Charley Pride – I'm Gonna Change Everything
16. Charley Pride – Comfort Of Her Wings
17. Charley Pride – God's Coloring Book (feat. Dolly Parton)
18. Charley Pride – Plenty Good Lovin'
19. Charley Pride – Jesus It's Me Again
20. Charley Pride – Except For You
21. Charley Pride – Cajun Party Time
22. Charley Pride – Chain Of Love
23. Charley Pride – The Choices She Made
24. Charley Pride – Amazing Grace

Exact Audio Copy V1.3 from 2. September 2016

EAC extraction logfile from 3. November 2019, 12:53

Charley Pride / 50 Golden Years Of Pride (Disc 1)

Used drive : TSSTcorpCDDVDW SH-222AB Adapter: 1 ID: 0

Read mode : Secure
Utilize accurate stream : Yes
Defeat audio cache : Yes
Make use of C2 pointers : No

Read offset correction : 6
Overread into Lead-In and Lead-Out : No
Fill up missing offset samples with silence : Yes
Delete leading and trailing silent blocks : No
Null samples used in CRC calculations : Yes
Used interface : Native Win32 interface for Win NT & 2000
Gap handling : Appended to previous track

Used output format : User Defined Encoder
Selected bitrate : 1024 kBit/s
Quality : High
Add ID3 tag : No
Command line compressor : C:\Program Files (x86)\Exact Audio Copy\Flac\flac.exe
Additional command line options : -8 -V -T "ARTIST=%artist%" -T "TITLE=%title%" -T "ALBUM=%albumtitle%" -T "DATE=%year%" -T "TRACKNUMBER=%tracknr%" -T "GENRE=%genre%" -T "PERFORMER=%albuminterpret%" -T "COMPOSER=%composer%" %haslyrics%–tag-from-file=LYRICS="%lyricsfile%"%haslyrics% -T "ALBUMARTIST=%albumartist%" -T "DISCNUMBER=%cdnumber%" -T "TOTALDISCS=%totalcds%" -T "TOTALTRACKS=%numtracks%" -T "COMMENT=EAC V1.3, Secure Mode, Test & Copy, AccurateRip, FLAC -8" %source% -o %dest%


TOC of the extracted CD

Track | Start | Length | Start sector | End sector
––––––––––––––––––––––––––––-
1 | 0:00.00 | 2:02.48 | 0 | 9197
2 | 2:02.48 | 3:12.32 | 9198 | 23629
3 | 5:15.05 | 2:24.15 | 23630 | 34444
4 | 7:39.20 | 2:13.36 | 34445 | 44455
5 | 9:52.56 | 2:50.48 | 44456 | 57253
6 | 12:43.29 | 2:19.20 | 57254 | 67698
7 | 15:02.49 | 3:02.68 | 67699 | 81416
8 | 18:05.42 | 2:16.34 | 81417 | 91650
9 | 20:22.01 | 2:21.20 | 91651 | 102245
10 | 22:43.21 | 2:34.70 | 102246 | 113865
11 | 25:18.16 | 2:37.22 | 113866 | 125662
12 | 27:55.38 | 2:06.18 | 125663 | 135130
13 | 30:01.56 | 3:30.54 | 135131 | 150934
14 | 33:32.35 | 2:39.10 | 150935 | 162869
15 | 36:11.45 | 2:19.18 | 162870 | 173312
16 | 38:30.63 | 3:02.41 | 173313 | 187003
17 | 41:33.29 | 2:36.34 | 187004 | 198737
18 | 44:09.63 | 2:50.10 | 198738 | 211497
19 | 46:59.73 | 2:10.17 | 211498 | 221264
20 | 49:10.15 | 3:10.00 | 221265 | 235514
21 | 52:20.15 | 3:35.06 | 235515 | 251645
22 | 55:55.21 | 1:59.72 | 251646 | 260642
23 | 57:55.18 | 2:38.35 | 260643 | 272527
24 | 60:33.53 | 2:08.07 | 272528 | 282134
25 | 62:41.60 | 3:29.10 | 282135 | 297819
26 | 66:10.70 | 2:49.21 | 297820 | 310515
27 | 69:00.16 | 2:42.05 | 310516 | 322670
28 | 71:42.21 | 3:33.46 | 322671 | 338691


Track 1

Filename J:\2018 Rips\Charley Pride - 50 Golden Years Of Pride (2018) [FLAC]\Disc 1\01 - Kiss An Angel Good Mornin'.wav

Pre-gap length 0:00:02.00

Peak level 96.7 %
Extraction speed 2.4 X
Track quality 100.0 %
Test CRC 376C7C65
Copy CRC 376C7C65
Track not present in AccurateRip database
Copy OK

Track 2

Filename J:\2018 Rips\Charley Pride - 50 Golden Years Of Pride (2018) [FLAC]\Disc 1\02 - Kaw-Liga.wav

Peak level 96.7 %
Extraction speed 2.9 X
Track quality 100.0 %
Test CRC 9BDDC6D8
Copy CRC 9BDDC6D8
Track not present in AccurateRip database
Copy OK

Track 3

Filename J:\2018 Rips\Charley Pride - 50 Golden Years Of Pride (2018) [FLAC]\Disc 1\03 - Mississippi Cotton Picking Delta Town.wav

Peak level 96.7 %
Extraction speed 2.9 X
Track quality 100.0 %
Test CRC BA7E397B
Copy CRC BA7E397B
Track not present in AccurateRip database
Copy OK

Track 4

Filename J:\2018 Rips\Charley Pride - 50 Golden Years Of Pride (2018) [FLAC]\Disc 1\04 - Is Anybody Goin' To San Antone.wav

Peak level 96.6 %
Extraction speed 3.0 X
Track quality 100.0 %
Test CRC 279D8450
Copy CRC 279D8450
Track not present in AccurateRip database
Copy OK

Track 5

Filename J:\2018 Rips\Charley Pride - 50 Golden Years Of Pride (2018) [FLAC]\Disc 1\05 - Crystal Chandeliers.wav

Peak level 96.6 %
Extraction speed 2.4 X
Track quality 99.9 %
Test CRC D2346126
Copy CRC D2346126
Track not present in AccurateRip database
Copy OK

Track 6

Filename J:\2018 Rips\Charley Pride - 50 Golden Years Of Pride (2018) [FLAC]\Disc 1\06 - Does My Ring Hurt Your Finger.wav

Peak level 96.6 %
Extraction speed 3.4 X
Track quality 100.0 %
Test CRC C6D419C5
Copy CRC C6D419C5
Track not present in AccurateRip database
Copy OK

Track 7

Filename J:\2018 Rips\Charley Pride - 50 Golden Years Of Pride (2018) [FLAC]\Disc 1\07 - All I Have To Offer You (Is Me).wav

Peak level 96.6 %
Extraction speed 2.7 X
Track quality 99.9 %
Test CRC 09CC92FD
Copy CRC 09CC92FD
Track not present in AccurateRip database
Copy OK

Track 8

Filename J:\2018 Rips\Charley Pride - 50 Golden Years Of Pride (2018) [FLAC]\Disc 1\08 - Just Between You And Me.wav

Peak level 96.6 %
Extraction speed 2.4 X
Track quality 99.9 %
Test CRC 16C91C33
Copy CRC 16C91C33
Track not present in AccurateRip database
Copy OK

Track 9

Filename J:\2018 Rips\Charley Pride - 50 Golden Years Of Pride (2018) [FLAC]\Disc 1\09 - I'm Just Me.wav

Peak level 96.6 %
Extraction speed 3.7 X
Track quality 100.0 %
Test CRC 83A72E23
Copy CRC 83A72E23
Track not present in AccurateRip database
Copy OK

Track 10

Filename J:\2018 Rips\Charley Pride - 50 Golden Years Of Pride (2018) [FLAC]\Disc 1\10 - Wonder Could I Live There Anymore.wav

Peak level 96.7 %
Extraction speed 3.9 X
Track quality 100.0 %
Test CRC 470441CA
Copy CRC 470441CA
Track not present in AccurateRip database
Copy OK

Track 11

Filename J:\2018 Rips\Charley Pride - 50 Golden Years Of Pride (2018) [FLAC]\Disc 1\11 - It's Gonna Take A Little Bit Longer.wav

Peak level 96.6 %
Extraction speed 4.0 X
Track quality 100.0 %
Test CRC 966D845A
Copy CRC 966D845A
Track not present in AccurateRip database
Copy OK

Track 12

Filename J:\2018 Rips\Charley Pride - 50 Golden Years Of Pride (2018) [FLAC]\Disc 1\12 - Don't Fight The Feelings Of Love.wav

Peak level 96.6 %
Extraction speed 3.9 X
Track quality 100.0 %
Test CRC 215E4455
Copy CRC 215E4455
Track not present in AccurateRip database
Copy OK

Track 13

Filename J:\2018 Rips\Charley Pride - 50 Golden Years Of Pride (2018) [FLAC]\Disc 1\13 - Me And Bobby McGee.wav

Peak level 96.7 %
Extraction speed 4.4 X
Track quality 100.0 %
Test CRC C6DFE717
Copy CRC C6DFE717
Track not present in AccurateRip database
Copy OK

Track 14

Filename J:\2018 Rips\Charley Pride - 50 Golden Years Of Pride (2018) [FLAC]\Disc 1\14 - My Eyes Can Only See As Far As You.wav

Peak level 96.6 %
Extraction speed 4.4 X
Track quality 100.0 %
Test CRC B692E578
Copy CRC B692E578
Track not present in AccurateRip database
Copy OK

Track 15

Filename J:\2018 Rips\Charley Pride - 50 Golden Years Of Pride (2018) [FLAC]\Disc 1\15 - The Happiness Of Having You.wav

Peak level 96.6 %
Extraction speed 4.4 X
Track quality 100.0 %
Test CRC 9BD28562
Copy CRC 9BD28562
Track not present in AccurateRip database
Copy OK

Track 16

Filename J:\2018 Rips\Charley Pride - 50 Golden Years Of Pride (2018) [FLAC]\Disc 1\16 - Hope You're Feeling Me (Like I'm Feeling You).wav

Peak level 96.6 %
Extraction speed 4.7 X
Track quality 100.0 %
Test CRC 3B6D412F
Copy CRC 3B6D412F
Track not present in AccurateRip database
Copy OK

Track 17

Filename J:\2018 Rips\Charley Pride - 50 Golden Years Of Pride (2018) [FLAC]\Disc 1\17 - She's Just An Old Love Turned Memory.wav

Peak level 96.6 %
Extraction speed 4.6 X
Track quality 100.0 %
Test CRC BBD55119
Copy CRC BBD55119
Track not present in AccurateRip database
Copy OK

Track 18

Filename J:\2018 Rips\Charley Pride - 50 Golden Years Of Pride (2018) [FLAC]\Disc 1\18 - I'll Be Leaving Alone.wav

Peak level 96.6 %
Extraction speed 4.8 X
Track quality 100.0 %
Test CRC B743BFDE
Copy CRC B743BFDE
Track not present in AccurateRip database
Copy OK

Track 19

Filename J:\2018 Rips\Charley Pride - 50 Golden Years Of Pride (2018) [FLAC]\Disc 1\19 - Someone Loves You Honey.wav

Peak level 96.6 %
Extraction speed 4.6 X
Track quality 100.0 %
Test CRC CC448704
Copy CRC CC448704
Track not present in AccurateRip database
Copy OK

Track 20

Filename J:\2018 Rips\Charley Pride - 50 Golden Years Of Pride (2018) [FLAC]\Disc 1\20 - Burgers And Fries.wav

Peak level 96.6 %
Extraction speed 5.1 X
Track quality 100.0 %
Test CRC 33976232
Copy CRC 33976232
Track not present in AccurateRip database
Copy OK

Track 21

Filename J:\2018 Rips\Charley Pride - 50 Golden Years Of Pride (2018) [FLAC]\Disc 1\21 - You're My Jamaica.wav

Peak level 96.7 %
Extraction speed 5.3 X
Track quality 100.0 %
Test CRC 518206D4
Copy CRC 518206D4
Track not present in AccurateRip database
Copy OK

Track 22

Filename J:\2018 Rips\Charley Pride - 50 Golden Years Of Pride (2018) [FLAC]\Disc 1\22 - Honky Tonk Blues.wav

Peak level 96.7 %
Extraction speed 4.8 X
Track quality 100.0 %
Test CRC C506172E
Copy CRC C506172E
Track not present in AccurateRip database
Copy OK

Track 23

Filename J:\2018 Rips\Charley Pride - 50 Golden Years Of Pride (2018) [FLAC]\Disc 1\23 - I Don't Think She's In Love Anymore.wav

Peak level 96.6 %
Extraction speed 5.2 X
Track quality 100.0 %
Test CRC FD0F0965
Copy CRC FD0F0965
Track not present in AccurateRip database
Copy OK

Track 24

Filename J:\2018 Rips\Charley Pride - 50 Golden Years Of Pride (2018) [FLAC]\Disc 1\24 - Why Baby Why.wav

Peak level 96.6 %
Extraction speed 5.1 X
Track quality 100.0 %
Test CRC 6811455A
Copy CRC 6811455A
Track not present in AccurateRip database
Copy OK

Track 25

Filename J:\2018 Rips\Charley Pride - 50 Golden Years Of Pride (2018) [FLAC]\Disc 1\25 - You're So Good When You're Bad.wav

Peak level 96.6 %
Extraction speed 4.2 X
Track quality 99.9 %
Test CRC 1E328E10
Copy CRC 1E328E10
Track not present in AccurateRip database
Copy OK

Track 26

Filename J:\2018 Rips\Charley Pride - 50 Golden Years Of Pride (2018) [FLAC]\Disc 1\26 - Mountain Of Love.wav

Peak level 96.6 %
Extraction speed 4.0 X
Track quality 99.9 %
Test CRC BF8C15E4
Copy CRC BF8C15E4
Track not present in AccurateRip database
Copy OK

Track 27

Filename J:\2018 Rips\Charley Pride - 50 Golden Years Of Pride (2018) [FLAC]\Disc 1\27 - Night Games.wav

Peak level 96.6 %
Extraction speed 5.6 X
Track quality 100.0 %
Test CRC 7984F49B
Copy CRC 7984F49B
Track not present in AccurateRip database
Copy OK

Track 28

Filename J:\2018 Rips\Charley Pride - 50 Golden Years Of Pride (2018) [FLAC]\Disc 1\28 - Roll On Mississippi.wav

Peak level 96.6 %
Extraction speed 4.4 X
Track quality 99.9 %
Test CRC 92175968
Copy CRC 92175968
Track not present in AccurateRip database
Copy OK


None of the tracks are present in the AccurateRip database

No errors occurred

End of status report

–– CUETools DB Plugin V2.1.6

[CTDB TOCID: kxkhkeIrbO0uq4cechr5o6iW8rw-] found
Submit result: kxkhkeIrbO0uq4cechr5o6iW8rw- has been confirmed
Track | CTDB Status
1 | (1/1) Accurately ripped
2 | (1/1) Accurately ripped
3 | (1/1) Accurately ripped
4 | (1/1) Accurately ripped
5 | (1/1) Accurately ripped
6 | (1/1) Accurately ripped
7 | (1/1) Accurately ripped
8 | (1/1) Accurately ripped
9 | (1/1) Accurately ripped
10 | (1/1) Accurately ripped
11 | (1/1) Accurately ripped
12 | (1/1) Accurately ripped
13 | (1/1) Accurately ripped
14 | (1/1) Accurately ripped
15 | (1/1) Accurately ripped
16 | (1/1) Accurately ripped
17 | (1/1) Accurately ripped
18 | (1/1) Accurately ripped
19 | (1/1) Accurately ripped
20 | (1/1) Accurately ripped
21 | (1/1) Accurately ripped
22 | (1/1) Accurately ripped
23 | (1/1) Accurately ripped
24 | (1/1) Accurately ripped
25 | (1/1) Accurately ripped
26 | (1/1) Accurately ripped
27 | (1/1) Accurately ripped
28 | (1/1) Accurately ripped


==== Log checksum FB9D6F32C2B69CC7D0E25C0D210F3D5F214037717211283C414DAF5D3521B7CB ====
Exact Audio Copy V1.3 from 2. September 2016

EAC extraction logfile from 3. November 2019, 14:18

Charley Pride / 50 Golden Years Of Pride (Disc 2)

Used drive : TSSTcorpCDDVDW SH-222AB Adapter: 1 ID: 0

Read mode : Secure
Utilize accurate stream : Yes
Defeat audio cache : Yes
Make use of C2 pointers : No

Read offset correction : 6
Overread into Lead-In and Lead-Out : No
Fill up missing offset samples with silence : Yes
Delete leading and trailing silent blocks : No
Null samples used in CRC calculations : Yes
Used interface : Native Win32 interface for Win NT & 2000
Gap handling : Appended to previous track

Used output format : User Defined Encoder
Selected bitrate : 1024 kBit/s
Quality : High
Add ID3 tag : No
Command line compressor : C:\Program Files (x86)\Exact Audio Copy\Flac\flac.exe
Additional command line options : -8 -V -T "ARTIST=%artist%" -T "TITLE=%title%" -T "ALBUM=%albumtitle%" -T "DATE=%year%" -T "TRACKNUMBER=%tracknr%" -T "GENRE=%genre%" -T "PERFORMER=%albuminterpret%" -T "COMPOSER=%composer%" %haslyrics%–tag-from-file=LYRICS="%lyricsfile%"%haslyrics% -T "ALBUMARTIST=%albumartist%" -T "DISCNUMBER=%cdnumber%" -T "TOTALDISCS=%totalcds%" -T "TOTALTRACKS=%numtracks%" -T "COMMENT=EAC V1.3, Secure Mode, Test & Copy, AccurateRip, FLAC -8" %source% -o %dest%


TOC of the extracted CD

Track | Start | Length | Start sector | End sector
––––––––––––––––––––––––––––-
1 | 0:00.00 | 3:50.18 | 0 | 17267
2 | 3:50.18 | 3:30.66 | 17268 | 33083
3 | 7:21.09 | 3:05.14 | 33084 | 46972
4 | 10:26.23 | 3:42.74 | 46973 | 63696
5 | 14:09.22 | 2:38.33 | 63697 | 75579
6 | 16:47.55 | 3:34.58 | 75580 | 91687
7 | 20:22.38 | 3:01.29 | 91688 | 105291
8 | 23:23.67 | 3:10.63 | 105292 | 119604
9 | 26:34.55 | 3:12.20 | 119605 | 134024
10 | 29:47.00 | 2:25.29 | 134025 | 144928
11 | 32:12.29 | 3:10.47 | 144929 | 159225
12 | 35:23.01 | 2:17.29 | 159226 | 169529
13 | 37:40.30 | 2:47.52 | 169530 | 182106
14 | 40:28.07 | 3:54.28 | 182107 | 199684
15 | 44:22.35 | 2:07.44 | 199685 | 209253
16 | 46:30.04 | 3:18.74 | 209254 | 224177
17 | 49:49.03 | 3:12.23 | 224178 | 238600
18 | 53:01.26 | 3:22.43 | 238601 | 253793
19 | 56:23.69 | 4:06.40 | 253794 | 272283
20 | 60:30.34 | 3:11.26 | 272284 | 286634
21 | 63:41.60 | 2:45.20 | 286635 | 299029
22 | 66:27.05 | 4:08.52 | 299030 | 317681
23 | 70:35.57 | 3:06.34 | 317682 | 331665
24 | 73:42.16 | 3:17.07 | 331666 | 346447


Track 1

Filename J:\2018 Rips\Charley Pride - 50 Golden Years Of Pride (2018) [FLAC]\Disc 2\01 - Just For The Love Of It (feat. Joe Diffie).wav

Pre-gap length 0:00:02.00

Peak level 96.6 %
Extraction speed 4.8 X
Track quality 100.0 %
Test CRC 614BCA5F
Copy CRC 614BCA5F
Track not present in AccurateRip database
Copy OK

Track 2

Filename J:\2018 Rips\Charley Pride - 50 Golden Years Of Pride (2018) [FLAC]\Disc 2\02 - It's Just A Matter Of Time.wav

Peak level 96.7 %
Extraction speed 5.1 X
Track quality 100.0 %
Test CRC 2904C597
Copy CRC 2904C597
Track not present in AccurateRip database
Copy OK

Track 3

Filename J:\2018 Rips\Charley Pride - 50 Golden Years Of Pride (2018) [FLAC]\Disc 2\03 - Sea Of Heartbreak.wav

Peak level 96.6 %
Extraction speed 5.3 X
Track quality 100.0 %
Test CRC D76EE8FE
Copy CRC D76EE8FE
Track not present in AccurateRip database
Copy OK

Track 4

Filename J:\2018 Rips\Charley Pride - 50 Golden Years Of Pride (2018) [FLAC]\Disc 2\04 - Always On My Mind.wav

Peak level 96.7 %
Extraction speed 5.8 X
Track quality 100.0 %
Test CRC 369AB712
Copy CRC 369AB712
Track not present in AccurateRip database
Copy OK

Track 5

Filename J:\2018 Rips\Charley Pride - 50 Golden Years Of Pride (2018) [FLAC]\Disc 2\05 - Lovesick Blues.wav

Peak level 96.6 %
Extraction speed 5.8 X
Track quality 100.0 %
Test CRC 88EF37D5
Copy CRC 88EF37D5
Track not present in AccurateRip database
Copy OK

Track 6

Filename J:\2018 Rips\Charley Pride - 50 Golden Years Of Pride (2018) [FLAC]\Disc 2\06 - After All These Years.wav

Peak level 96.7 %
Extraction speed 4.9 X
Track quality 99.9 %
Test CRC 20ED505E
Copy CRC 20ED505E
Track not present in AccurateRip database
Copy OK

Track 7

Filename J:\2018 Rips\Charley Pride - 50 Golden Years Of Pride (2018) [FLAC]\Disc 2\07 - Burning Down The Town (feat. Travis Tritt).wav

Peak level 96.7 %
Extraction speed 6.4 X
Track quality 100.0 %
Test CRC 4493120F
Copy CRC 4493120F
Track not present in AccurateRip database
Copy OK

Track 8

Filename J:\2018 Rips\Charley Pride - 50 Golden Years Of Pride (2018) [FLAC]\Disc 2\08 - For Today (feat. Hal Ketchum).wav

Peak level 96.6 %
Extraction speed 6.7 X
Track quality 100.0 %
Test CRC 8D4E6C90
Copy CRC 8D4E6C90
Track not present in AccurateRip database
Copy OK

Track 9

Filename J:\2018 Rips\Charley Pride - 50 Golden Years Of Pride (2018) [FLAC]\Disc 2\09 - You'll Never Walk Alone.wav

Peak level 96.6 %
Extraction speed 6.9 X
Track quality 100.0 %
Test CRC BE03C498
Copy CRC BE03C498
Track not present in AccurateRip database
Copy OK

Track 10

Filename J:\2018 Rips\Charley Pride - 50 Golden Years Of Pride (2018) [FLAC]\Disc 2\10 - He'll Have To Go.wav

Peak level 96.6 %
Extraction speed 4.9 X
Track quality 99.9 %
Test CRC 3D399691
Copy CRC 3D399691
Track not present in AccurateRip database
Copy OK

Track 11

Filename J:\2018 Rips\Charley Pride - 50 Golden Years Of Pride (2018) [FLAC]\Disc 2\11 - I Don't Know Why I Love You But I Do.wav

Peak level 96.7 %
Extraction speed 7.2 X
Track quality 100.0 %
Test CRC B7711D84
Copy CRC B7711D84
Track not present in AccurateRip database
Copy OK

Track 12

Filename J:\2018 Rips\Charley Pride - 50 Golden Years Of Pride (2018) [FLAC]\Disc 2\12 - Is It Really Over.wav

Peak level 96.6 %
Extraction speed 6.9 X
Track quality 100.0 %
Test CRC B4D95FA3
Copy CRC B4D95FA3
Track not present in AccurateRip database
Copy OK

Track 13

Filename J:\2018 Rips\Charley Pride - 50 Golden Years Of Pride (2018) [FLAC]\Disc 2\13 - I Need Somebody Bad.wav

Peak level 96.6 %
Extraction speed 7.4 X
Track quality 100.0 %
Test CRC BF92CFF6
Copy CRC BF92CFF6
Track not present in AccurateRip database
Copy OK

Track 14

Filename J:\2018 Rips\Charley Pride - 50 Golden Years Of Pride (2018) [FLAC]\Disc 2\14 - Mansions For Me.wav

Peak level 96.6 %
Extraction speed 6.3 X
Track quality 99.9 %
Test CRC 0B33B22B
Copy CRC 0B33B22B
Track not present in AccurateRip database
Copy OK

Track 15

Filename J:\2018 Rips\Charley Pride - 50 Golden Years Of Pride (2018) [FLAC]\Disc 2\15 - I'm Gonna Change Everything.wav

Peak level 96.6 %
Extraction speed 7.2 X
Track quality 100.0 %
Test CRC 1AFC253C
Copy CRC 1AFC253C
Track not present in AccurateRip database
Copy OK

Track 16

Filename J:\2018 Rips\Charley Pride - 50 Golden Years Of Pride (2018) [FLAC]\Disc 2\16 - Comfort Of Her Wings.wav

Peak level 96.6 %
Extraction speed 8.2 X
Track quality 100.0 %
Test CRC 63211125
Copy CRC 63211125
Track not present in AccurateRip database
Copy OK

Track 17

Filename J:\2018 Rips\Charley Pride - 50 Golden Years Of Pride (2018) [FLAC]\Disc 2\17 - God's Coloring Book (feat. Dolly Parton).wav

Peak level 96.6 %
Extraction speed 8.2 X
Track quality 100.0 %
Test CRC DC48990A
Copy CRC DC48990A
Track not present in AccurateRip database
Copy OK

Track 18

Filename J:\2018 Rips\Charley Pride - 50 Golden Years Of Pride (2018) [FLAC]\Disc 2\18 - Plenty Good Lovin'.wav

Peak level 96.6 %
Extraction speed 8.4 X
Track quality 100.0 %
Test CRC B497D17F
Copy CRC B497D17F
Track not present in AccurateRip database
Copy OK

Track 19

Filename J:\2018 Rips\Charley Pride - 50 Golden Years Of Pride (2018) [FLAC]\Disc 2\19 - Jesus It's Me Again.wav

Peak level 96.6 %
Extraction speed 8.8 X
Track quality 100.0 %
Test CRC 0FD0C801
Copy CRC 0FD0C801
Track not present in AccurateRip database
Copy OK

Track 20

Filename J:\2018 Rips\Charley Pride - 50 Golden Years Of Pride (2018) [FLAC]\Disc 2\20 - Except For You.wav

Peak level 96.6 %
Extraction speed 8.8 X
Track quality 100.0 %
Test CRC 7D0F2B01
Copy CRC 7D0F2B01
Track not present in AccurateRip database
Copy OK

Track 21

Filename J:\2018 Rips\Charley Pride - 50 Golden Years Of Pride (2018) [FLAC]\Disc 2\21 - Cajun Party Time.wav

Peak level 96.6 %
Extraction speed 8.6 X
Track quality 100.0 %
Test CRC EC1F03F9
Copy CRC EC1F03F9
Track not present in AccurateRip database
Copy OK

Track 22

Filename J:\2018 Rips\Charley Pride - 50 Golden Years Of Pride (2018) [FLAC]\Disc 2\22 - Chain Of Love.wav

Peak level 96.6 %
Extraction speed 9.3 X
Track quality 100.0 %
Test CRC DB3174EF
Copy CRC DB3174EF
Track not present in AccurateRip database
Copy OK

Track 23

Filename J:\2018 Rips\Charley Pride - 50 Golden Years Of Pride (2018) [FLAC]\Disc 2\23 - The Choices She Made.wav

Peak level 96.6 %
Extraction speed 9.0 X
Track quality 100.0 %
Test CRC 7140C257
Copy CRC 7140C257
Track not present in AccurateRip database
Copy OK

Track 24

Filename J:\2018 Rips\Charley Pride - 50 Golden Years Of Pride (2018) [FLAC]\Disc 2\24 - Amazing Grace.wav

Peak level 96.6 %
Extraction speed 9.3 X
Track quality 100.0 %
Test CRC BFA8E31B
Copy CRC BFA8E31B
Track not present in AccurateRip database
Copy OK


None of the tracks are present in the AccurateRip database

No errors occurred

End of status report

–– CUETools DB Plugin V2.1.6

[CTDB TOCID: UIX1JKJNE8aCWBkNPsPQmpxi7ac-] found
Submit result: UIX1JKJNE8aCWBkNPsPQmpxi7ac- has been confirmed
Track | CTDB Status
1 | (1/1) Accurately ripped
2 | (1/1) Accurately ripped
3 | (1/1) Accurately ripped
4 | (1/1) Accurately ripped
5 | (1/1) Accurately ripped
6 | (1/1) Accurately ripped
7 | (1/1) Accurately ripped
8 | (1/1) Accurately ripped
9 | (1/1) Accurately ripped
10 | (1/1) Accurately ripped
11 | (1/1) Accurately ripped
12 | (1/1) Accurately ripped
13 | (1/1) Accurately ripped
14 | (1/1) Accurately ripped
15 | (1/1) Accurately ripped
16 | (1/1) Accurately ripped
17 | (1/1) Accurately ripped
18 | (1/1) Accurately ripped
19 | (1/1) Accurately ripped
20 | (1/1) Accurately ripped
21 | (1/1) Accurately ripped
22 | (1/1) Accurately ripped
23 | (1/1) Accurately ripped
24 | (1/1) Accurately ripped


==== Log checksum 41C2327EC99E7DD096A50B860C368291404786990A100863E225921991E7D168 ====

Thanks to the Original ripper !