Tags
Language
Tags
June 2024
Su Mo Tu We Th Fr Sa
26 27 28 29 30 31 1
2 3 4 5 6 7 8
9 10 11 12 13 14 15
16 17 18 19 20 21 22
23 24 25 26 27 28 29
30 1 2 3 4 5 6

Charlie Parker - The Complete Dial Sessions (1993) {4CD Set, Stash Records ST-CD-567~70 rec 1946-1947}

Posted By: ruskaval
Charlie Parker - The Complete Dial Sessions (1993) {4CD Set, Stash Records ST-CD-567~70 rec 1946-1947}

Charlie Parker - The Complete Dial Sessions (1993) {4CD Set, Stash Records ST-CD-567~70 rec 1946-1947}
EAC rip (secure mode) | FLAC (tracks)+CUE+LOG -> 733 Mb | MP3 @320 -> 598 Mb
Full Artwork @ 300 dpi (jpg) -> 72 Mb | 5% repair rar
© 1946-47, 1993 Dial / Stash Records | ST-CD-567/68/69/70
Jazz / Bop / Big Band / Saxophone

Charlie Parker's historic Dial sessions have been reissued in a variety of ways over the years. This is especially true since the advent of the compact disc. These sessions not only capture Parker's alto brillance but highlight his interaction with such jazz stalwarts as Dizzy Gillespie, Miles Davis, Duke Jordan, Max Roach, Erroll Garner, Howard McGhee and Dodo Marmarosa. This four-disc set is broken up into Hollywood Sessions 1: Moose the Mooche, Hollywood Sessions 2: Relaxin' at Camarillo, New York Sessions 1: Scrapple from the Apple, and New York Sessions 2: Drifting on a Reed. It's fortunate that these slices of jazz history are available allowing the listener to hear several takes of classics like "Moose the Mooch," "Relaxin at Camarillo," "Scrapple from the Apple," and "Ornithology" take shape. Sound quality on these Stash discs is good for the most part, fair but not great on others.
Charlie Parker - The Complete Dial Sessions (1993) {4CD Set, Stash Records ST-CD-567~70 rec 1946-1947}

Recorded from 1945-1947, this CD set respresents Charlie Parker at his most creative. The genius of Bird - the creator of Bebop - is clearly evident in his solos: they unfold with daring melodic and rhythmic invention, clear tone, and with a precise, underlying logic that seems impossible at the sizzling speed with which he plays. While many jazz musicians seem to "play with the changes", Bird invents solos so new and complete its as if he's composing a song every time he solos. And, this CD set has many of Bird's own compositions, all of which formed the backbone of the Bebop musician's repertoire. Also, A young Miles Davis is on hand for almost every tune. His solos, full of simple intricacy, demonstrate how Miles was also one of the few true improvisers/creators in Jazz. This CD set is a must for any Jazz, Bebop, Parker, or Davis fan or enthusiast. Even Classical music fans may appreciate Bird's improvisation, for it is strongly influenced by Baroque-era notions of melodic creation. Listen to Bach's 2- or 3-part piano inventions, then listen to Bird. You'll be amazed at what you find, or rather, what you hear.
Charlie Parker - The Complete Dial Sessions (1993) {4CD Set, Stash Records ST-CD-567~70 rec 1946-1947}


Personnel:
Charlie Parker – sax (alto)
Miles Davis – trumpet
Erroll Garner – piano
Max Roach – drums
Russ Freeman – piano
Shorty Rogers – trumpet
Lucky Thompson – sax (tenor)
Melvin Broiles – trumpet
Jimmy Bunn – piano
Red Callender – bass
Earl Coleman – vocals
Arnold Fishkind – bass
Arv Garrison – guitar
Wardell Gray – sax (tenor)
J.J. Johnson – trombone
Duke Jordan – piano
Barney Kessel – guitar
Bob "Dingbod" Kesterson – bass
Don Lamond – drums
Dodo Marmarosa – piano
Howard McGhee – trumpet
Vic McMillan – bass
Roy Porter – drums
Tommy Potter – bass
Jimmy Pratt – drums
Harold "Doc" West – drums

Tracklist

CD 1:

01. Diggin' Diz [Master] (Handy)
02. Moose the Mooche [Take 1, Alternate] (Parker)
03. Moose the Mooche [Take 2 - Master] (Parker)
04. Moose the Mooche [Take 3, Alternate] (Parker)
05. Yardbird Suite [Take 1, Alternate] (Parker)
06. Yardbird Suite [Take 4, Master] (Parker)
07. Ornithology [Take 1, Alternate] (Harris, Parker)
08. Ornithology [take] (Harris, Parker)
09. Ornithology [Take 4, Master] (Harris, Parker)
10. A Night in Tunisia [Take 1] (Gillespie, Paparelli)
11. A Night in Tunisia [Take 4] (Gillespie, Paparelli)
12. A Night in Tunisia [Take 5] (Gillespie, Paparelli)
13. Max (Is) Making Wax [Take A, Master] (Pettiford)
14. Lover Man [Take A, Master] (Davis, Ramirez, Sherman)
15. The Gypsy [Take A, Master] (Reid)
16. Bebop (Gillespie)
17. This Is Always [alternate take] (Gordon, Warren)
18. This Is Always (Gordon, Warren)
19. Dark Shadows [alternate take] (Coleman, Henry)
20. Dark Shadows (Coleman, Henry)
21. Dark Shadows (Coleman, Henry)
22. Dark Shadows (Coleman, Henry)

CD 2:
01. Bird's Nest [Take A, Master 1] (Parker)
02. Bird's Nest Parker (Parker)
03. Bird's Nest Parker (Parker)
04. Cool Blues (Hot Blues) (Parker)
05. Cool Blues (Blowtop Blues) (Parker)
06. Cool Blues [alternate take] (Parker)
07. Cool Blues (Parker)
08. Relaxin' at Camarillo [Take A] (Parker)
09. Relaxin' at Camarillo (Parker)
10. Relaxin' at Camarillo (Parker)
11. Relaxin' at Camarillo (Parker)
12. Cheers [Take A] (McGhee, Parker)
13. Cheers (McGhee, Parker)
14. Cheers (McGhee, Parker)
15. Cheers (McGhee, Parker)
16. Carvin' the Bird [Take A] (McGhee, Parker)
17. Carvin' the Bird (McGhee, Parker)
18. Stupendous [Take A, Master] (McGhee)
19. Stupendous (McGhee)

CD 3:
01. Dexterity [Take A, Alternate] (Parker)
02. Dexterity (Parker)
03. Bongo Bop [Take A, Master] (Parker)
04. Bongo Bop (Parker)
05. Dewey Square (Prezology] (Parker)
06. Dewey Square [Take A, Alternate] (Parker)
07. Dewey Square (Parker)
08. The Hymn [Take A, Master] (Parker)
09. The Hymn [Superman] (Parker)
10. Bird of Paradise [Take A] (Parker)
11. Bird of Paradise (Parker)
12. Bird of Paradise (Parker)
13. Embraceable You [Take A] (Gershwin, Gershwin)
14. Embraceable You (Gershwin, Gershwin)
15. Bird Feathers [Take C, Master] (Parker)
16. Klact-Oveeseds-Tene [Take A, Master] (Parker)
17. Klact-Oveeseds-Tene (Parker)
18. Scrapple from the Apple [Take B, Alternate] (Parker)
19. Scrapple from the Apple (Parker)

CD 4:
01. My Old Flame [Take A, Master] (Coslow, Johnston)
02. Out of Nowhere [Take A] (Green, Heyman)
03. Out of Nowhere (Green, Heyman)
04. Out of Nowhere (Green, Heyman)
05. Don't Blame Me [Take A, Master] (Fields, McHugh)
06. Drifting on a Reed [alternate take] (Parker)
07. Drifting on a Reed (Parker)
08. Drifting on a Reed (Air Conditioning) (Parker)
09. Quasimodo [Take A, Alternate] (Parker)
10. Quasimodo (Parker)
11. Charlie's Wig [Take B, Alternate] (Parker)
12. Charlie's Wig [Take D] (Parker)
13. Charlie's Wig [Take E, Master] (Parker)
14. Bongo Beep (Dexterity) (Parker)
15. Bongo Beep [take] (Parker)
16. Crazeology [alternate take] (Harris)
17. Crazeology (Harris)
18. Crazeology (Harris)
19. Crazeology (Harris)
20. How Deep Is the Ocean? [Take A, Master] (Berlin)
21. How Deep Is the Ocean? (Berlin)

EAC extraction logfile from 23. March 2011, 14:26 for CD
Charlie Parker / The Complete Dial Sessions: CD1

Used drive : HP DVD Writer 1170d Adapter: 1 ID: 0
Read mode : Secure with NO C2, accurate stream, disable cache
Read offset correction : 6
Overread into Lead-In and Lead-Out : No

Used output format : C:\Program Files\FLAC\flac.exe (User Defined Encoder)
128 kBit/s
Additional command line options : -8 -V -T "ARTIST=%a" -T "TITLE=%t" -T "ALBUM=%g" -T "DATE=%y" -T "TRACKNUMBER=%n" -T "TOTALTRACKS=%x" -T "GENRE=%m" -T "ALBUM ARTIST=%v" -T "ALBUMARTIST=%v" -T "COMMENT=EAC V0.99 prebeta 4, Secure Mode,

Other options :
Fill up missing offset samples with silence : Yes
Delete leading and trailing silent blocks : No
Installed external ASPI interface


Track 1
Filename C:\Documents and Settings\birddial\CD 1\01 - Diggin Diz.wav

Pre-gap length 0:00:02.00

Peak level 86.3 %
Track quality 100.0 %
Test CRC 09178A06
Copy CRC 09178A06
Copy OK

Track 2
Filename C:\Documents and Settings\birddial\CD 1\02 - Moose The Mooche (take 1).wav

Pre-gap length 0:00:01.93

Peak level 100.0 %
Track quality 100.0 %
Test CRC B795D818
Copy CRC B795D818
Copy OK

Track 3
Filename C:\Documents and Settings\birddial\CD 1\03 - Moose The Mooche (take 2).wav

Pre-gap length 0:00:02.33

Peak level 78.5 %
Track quality 100.0 %
Test CRC 6772753F
Copy CRC 6772753F
Copy OK

Track 4
Filename C:\Documents and Settings\birddial\CD 1\04 - Moose The Mooche (take 3).wav

Pre-gap length 0:00:01.70

Peak level 84.8 %
Track quality 100.0 %
Test CRC C87977B5
Copy CRC C87977B5
Copy OK

Track 5
Filename C:\Documents and Settings\birddial\CD 1\05 - Yardbird Suite (take 1).wav

Pre-gap length 0:00:02.16

Peak level 79.8 %
Track quality 100.0 %
Test CRC C02332A1
Copy CRC C02332A1
Copy OK

Track 6
Filename C:\Documents and Settings\birddial\CD 1\06 - Yardbird Suite (take 4).wav

Pre-gap length 0:00:02.22

Peak level 83.8 %
Track quality 100.0 %
Test CRC A90D438E
Copy CRC A90D438E
Copy OK

Track 7
Filename C:\Documents and Settings\birddial\CD 1\07 - Ornithology (take 1).wav

Pre-gap length 0:00:01.93

Peak level 99.7 %
Track quality 100.0 %
Test CRC BAF0105A
Copy CRC BAF0105A
Copy OK

Track 8
Filename C:\Documents and Settings\birddial\CD 1\08 - Ornithology (take 3).wav

Pre-gap length 0:00:02.00

Peak level 90.0 %
Track quality 100.0 %
Test CRC 0D175458
Copy CRC 0D175458
Copy OK

Track 9
Filename C:\Documents and Settings\birddial\CD 1\09 - Ornithology (take 4).wav

Pre-gap length 0:00:02.80

Peak level 97.2 %
Track quality 99.9 %
Test CRC A64681CE
Copy CRC A64681CE
Copy OK

Track 10
Filename C:\Documents and Settings\birddial\CD 1\10 - A Night In Tunisia (take 1).wav

Pre-gap length 0:00:02.40

Peak level 71.5 %
Track quality 100.0 %
Test CRC 0486BBA8
Copy CRC 0486BBA8
Copy OK

Track 11
Filename C:\Documents and Settings\birddial\CD 1\11 - A Night In Tunisia (take 4).wav

Pre-gap length 0:00:04.09

Peak level 94.6 %
Track quality 100.0 %
Test CRC C753CBEF
Copy CRC C753CBEF
Copy OK

Track 12
Filename C:\Documents and Settings\birddial\CD 1\12 - A Night In Tunisia (take 5).wav

Pre-gap length 0:00:02.76

Peak level 77.8 %
Track quality 100.0 %
Test CRC 6F954E63
Copy CRC 6F954E63
Copy OK

Track 13
Filename C:\Documents and Settings\birddial\CD 1\13 - Max (Is) Making Wax.wav

Pre-gap length 0:00:02.09

Peak level 93.1 %
Track quality 100.0 %
Test CRC 19338DF9
Copy CRC 19338DF9
Copy OK

Track 14
Filename C:\Documents and Settings\birddial\CD 1\14 - Lover Man (take A).wav

Pre-gap length 0:00:02.69

Peak level 70.3 %
Track quality 99.9 %
Test CRC 476FCDC8
Copy CRC 476FCDC8
Copy OK

Track 15
Filename C:\Documents and Settings\birddial\CD 1\15 - The Gypsy (take A).wav

Pre-gap length 0:00:02.46

Peak level 69.0 %
Track quality 100.0 %
Test CRC D2E11D1A
Copy CRC D2E11D1A
Copy OK

Track 16
Filename C:\Documents and Settings\birddial\CD 1\16 - Bebop (take A).wav

Pre-gap length 0:00:02.44

Peak level 78.2 %
Track quality 100.0 %
Test CRC 1613D4D5
Copy CRC 1613D4D5
Copy OK

Track 17
Filename C:\Documents and Settings\birddial\CD 1\17 - Blues #1.wav

Pre-gap length 0:00:02.53

Peak level 91.7 %
Track quality 100.0 %
Test CRC 5C012B58
Copy CRC 5C012B58
Copy OK

Track 18
Filename C:\Documents and Settings\birddial\CD 1\18 - Blues #2.wav

Pre-gap length 0:00:03.17

Peak level 93.2 %
Track quality 100.0 %
Test CRC B5F8DE89
Copy CRC B5F8DE89
Copy OK

Track 19
Filename C:\Documents and Settings\birddial\CD 1\19 - Yardbird Suite.wav

Pre-gap length 0:00:02.80

Peak level 79.7 %
Track quality 100.0 %
Test CRC F6411EE1
Copy CRC F6411EE1
Copy OK

Track 20
Filename C:\Documents and Settings\birddial\CD 1\20 - Lullaby In Rhythm (part 1).wav

Pre-gap length 0:00:03.16

Peak level 82.4 %
Track quality 100.0 %
Test CRC 6A19BCF4
Copy CRC 6A19BCF4
Copy OK

Track 21
Filename C:\Documents and Settings\birddial\CD 1\21 - Lullaby In Rhythm (part 2).wav

Pre-gap length 0:00:03.30

Peak level 68.1 %
Track quality 100.0 %
Test CRC 4A43F152
Copy CRC 4A43F152
Copy OK

Track 22
Filename C:\Documents and Settings\birddial\CD 1\22 - Home Cookin I.wav

Pre-gap length 0:00:03.09

Peak level 85.3 %
Track quality 100.0 %
Test CRC 2FA06A84
Copy CRC 2FA06A84
Copy OK

Track 23
Filename C:\Documents and Settings\birddial\CD 1\23 - Home Cookin II.wav

Pre-gap length 0:00:03.37

Peak level 68.8 %
Track quality 99.9 %
Test CRC 563B1C1C
Copy CRC 563B1C1C
Copy OK

Track 24
Filename C:\Documents and Settings\birddial\CD 1\24 - Home Cookin III.wav

Pre-gap length 0:00:03.26

Peak level 61.8 %
Track quality 100.0 %
Test CRC 422AA174
Copy CRC 422AA174
Copy OK

No errors occured


End of status report

EAC extraction logfile from 24. March 2011, 20:26 for CD
Charlie Parker / The Complete Dial Sessions CD2

Used drive : HP DVD Writer 1170d Adapter: 1 ID: 1
Read mode : Secure with NO C2, accurate stream, disable cache
Read offset correction : 6
Overread into Lead-In and Lead-Out : No

Used output format : C:\Program Files\FLAC\flac.exe (User Defined Encoder)
128 kBit/s
Additional command line options : -8 -V -T "ARTIST=%a" -T "TITLE=%t" -T "ALBUM=%g" -T "DATE=%y" -T "TRACKNUMBER=%n" -T "TOTALTRACKS=%x" -T "GENRE=%m" -T "ALBUM ARTIST=%v" -T "ALBUMARTIST=%v" -T "COMMENT=EAC V0.99 prebeta 4, Secure Mode,

Other options :
Fill up missing offset samples with silence : Yes
Delete leading and trailing silent blocks : No
Installed external ASPI interface


Track 1
Filename C:\Documents and Settings\birddial\CD 2\01 - This is Always (Take C, Master).wav

Pre-gap length 0:00:02.00

Peak level 82.5 %
Track quality 99.9 %
Test CRC 060003AB
Copy CRC 060003AB
Copy OK

Track 2
Filename C:\Documents and Settings\birddial\CD 2\02 - This is Always (Take D, Alternate).wav

Pre-gap length 0:00:02.64

Peak level 76.0 %
Track quality 100.0 %
Test CRC E6EB26A5
Copy CRC E6EB26A5
Copy OK

Track 3
Filename C:\Documents and Settings\birddial\CD 2\03 - Dark Shadows (Take A, Alternate).wav

Pre-gap length 0:00:01.96

Peak level 95.3 %
Track quality 100.0 %
Test CRC 2464C09E
Copy CRC 2464C09E
Copy OK

Track 4
Filename C:\Documents and Settings\birddial\CD 2\04 - Dark Shadows (Take B, Alternate).wav

Pre-gap length 0:00:02.64

Peak level 72.2 %
Track quality 100.0 %
Test CRC 5E3F9613
Copy CRC 5E3F9613
Copy OK

Track 5
Filename C:\Documents and Settings\birddial\CD 2\05 - Dark Shadows (Take C, Master).wav

Pre-gap length 0:00:02.29

Peak level 91.9 %
Track quality 100.0 %
Test CRC 5B0199EE
Copy CRC 5B0199EE
Copy OK

Track 6
Filename C:\Documents and Settings\birddial\CD 2\06 - Dark Shadows (Take D, Alternate).wav

Pre-gap length 0:00:02.04

Peak level 85.7 %
Track quality 100.0 %
Test CRC 19CA760B
Copy CRC 19CA760B
Copy OK

Track 7
Filename C:\Documents and Settings\birddial\CD 2\07 - Bird's Nest (Take A, Master 1).wav

Pre-gap length 0:00:02.49

Peak level 86.3 %
Track quality 100.0 %
Test CRC E4AB27B4
Copy CRC E4AB27B4
Copy OK

Track 8
Filename C:\Documents and Settings\birddial\CD 2\08 - Bird's Nest (Take B, Alternate).wav

Pre-gap length 0:00:01.90

Peak level 81.3 %
Track quality 100.0 %
Test CRC 8F3695B0
Copy CRC 8F3695B0
Copy OK

Track 9
Filename C:\Documents and Settings\birddial\CD 2\09 - Bird's Nest (Take C, Master 2).wav

Pre-gap length 0:00:02.68

Peak level 96.1 %
Track quality 100.0 %
Test CRC 6042F104
Copy CRC 6042F104
Copy OK

Track 10
Filename C:\Documents and Settings\birddial\CD 2\10 - Cool Blues (Take A, Alternate; aka HOT BLUES).wav

Pre-gap length 0:00:01.96

Peak level 90.3 %
Track quality 100.0 %
Test CRC 191DF556
Copy CRC 191DF556
Copy OK

Track 11
Filename C:\Documents and Settings\birddial\CD 2\11 - Cool Blues (Take B, Alternate; aka BLOWTOP BLUES).wav

Pre-gap length 0:00:01.64

Peak level 95.6 %
Track quality 100.0 %
Test CRC 0357D53F
Copy CRC 0357D53F
Copy OK

Track 12
Filename C:\Documents and Settings\birddial\CD 2\12 - Cool Blues (Take C, Master).wav

Pre-gap length 0:00:01.89

Peak level 80.7 %
Track quality 100.0 %
Test CRC 92443469
Copy CRC 92443469
Copy OK

Track 13
Filename C:\Documents and Settings\birddial\CD 2\13 - Cool Blues (Take D, Alternate).wav

Pre-gap length 0:00:01.53

Peak level 90.9 %
Track quality 99.9 %
Test CRC CCD97394
Copy CRC CCD97394
Copy OK

Track 14
Filename C:\Documents and Settings\birddial\CD 2\14 - Relaxin' at Camarillo (Take A).wav

Pre-gap length 0:00:03.04

Peak level 94.7 %
Track quality 99.9 %
Test CRC DFB807F7
Copy CRC DFB807F7
Copy OK

Track 15
Filename C:\Documents and Settings\birddial\CD 2\15 - Relaxin' at Camarillo (Take C).wav

Pre-gap length 0:00:02.33

Peak level 80.8 %
Track quality 100.0 %
Test CRC C45FB66D
Copy CRC C45FB66D
Copy OK

Track 16
Filename C:\Documents and Settings\birddial\CD 2\16 - Relaxin' at Camarillo (Take D).wav

Pre-gap length 0:00:01.58

Peak level 97.1 %
Track quality 100.0 %
Test CRC 26A5E490
Copy CRC 26A5E490
Copy OK

Track 17
Filename C:\Documents and Settings\birddial\CD 2\17 - Relaxin' at Camarillo (Take E).wav

Pre-gap length 0:00:01.60

Peak level 100.0 %
Track quality 100.0 %
Test CRC 4B13D1CE
Copy CRC 4B13D1CE
Copy OK

Track 18
Filename C:\Documents and Settings\birddial\CD 2\18 - Cheers (Take A).wav

Pre-gap length 0:00:01.70

Peak level 96.1 %
Track quality 100.0 %
Test CRC 73BBE2F3
Copy CRC 73BBE2F3
Copy OK

Track 19
Filename C:\Documents and Settings\birddial\CD 2\19 - Cheers (Take B).wav

Pre-gap length 0:00:02.02

Peak level 96.4 %
Track quality 100.0 %
Test CRC BA8E2ECF
Copy CRC BA8E2ECF
Copy OK

Track 20
Filename C:\Documents and Settings\birddial\CD 2\20 - Cheers (Take C).wav

Pre-gap length 0:00:01.93

Peak level 93.2 %
Track quality 100.0 %
Test CRC 4B4D96EE
Copy CRC 4B4D96EE
Copy OK

Track 21
Filename C:\Documents and Settings\birddial\CD 2\21 - Cheers (Take D).wav

Pre-gap length 0:00:02.25

Peak level 85.7 %
Track quality 100.0 %
Test CRC DB9A0272
Copy CRC DB9A0272
Copy OK

Track 22
Filename C:\Documents and Settings\birddial\CD 2\22 - Carvin' the Bird (Take A, Alternate).wav

Pre-gap length 0:00:01.56

Peak level 92.0 %
Track quality 99.9 %
Test CRC C8AF7E90
Copy CRC C8AF7E90
Copy OK

Track 23
Filename C:\Documents and Settings\birddial\CD 2\23 - Carvin' the Bird (Take B, Master).wav

Pre-gap length 0:00:01.97

Peak level 92.5 %
Track quality 100.0 %
Test CRC 591BDDBC
Copy CRC 591BDDBC
Copy OK

Track 24
Filename C:\Documents and Settings\birddial\CD 2\24 - Stupendous (Take A, Master).wav

Pre-gap length 0:00:01.76

Peak level 80.9 %
Track quality 100.0 %
Test CRC C3B29BFD
Copy CRC C3B29BFD
Copy OK

Track 25
Filename C:\Documents and Settings\birddial\CD 2\25 - Stupendous (Take B, Alternate; aka SURPRISING).wav

Pre-gap length 0:00:01.70

Peak level 88.2 %
Track quality 100.0 %
Test CRC D54E6A5B
Copy CRC D54E6A5B
Copy OK

No errors occured


End of status report

EAC extraction logfile from 25. March 2011, 14:28 for CD
Charlie Parker / The Complete Dial Sessions CD3

Used drive : HP DVD Writer 1170d Adapter: 1 ID: 0
Read mode : Secure with NO C2, accurate stream, disable cache
Read offset correction : 6
Overread into Lead-In and Lead-Out : No

Used output format : C:\Program Files\FLAC\flac.exe (User Defined Encoder)
128 kBit/s
Additional command line options : -8 -V -T "ARTIST=%a" -T "TITLE=%t" -T "ALBUM=%g" -T "DATE=%y" -T "TRACKNUMBER=%n" -T "TOTALTRACKS=%x" -T "GENRE=%m" -T "ALBUM ARTIST=%v" -T "ALBUMARTIST=%v" -T "COMMENT=EAC V0.99 prebeta 4, Secure Mode,

Other options :
Fill up missing offset samples with silence : Yes
Delete leading and trailing silent blocks : No
Installed external ASPI interface


Track 1
Filename C:\Documents and Settings\birddial\CD 3\01 - Dexterity (Take A, Alternate).wav

Pre-gap length 0:00:02.00

Peak level 85.8 %
Track quality 100.0 %
Test CRC 8993AD2F
Copy CRC 8993AD2F
Copy OK

Track 2
Filename C:\Documents and Settings\birddial\CD 3\02 - Dexterity (Take B, Master).wav

Pre-gap length 0:00:01.76

Peak level 88.6 %
Track quality 100.0 %
Test CRC 450DD2BE
Copy CRC 450DD2BE
Copy OK

Track 3
Filename C:\Documents and Settings\birddial\CD 3\03 - Bongo Bop (Take A, Master; aka BLUES).wav

Pre-gap length 0:00:02.00

Peak level 95.8 %
Track quality 100.0 %
Test CRC 6486CB47
Copy CRC 6486CB47
Copy OK

Track 4
Filename C:\Documents and Settings\birddial\CD 3\04 - Bongo Bop (Take B, Alternate; aka Blues and Parker's Blues).wav

Pre-gap length 0:00:01.86

Peak level 97.9 %
Track quality 100.0 %
Test CRC 10640496
Copy CRC 10640496
Copy OK

Track 5
Filename C:\Documents and Settings\birddial\CD 3\05 - Dewey Square (Take A, Alternate; aka Prezology and Bird Feathers).wav

Pre-gap length 0:00:02.00

Peak level 98.9 %
Track quality 100.0 %
Test CRC CB31E048
Copy CRC CB31E048
Copy OK

Track 6
Filename C:\Documents and Settings\birddial\CD 3\06 - Dewey Square (Take B, alternate).wav

Pre-gap length 0:00:01.89

Peak level 98.6 %
Track quality 100.0 %
Test CRC E29A0514
Copy CRC E29A0514
Copy OK

Track 7
Filename C:\Documents and Settings\birddial\CD 3\07 - Dewey Square (Take C, Master).wav

Pre-gap length 0:00:02.20

Peak level 94.6 %
Track quality 99.9 %
Test CRC D7AF6EF8
Copy CRC D7AF6EF8
Copy OK

Track 8
Filename C:\Documents and Settings\birddial\CD 3\08 - The Hymn (Take A, Master).wav

Pre-gap length 0:00:01.60

Peak level 93.1 %
Track quality 100.0 %
Test CRC 8A9679E4
Copy CRC 8A9679E4
Copy OK

Track 9
Filename C:\Documents and Settings\birddial\CD 3\09 - The Hymn (Take B, Alternate; Originally released as 'Superman' by the Miles Davis Quartet.wav

Pre-gap length 0:00:02.40

Peak level 79.4 %
Track quality 100.0 %
Test CRC 0B995AF2
Copy CRC 0B995AF2
Copy OK

Track 10
Filename C:\Documents and Settings\birddial\CD 3\10 - Bird of Paradise (Take A).wav

Pre-gap length 0:00:02.33

Peak level 74.3 %
Track quality 100.0 %
Test CRC 5F85ACF5
Copy CRC 5F85ACF5
Copy OK

Track 11
Filename C:\Documents and Settings\birddial\CD 3\11 - Bird of Paradise (Take B).wav

Pre-gap length 0:00:01.66

Peak level 96.9 %
Track quality 99.9 %
Test CRC BD47D249
Copy CRC BD47D249
Copy OK

Track 12
Filename C:\Documents and Settings\birddial\CD 3\12 - Bird of Paradise (Take C).wav

Pre-gap length 0:00:01.53

Peak level 86.9 %
Track quality 100.0 %
Test CRC 717ED7DD
Copy CRC 717ED7DD
Copy OK

Track 13
Filename C:\Documents and Settings\birddial\CD 3\13 - Embraceable You (Take A).wav

Pre-gap length 0:00:02.06

Peak level 99.5 %
Track quality 100.0 %
Test CRC C762C02D
Copy CRC C762C02D
Copy OK

Track 14
Filename C:\Documents and Settings\birddial\CD 3\14 - Embraceable You (Take B).wav

Pre-gap length 0:00:02.20

Peak level 82.5 %
Track quality 100.0 %
Test CRC 6AA83360
Copy CRC 6AA83360
Copy OK

Track 15
Filename C:\Documents and Settings\birddial\CD 3\15 - Bird Feathers (Take C, Master ; aka Schnourphology).wav

Pre-gap length 0:00:01.80

Peak level 87.1 %
Track quality 100.0 %
Test CRC C297347D
Copy CRC C297347D
Copy OK

Track 16
Filename C:\Documents and Settings\birddial\CD 3\16 - Klact-Oveeseds-Tene (Take A, Master).wav

Pre-gap length 0:00:01.46

Peak level 88.1 %
Track quality 100.0 %
Test CRC 4A427643
Copy CRC 4A427643
Copy OK

Track 17
Filename C:\Documents and Settings\birddial\CD 3\17 - Klact-Oveeseds-Tene (Take B, Alternate).wav

Pre-gap length 0:00:02.46

Peak level 75.6 %
Track quality 100.0 %
Test CRC D0D883D3
Copy CRC D0D883D3
Copy OK

Track 18
Filename C:\Documents and Settings\birddial\CD 3\18 - Scrapple From the Apple (Take B, Alternate).wav

Pre-gap length 0:00:02.33

Peak level 93.4 %
Track quality 100.0 %
Test CRC F0B9BD66
Copy CRC F0B9BD66
Copy OK

Track 19
Filename C:\Documents and Settings\birddial\CD 3\19 - Scrapple From the Apple (Take C, Master; aka 'Little Be-bop').wav

Pre-gap length 0:00:01.84

Peak level 89.6 %
Track quality 100.0 %
Test CRC FB563748
Copy CRC FB563748
Copy OK

No errors occured


End of status report

EAC extraction logfile from 25. March 2011, 17:38 for CD
Charlie Parker / The Complete Dial Sessions CD4

Used drive : HP DVD Writer 1170d Adapter: 1 ID: 0
Read mode : Secure with NO C2, accurate stream, disable cache
Read offset correction : 6
Overread into Lead-In and Lead-Out : No

Used output format : C:\Program Files\FLAC\flac.exe (User Defined Encoder)
128 kBit/s
Additional command line options : -8 -V -T "ARTIST=%a" -T "TITLE=%t" -T "ALBUM=%g" -T "DATE=%y" -T "TRACKNUMBER=%n" -T "TOTALTRACKS=%x" -T "GENRE=%m" -T "ALBUM ARTIST=%v" -T "ALBUMARTIST=%v" -T "COMMENT=EAC V0.99 prebeta 4, Secure Mode,

Other options :
Fill up missing offset samples with silence : Yes
Delete leading and trailing silent blocks : No
Installed external ASPI interface


Track 1
Filename C:\Documents and Settings\birddial\CD 4\01 - My Old Flame (Take A, Master).wav

Pre-gap length 0:00:02.00

Peak level 79.6 %
Track quality 100.0 %
Test CRC 97B44294
Copy CRC 97B44294
Copy OK

Track 2
Filename C:\Documents and Settings\birddial\CD 4\02 - Out of Nowhere (Take A).wav

Pre-gap length 0:00:01.69

Peak level 100.0 %
Track quality 100.0 %
Test CRC D415B6B9
Copy CRC D415B6B9
Copy OK

Track 3
Filename C:\Documents and Settings\birddial\CD 4\03 - Out of Nowhere (Take B).wav

Pre-gap length 0:00:02.49

Peak level 77.1 %
Track quality 100.0 %
Test CRC AC7E138B
Copy CRC AC7E138B
Copy OK

Track 4
Filename C:\Documents and Settings\birddial\CD 4\04 - Out of Nowhere (Take C).wav

Pre-gap length 0:00:02.10

Peak level 78.5 %
Track quality 100.0 %
Test CRC 91AA0BC2
Copy CRC 91AA0BC2
Copy OK

Track 5
Filename C:\Documents and Settings\birddial\CD 4\05 - Don't Blame Me (Take A, Master).wav

Pre-gap length 0:00:02.60

Peak level 78.2 %
Track quality 100.0 %
Test CRC BC38BB34
Copy CRC BC38BB34
Copy OK

Track 6
Filename C:\Documents and Settings\birddial\CD 4\06 - Drifting On A Reed (Take B, Alternate- aka GIANT SWING).wav

Pre-gap length 0:00:01.93

Peak level 74.3 %
Track quality 100.0 %
Test CRC 2A5134A4
Copy CRC 2A5134A4
Copy OK

Track 7
Filename C:\Documents and Settings\birddial\CD 4\07 - Drifting On A Reed (Take D, Alternate).wav

Pre-gap length 0:00:01.60

Peak level 84.6 %
Track quality 100.0 %
Test CRC 4F0ABDEF
Copy CRC 4F0ABDEF
Copy OK

Track 8
Filename C:\Documents and Settings\birddial\CD 4\08 - Drifting On A Reed (Take E, Master- aka Air Conditioning).wav

Pre-gap length 0:00:01.60

Peak level 100.0 %
Track quality 100.0 %
Test CRC 84852EAC
Copy CRC 84852EAC
Copy OK

Track 9
Filename C:\Documents and Settings\birddial\CD 4\09 - Quasimado (Quasimodo) (Take A, Alternate).wav

Pre-gap length 0:00:01.73

Peak level 93.1 %
Track quality 100.0 %
Test CRC 08AA6E2B
Copy CRC 08AA6E2B
Copy OK

Track 10
Filename C:\Documents and Settings\birddial\CD 4\10 - Quasimado (Quasimodo) (Take B, Master- aka Trade Winds).wav

Pre-gap length 0:00:02.13

Peak level 93.7 %
Track quality 100.0 %
Test CRC E6A5EA5A
Copy CRC E6A5EA5A
Copy OK

Track 11
Filename C:\Documents and Settings\birddial\CD 4\11 - Charlie's Wig (Take B, Alternate- aka Bongo Bop).wav

Pre-gap length 0:00:01.64

Peak level 90.1 %
Track quality 100.0 %
Test CRC 6223C6C3
Copy CRC 6223C6C3
Copy OK

Track 12
Filename C:\Documents and Settings\birddial\CD 4\12 - Charlie's Wig (Take D, Alternate- aka Drifting on a Road).wav

Pre-gap length 0:00:02.04

Peak level 100.0 %
Track quality 100.0 %
Test CRC 4F1537B5
Copy CRC 4F1537B5
Copy OK

Track 13
Filename C:\Documents and Settings\birddial\CD 4\13 - Charlie's Wig (Take E, Master).wav

Pre-gap length 0:00:02.36

Peak level 97.2 %
Track quality 100.0 %
Test CRC 129F7050
Copy CRC 129F7050
Copy OK

Track 14
Filename C:\Documents and Settings\birddial\CD 4\14 - Bongo Beep (Take B- aka Dexterity).wav

Pre-gap length 0:00:01.40

Peak level 95.0 %
Track quality 100.0 %
Test CRC 0BFF0B75
Copy CRC 0BFF0B75
Copy OK

Track 15
Filename C:\Documents and Settings\birddial\CD 4\15 - Bongo Beep (Take C- aka Bird Feathers and Charlie's Wig).wav

Pre-gap length 0:00:01.86

Peak level 75.5 %
Track quality 100.0 %
Test CRC 9BFCED65
Copy CRC 9BFCED65
Copy OK

Track 16
Filename C:\Documents and Settings\birddial\CD 4\16 - Crazeology (Little Benny) (Take A, Excerpt).wav

Pre-gap length 0:00:01.77

Peak level 93.1 %
Track quality 100.0 %
Test CRC A94B1FD5
Copy CRC A94B1FD5
Copy OK

Track 17
Filename C:\Documents and Settings\birddial\CD 4\17 - Crazeology (Little Benny) (Take B, Excerpt).wav

Pre-gap length 0:00:02.66

Peak level 74.5 %
Track quality 100.0 %
Test CRC F0CB8F34
Copy CRC F0CB8F34
Copy OK

Track 18
Filename C:\Documents and Settings\birddial\CD 4\18 - Crazeology (Little Benny) (Take C, Alternate).wav

Pre-gap length 0:00:02.13

Peak level 99.6 %
Track quality 100.0 %
Test CRC 4B62F706
Copy CRC 4B62F706
Copy OK

Track 19
Filename C:\Documents and Settings\birddial\CD 4\19 - Crazeology (Little Benny) (Take D, Master 2- aka Move and Bird Feathers).wav

Pre-gap length 0:00:01.80

Peak level 82.4 %
Track quality 100.0 %
Test CRC 972FCF3F
Copy CRC 972FCF3F
Copy OK

Track 20
Filename C:\Documents and Settings\birddial\CD 4\20 - How Deep is the Ocean (Take A, Master).wav

Pre-gap length 0:00:01.89

Peak level 95.6 %
Track quality 100.0 %
Test CRC A5EDF8B7
Copy CRC A5EDF8B7
Copy OK

Track 21
Filename C:\Documents and Settings\birddial\CD 4\21 - How Deep is the Ocean (Take B, Alternate).wav

Pre-gap length 0:00:02.02

Peak level 70.9 %
Track quality 100.0 %
Test CRC 28370BE7
Copy CRC 28370BE7
Copy OK

No errors occured


End of status report


Charlie Parker - The Complete Dial Sessions (1993) {4CD Set, Stash Records ST-CD-567~70 rec 1946-1947}

Charlie Parker - The Complete Dial Sessions (1993) {4CD Set, Stash Records ST-CD-567~70 rec 1946-1947}



===