Subcategories
Tags
Language
Tags

Charlie Parker Records: The Complete Collection, Vol. 24 - Charlie Parker - Fragments (2012 CP Records 233193/24 rec 1949-1952}

Posted By: ruskaval
Charlie Parker Records: The Complete Collection, Vol. 24 - Charlie Parker - Fragments (2012 CP Records 233193/24 rec 1949-1952}

Charlie Parker Records: The Complete Collection, Vol. 24 - Charlie Parker - Fragments (2012 CP Records 233193/24 rec 1949-1952}
EAC rip (secure mode) | FLAC (tracks)+CUE+LOG -> 136 Mb | MP3 @320 -> 105 Mb
Full Artwork @ 600 dpi (jpg) -> 61 Mb | 5% repair rar
© 1949-52, 2012 Charlie Parker Records / Membran Media / Documents | 233193 / 24
Jazz / Bop / Saxophone

Exhaustive 30 CD collection from the Jazz legend's short-lived label. Contains 44 original albums (421 tracks) plus booklet. Every record-collector has run across an album with the little sax-playing bird in it's label-logo, right next to the brand name Charlie Parker Records or CP Parker Records. Turning the sleeve over, especially if it was one of the non-Parker releases, and seeing a '60s release date under the header Stereo-pact! Was as exciting an experience as it was confusing. Was the claim Bird Lives meant more literally than previously thought?

What do the Rays Nance and Barretto have to do with Charlie Parker? Who is the Satan in High Heels? When did Barney Kessel and Harold Land tame El Tigre? And what is Stereo-pact!, after all? Rumors are far and wide, speculation and misinformation abounds, while fans and experts discuss the releases of this short-lived label from the '60s at record fairs and in internet forums. But even though a discography can be found online, never before has anyone made an attempt to present the complete output of this legendary label in one set.
Charlie Parker Records: The Complete Collection, Vol. 24 - Charlie Parker - Fragments (2012 CP Records 233193/24 rec 1949-1952}

Charlie Parker Records: The Complete Collection, Vol. 24 - Charlie Parker - Fragments (2012 CP Records 233193/24 rec 1949-1952}

Charlie Parker Records: The Complete Collection, Vol. 24 - Charlie Parker - Fragments (2012 CP Records 233193/24 rec 1949-1952}


see more INFO

============


Charlie Parker Records: The Complete Collection, Vol. 24 - Charlie Parker - Fragments (2012 CP Records 233193/24 rec 1949-1952}


TRACKLISTING and PERSONNEL

CHARLIE PARKER – Fragments


01 – Sly Mongoose (L. Belasco) (5:38)
02 – Little Suede Shoes (C. Parker) (4:10)
03 – Cheryl (C. Parker) (3:17)
04 – Barbados (C. Parker) (3:40)
05 – Anthropology (D. Gillespie - C. Parker) (5:00)
06 – Night In Tunisia (Paparelli – Gillespie) (4:41)
07 – Salt Peanuts (Gillespie – Clarke) (3:41)
08 – Perdido (Tizol - Drake) (5:54)
09 – Little Willie Leaps (M. Davis) (5:53)

Personnel:
(1-2): Charlie Parker, alto-sax – Walter Bishop, piano – Mundell Lowe, guitar – Max Roach, drums
Teddy Kotick, bass – Recorded Sept. 26, 1952, at the Rockland Palace, New York
(3): Charlie Parker, alto-sax – Kenny Dorham, trumpet – Al Haig, piano – Tommy Potter, bass – Joe Harris, drums
Recorded Jan. 8, 1949, at The Royal Roost, N.Y.C.
(4): Charlie Parker, alto-sax – Kenny Dorham, trumpet – Al Haig, piano – Tommy Potter, bass – Max Roach, drums
Recorded Feb. 5, 1949, at The Royal Roost, N.Y.C.
(5-6): Charlie Parker, alto-sax – Dizzy Gillespie, trumpet – Bud Powell, piano – Max Roach, drums – Tommy Potter, bass
Recorded March 31, 1951, at Birdland, N.Y.C.
(7): Charlie Parker, alto-sax – Miles Davis, trumpet – Al Haig, piano – Tommy Potter, bass – Max Roach, drums
Recorded Feb. 5, 1949, at The Royal Roost, N.Y.C.
(8-9): Charlie Parker, alto-sax – Fats Navarro, trumpet
Bud Powell, piano – Curley Russell, bass- Max Roach, drums – Recorded June 30, 1950, at Birdland, N.Y.C.


Exact Audio Copy V1.3 from 2. September 2016

EAC extraction logfile from 9. July 2020, 11:08

Charlie Parker / Charlie Parker Records: The Complete Collection, Vol. 24, Charlie Parker - Fragments

Used drive : ATAPI iHAS122 F Adapter: 1 ID: 1

Read mode : Secure
Utilize accurate stream : Yes
Defeat audio cache : Yes
Make use of C2 pointers : No

Read offset correction : 6
Overread into Lead-In and Lead-Out : No
Fill up missing offset samples with silence : Yes
Delete leading and trailing silent blocks : No
Null samples used in CRC calculations : Yes
Used interface : Native Win32 interface for Win NT & 2000
Gap handling : Appended to previous track

Used output format : User Defined Encoder
Selected bitrate : 1024 kBit/s
Quality : High
Add ID3 tag : No
Command line compressor : C:\Program Files (x86)\Exact Audio Copy_v1.3\Flac\flac.exe
Additional command line options : -8 -V -T "ARTIST=%artist%" -T "TITLE=%title%" -T "ALBUM=%albumtitle%" -T "DATE=%year%" -T "TRACKNUMBER=%tracknr%" -T "TOTALTRACKS=%numtracks%" -T "GENRE=%genre%" -T "ALBUMARTIST=%albumartist%" -T "ALBUM ARTIST=%albumartist%" -T "COMMENT=EAC Secure Mode, Test & Copy, AccurateRip, FLAC -8" %source%


TOC of the extracted CD

Track | Start | Length | Start sector | End sector
––––––––––––––––––––––––––––-
1 | 0:00.00 | 5:36.69 | 0 | 25268
2 | 5:36.69 | 4:10.02 | 25269 | 44020
3 | 9:46.71 | 3:19.18 | 44021 | 58963
4 | 13:06.14 | 3:40.34 | 58964 | 75497
5 | 16:46.48 | 4:57.36 | 75498 | 97808
6 | 21:44.09 | 4:39.67 | 97809 | 118800
7 | 26:24.01 | 3:42.03 | 118801 | 135453
8 | 30:06.04 | 5:52.15 | 135454 | 161868
9 | 35:58.19 | 5:49.28 | 161869 | 188071


Track 1

Filename F:\_EAC\Charlie Parker Records - The Complete Collection, Vol 24 (2012) [FLAC]\01 - Sly Mongoose.wav

Pre-gap length 0:00:02.00

Peak level 87.7 %
Extraction speed 5.1 X
Track quality 100.0 %
Test CRC 98EBA7BB
Copy CRC 98EBA7BB
Accurately ripped (confidence 8) [D3B97DBC] (AR v2)
Copy OK

Track 2

Filename F:\_EAC\Charlie Parker Records - The Complete Collection, Vol 24 (2012) [FLAC]\02 - Little Suede Shoes.wav

Peak level 93.9 %
Extraction speed 5.4 X
Track quality 100.0 %
Test CRC 075C3F91
Copy CRC 075C3F91
Accurately ripped (confidence 8) [CBA812A2] (AR v2)
Copy OK

Track 3

Filename F:\_EAC\Charlie Parker Records - The Complete Collection, Vol 24 (2012) [FLAC]\03 - Cheryl.wav

Peak level 94.8 %
Extraction speed 5.6 X
Track quality 100.0 %
Test CRC 863DF848
Copy CRC 863DF848
Accurately ripped (confidence 8) [FAF1DE0B] (AR v2)
Copy OK

Track 4

Filename F:\_EAC\Charlie Parker Records - The Complete Collection, Vol 24 (2012) [FLAC]\04 - Barbados.wav

Peak level 85.0 %
Extraction speed 4.9 X
Track quality 99.9 %
Test CRC 3FDFE00E
Copy CRC 3FDFE00E
Accurately ripped (confidence 8) [AB7E49CC] (AR v2)
Copy OK

Track 5

Filename F:\_EAC\Charlie Parker Records - The Complete Collection, Vol 24 (2012) [FLAC]\05 - Anthropology.wav

Peak level 99.6 %
Extraction speed 5.6 X
Track quality 99.9 %
Test CRC 7FC49E18
Copy CRC 7FC49E18
Accurately ripped (confidence 8) [666767F3] (AR v2)
Copy OK

Track 6

Filename F:\_EAC\Charlie Parker Records - The Complete Collection, Vol 24 (2012) [FLAC]\06 - Night In Tunisia.wav

Peak level 97.1 %
Extraction speed 6.9 X
Track quality 100.0 %
Test CRC 78EDFF6D
Copy CRC 78EDFF6D
Accurately ripped (confidence 8) [C90B6C44] (AR v2)
Copy OK

Track 7

Filename F:\_EAC\Charlie Parker Records - The Complete Collection, Vol 24 (2012) [FLAC]\07 - Salt Peanuts.wav

Peak level 88.9 %
Extraction speed 7.0 X
Track quality 100.0 %
Test CRC 9F704D33
Copy CRC 9F704D33
Accurately ripped (confidence 8) [8008F6ED] (AR v2)
Copy OK

Track 8

Filename F:\_EAC\Charlie Parker Records - The Complete Collection, Vol 24 (2012) [FLAC]\08 - Perdido.wav

Peak level 100.0 %
Extraction speed 7.7 X
Track quality 100.0 %
Test CRC DB6C3A65
Copy CRC DB6C3A65
Accurately ripped (confidence 8) [7CDF853E] (AR v2)
Copy OK

Track 9

Filename F:\_EAC\Charlie Parker Records - The Complete Collection, Vol 24 (2012) [FLAC]\09 - Little Willie Leaps.wav

Peak level 99.0 %
Extraction speed 8.2 X
Track quality 100.0 %
Test CRC 3A4CA9AD
Copy CRC 3A4CA9AD
Accurately ripped (confidence 8) [D449489F] (AR v2)
Copy OK


All tracks accurately ripped

No errors occurred

End of status report

–– CUETools DB Plugin V2.1.6

[CTDB TOCID: rEYoMKzNxfaY0f0.2BVw6vAYSIc-] found
Submit result: rEYoMKzNxfaY0f0.2BVw6vAYSIc- has been confirmed
Track | CTDB Status
1 | (10/10) Accurately ripped
2 | (10/10) Accurately ripped
3 | (10/10) Accurately ripped
4 | (10/10) Accurately ripped
5 | (10/10) Accurately ripped
6 | (10/10) Accurately ripped
7 | (10/10) Accurately ripped
8 | (10/10) Accurately ripped
9 | (10/10) Accurately ripped


==== Log checksum 16B511091E7B59B0042DE45FF6D495938BC4B1761520BCB23A53EED242E4697A ====


Charlie Parker Records: The Complete Collection, Vol. 24 - Charlie Parker - Fragments (2012 CP Records 233193/24 rec 1949-1952}

Charlie Parker Records: The Complete Collection, Vol. 24 - Charlie Parker - Fragments (2012 CP Records 233193/24 rec 1949-1952}

Charlie Parker Records: The Complete Collection, Vol. 24 - Charlie Parker - Fragments (2012 CP Records 233193/24 rec 1949-1952}


see more Charlie Parker Records, The Complete Collection…


===