Subcategories
Tags
Language
Tags

Charlie Parker - Retrospective 1940-1953 (2005) {3CDs Set Saga}

Posted By: ruskaval
Charlie Parker - Retrospective 1940-1953 (2005) {3CDs Set Saga}

Charlie Parker - Retrospective 1940-1953 (2005) {3CDs Set Saga}
EAC rip (secure mode) | FLAC (tracks)+CUE+LOG -> 724 Mb | MP3 @320 -> 599 Mb
Full Artwork @ 600 dpi (jpg) -> 370 Mb | 5% repair rar
© 1940-53, 2005 Saga Jazz | 982 765-6
Jazz / Bebop / Classic Big Band / Swing / Bop / Saxopohone

Excellent French three CD compilation from the Jazz legend. This is a set that any self-respecting Jazz fans will want to own. They may already have all of these recordings on other releases, but never have they been put together before in such luxurious packaging. Of all the Parker sets on the market, this is definitely one to be put at the top of the list. Disc One features 24 tracks spanning the years 1940-47. Disc Two also features 24 tracks that cover the 1947-51 time period. Disc Three contains an additional 14 tracks that were recorded between the years 1947 and 1953. Includes tracks recorded for the Decca, Savoy, Dial, Comet, Musicraft and Guild labels. Also included in this package is a beautifully illustrated 80 page plus booklet with tons of archival photos. 62 tracks total. Saga Jazz.
Charlie Parker - Retrospective 1940-1953 (2005) {3CDs Set Saga}

In 2005, Saga Jazz released a 62-track anthology of Charlie Parker recordings under the title Retrospective 1940-1953. It's a good strong shot of vintage bop, but like so many compilations it suffers slightly from chronologic scrambling. That wouldn't even be worth mentioning were it not for the inclusion of a handful of Bird's early pre-bop recordings. The oldest material, which happens to be the earliest known recording of Charlie Parker, shows up on track 24; "Honeysuckle Rose/Body & Soul" was recorded in Kansas City, KS on May 11, 1940. Placing this chestnut more than one-third of the way into an almost chronological collection is incongruous and will not assist anyone who is trying to savor the man's artistic development over a stated span of thirteen years.

Charlie Parker - Retrospective 1940-1953 (2005) {3CDs Set Saga}


That, after all, is what chronologies (and historic jazz collections) are for. The next-to-oldest recordings appear closer to where one would expect them to be – at the very beginning of the collection. "Swingmatism" and the "Hootie Blues" were recorded for the Decca label in Dallas, TX on April 30, 1941 by Jay McShann & His Orchestra. Something like a chronological progression does manage to materialize, more or less, and when Bird isn't leading his own groups he is heard sitting in with bands led by Red Norvo, Slim Gaillard, and Dizzy Gillespie. While it's very nice to know that these great recordings continue to circulate, it's a damned shame they didn't place the titles in chronological sequence, for Charlie Parker's progress occurred swiftly and very dramatically and there's nothing quite like hearing him evolve, session by session and note by note.
Charlie Parker - Retrospective 1940-1953 (2005) {3CDs Set Saga}


Personnel: featuring J. J. Johnson, Miles Davis, Duke Jordan, Max Roach, Tommy Potter, John Lewis, Kenny Dorham, Al Haig, Carlos Vidal, Tommy Turk, Buddy Rich, Ray Brown, Stan Freeman, Thelonious Monk, Dizzy Gillespie, Al McKibbon, Joe Harris, Howard McGhee, Wardell Gray, Dodo Marmarosa, Barney Kessel, Red Callender, Don Lamond and others…

Recorded between probably May-November, 1940 & May 15, 1953.

Charlie Parker - Retrospective 1940-1953 (2005) {3CDs Set Saga}


tracklist:
CD1 - 1940-1947

01 - Swingmatism
02 - Hootie Blues
03 - Tiny's Tempo
04 - Groovin' High
05 - All The Things You Are
06 - Dizzy Atmosphere
07 - Salt Peanuts
08 - Shaw 'Nuff
09 - Hot House
10 - Hallelujah
11 - Slam Slam Blues
12 - Congo Blues
13 - Billie's Bounce
14 - Ko Ko
15 - Slim's Jam
16 - Yardbird Suite
17 - Ornithology
18 - A Night In Tunisia
19 - The Famous Alto Break
20 - Cool Blues
21 - Bird's Nest
22 - Relaxin' At Camarillo
23 - Chasin' The Bird
24 - Honeysuckle Rose - Body And Soul

Charlie Parker - Retrospective 1940-1953 (2005) {3CDs Set Saga}


CD2 - 1947-1951
01 - Donna Lee
02 - Milestones
03 - Little Willie Leaps
04 - The Hymn
05 - Scrapple From The Apple
06 - My Old Fame
07 - Don't Blame Me
08 - Bongo Beep
09 - How Deep Is The Ocean
10 - Bird Gets The Worm
11 - Barbados
12 - Ah-Leu-Cha
13 - Parker's Mood
14 - Perhaps
15 - Marmaduke
16 - Visa
17 - April In Paris
18 - Bloomdido
19 - Leap Frog
20 - Out Of Nowhere
21 - Au Privave
22 - Star Eyes
23 - My Little Suede Shoes
24 - Lover Man

Charlie Parker - Retrospective 1940-1953 (2005) {3CDs Set Saga}


CD3 - 1947-1953 - Broadcasts and Live
01 - Ko Ko
02 - Hot House
03 - On A Slow Boat To China
04 - Confirmation
05 - Embraceable You
06 - Cheryl
07 - Bird Of Paradise
08 - Blue 'n' Boogie
09 - Anthropology
10 - 'Round Midnight
11 - Lester Leaps In
12 - Cool Blues
13 - Salt Peanuts
14 - Wee

Charlie Parker - Retrospective 1940-1953 (2005) {3CDs Set Saga}


Exact Audio Copy V1.1 from 23. June 2015

EAC extraction logfile from 11. January 2016, 22:00

Charlie Parker / Retrospective 1940-1953 (CD1 - 1940-1947)

Used drive : TSSTcorpCDDVDW SE-208DB Adapter: 7 ID: 0

Read mode : Secure
Utilize accurate stream : Yes
Defeat audio cache : Yes
Make use of C2 pointers : No

Read offset correction : 6
Overread into Lead-In and Lead-Out : No
Fill up missing offset samples with silence : Yes
Delete leading and trailing silent blocks : No
Null samples used in CRC calculations : Yes
Used interface : Installed external ASPI interface
Gap handling : Appended to previous track

Used output format : User Defined Encoder
Selected bitrate : 1024 kBit/s
Quality : High
Add ID3 tag : No
Command line compressor : C:\Program Files (x86)\FLAC Frontend\tools\flac.exe
Additional command line options : -8 -V -T "ARTIST=%artist%" -T "TITLE=%title%" -T "ALBUM=%albumtitle%" -T "DATE=%year%" -T "TRACKNUMBER=%tracknr%" -T "TOTALTRACKS=%numtracks%" -T "GENRE=%genre%" -T "ALBUMARTIST=%albumartist%" -T "ALBUM ARTIST=%albumartist%" -T "COMMENT=EAC Secure Mode, Test & Copy, AccurateRip, FLAC -8" %source%


TOC of the extracted CD

Track | Start | Length | Start sector | End sector
––––––––––––––––––––––––––––-
1 | 0:00.00 | 2:43.06 | 0 | 12230
2 | 2:43.06 | 2:58.17 | 12231 | 25597
3 | 5:41.23 | 3:01.25 | 25598 | 39197
4 | 8:42.48 | 2:44.20 | 39198 | 51517
5 | 11:26.68 | 2:50.60 | 51518 | 64327
6 | 14:17.53 | 2:49.58 | 64328 | 77060
7 | 17:07.36 | 3:18.71 | 77061 | 91981
8 | 20:26.32 | 3:04.22 | 91982 | 105803
9 | 23:30.54 | 3:12.71 | 105804 | 120274
10 | 26:43.50 | 4:02.36 | 120275 | 138460
11 | 30:46.11 | 4:34.50 | 138461 | 159060
12 | 35:20.61 | 3:57.21 | 159061 | 176856
13 | 39:18.07 | 3:12.14 | 176857 | 191270
14 | 42:30.21 | 2:59.19 | 191271 | 204714
15 | 45:29.40 | 3:19.48 | 204715 | 219687
16 | 48:49.13 | 2:57.42 | 219688 | 233004
17 | 51:46.55 | 3:03.72 | 233005 | 246801
18 | 54:50.52 | 3:07.72 | 246802 | 260898
19 | 57:58.49 | 0:50.27 | 260899 | 264675
20 | 58:49.01 | 3:07.29 | 264676 | 278729
21 | 61:56.30 | 2:47.13 | 278730 | 291267
22 | 64:43.43 | 3:04.03 | 291268 | 305070
23 | 67:47.46 | 2:51.38 | 305071 | 317933
24 | 70:39.09 | 3:45.10 | 317934 | 334818


Track 1

Filename M:\_EAC\Charlie Parker - Retrospective 1940-1953 (2005) [FLAC] {3CDs Set Saga}\CD1 - 1940-1947\01 - Swingmatism.wav

Pre-gap length 0:00:02.00

Peak level 89.0 %
Extraction speed 1.1 X
Track quality 100.0 %
Test CRC CAA46AB0
Copy CRC CAA46AB0
Accurately ripped (confidence 7) [9549FA42] (AR v2)
Copy OK

Track 2

Filename M:\_EAC\Charlie Parker - Retrospective 1940-1953 (2005) [FLAC] {3CDs Set Saga}\CD1 - 1940-1947\02 - Hootie Blues.wav

Peak level 84.5 %
Extraction speed 1.3 X
Track quality 100.0 %
Test CRC 50640815
Copy CRC 50640815
Accurately ripped (confidence 7) [C07413C1] (AR v2)
Copy OK

Track 3

Filename M:\_EAC\Charlie Parker - Retrospective 1940-1953 (2005) [FLAC] {3CDs Set Saga}\CD1 - 1940-1947\03 - Tiny's Tempo.wav

Pre-gap length 0:00:00.03

Peak level 89.6 %
Extraction speed 1.3 X
Track quality 100.0 %
Test CRC CAD3B896
Copy CRC CAD3B896
Accurately ripped (confidence 7) [442B835E] (AR v2)
Copy OK

Track 4

Filename M:\_EAC\Charlie Parker - Retrospective 1940-1953 (2005) [FLAC] {3CDs Set Saga}\CD1 - 1940-1947\04 - Groovin' High.wav

Pre-gap length 0:00:00.03

Peak level 97.1 %
Extraction speed 1.4 X
Track quality 100.0 %
Test CRC 418E13D3
Copy CRC 418E13D3
Accurately ripped (confidence 7) [E73128F5] (AR v2)
Copy OK

Track 5

Filename M:\_EAC\Charlie Parker - Retrospective 1940-1953 (2005) [FLAC] {3CDs Set Saga}\CD1 - 1940-1947\05 - All The Things You Are.wav

Pre-gap length 0:00:01.07

Peak level 90.2 %
Extraction speed 1.5 X
Track quality 100.0 %
Test CRC 366D8028
Copy CRC 366D8028
Accurately ripped (confidence 7) [939CD3E6] (AR v2)
Copy OK

Track 6

Filename M:\_EAC\Charlie Parker - Retrospective 1940-1953 (2005) [FLAC] {3CDs Set Saga}\CD1 - 1940-1947\06 - Dizzy Atmosphere.wav

Pre-gap length 0:00:01.08

Peak level 88.9 %
Extraction speed 1.5 X
Track quality 100.0 %
Test CRC 9D3A5B27
Copy CRC 9D3A5B27
Accurately ripped (confidence 7) [15533603] (AR v2)
Copy OK

Track 7

Filename M:\_EAC\Charlie Parker - Retrospective 1940-1953 (2005) [FLAC] {3CDs Set Saga}\CD1 - 1940-1947\07 - Salt Peanuts.wav

Pre-gap length 0:00:00.03

Peak level 69.5 %
Extraction speed 1.6 X
Track quality 100.0 %
Test CRC 3DA7C1AE
Copy CRC 3DA7C1AE
Accurately ripped (confidence 7) [2D9C8FA4] (AR v2)
Copy OK

Track 8

Filename M:\_EAC\Charlie Parker - Retrospective 1940-1953 (2005) [FLAC] {3CDs Set Saga}\CD1 - 1940-1947\08 - Shaw 'Nuff.wav

Peak level 94.8 %
Extraction speed 1.7 X
Track quality 100.0 %
Test CRC 41A9D77F
Copy CRC 41A9D77F
Accurately ripped (confidence 7) [50B9FB03] (AR v2)
Copy OK

Track 9

Filename M:\_EAC\Charlie Parker - Retrospective 1940-1953 (2005) [FLAC] {3CDs Set Saga}\CD1 - 1940-1947\09 - Hot House.wav

Pre-gap length 0:00:01.05

Peak level 83.0 %
Extraction speed 1.8 X
Track quality 100.0 %
Test CRC DB8EE482
Copy CRC DB8EE482
Accurately ripped (confidence 7) [B407576B] (AR v2)
Copy OK

Track 10

Filename M:\_EAC\Charlie Parker - Retrospective 1940-1953 (2005) [FLAC] {3CDs Set Saga}\CD1 - 1940-1947\10 - Hallelujah.wav

Pre-gap length 0:00:00.02

Peak level 80.7 %
Extraction speed 1.9 X
Track quality 100.0 %
Test CRC 74E47D2D
Copy CRC 74E47D2D
Accurately ripped (confidence 7) [56D0A0EB] (AR v2)
Copy OK

Track 11

Filename M:\_EAC\Charlie Parker - Retrospective 1940-1953 (2005) [FLAC] {3CDs Set Saga}\CD1 - 1940-1947\11 - Slam Slam Blues.wav

Pre-gap length 0:00:02.01

Peak level 72.3 %
Extraction speed 2.0 X
Track quality 100.0 %
Test CRC CF061181
Copy CRC CF061181
Accurately ripped (confidence 7) [17922D35] (AR v2)
Copy OK

Track 12

Filename M:\_EAC\Charlie Parker - Retrospective 1940-1953 (2005) [FLAC] {3CDs Set Saga}\CD1 - 1940-1947\12 - Congo Blues.wav

Peak level 86.3 %
Extraction speed 2.1 X
Track quality 100.0 %
Test CRC 37814A2A
Copy CRC 37814A2A
Accurately ripped (confidence 7) [A17B5F85] (AR v2)
Copy OK

Track 13

Filename M:\_EAC\Charlie Parker - Retrospective 1940-1953 (2005) [FLAC] {3CDs Set Saga}\CD1 - 1940-1947\13 - Billie's Bounce.wav

Pre-gap length 0:00:01.03

Peak level 85.6 %
Extraction speed 2.0 X
Track quality 100.0 %
Test CRC 4EAA443E
Copy CRC 4EAA443E
Accurately ripped (confidence 7) [87FF6FEF] (AR v2)
Copy OK

Track 14

Filename M:\_EAC\Charlie Parker - Retrospective 1940-1953 (2005) [FLAC] {3CDs Set Saga}\CD1 - 1940-1947\14 - Ko Ko.wav

Pre-gap length 0:00:00.68

Peak level 92.6 %
Extraction speed 1.7 X
Track quality 99.9 %
Test CRC 0832664A
Copy CRC 0832664A
Accurately ripped (confidence 7) [0BFF7C91] (AR v2)
Copy OK

Track 15

Filename M:\_EAC\Charlie Parker - Retrospective 1940-1953 (2005) [FLAC] {3CDs Set Saga}\CD1 - 1940-1947\15 - Slim's Jam.wav

Pre-gap length 0:00:00.73

Peak level 86.6 %
Extraction speed 2.1 X
Track quality 100.0 %
Test CRC B995E982
Copy CRC B995E982
Accurately ripped (confidence 7) [C5867E71] (AR v2)
Copy OK

Track 16

Filename M:\_EAC\Charlie Parker - Retrospective 1940-1953 (2005) [FLAC] {3CDs Set Saga}\CD1 - 1940-1947\16 - Yardbird Suite.wav

Pre-gap length 0:00:01.07

Peak level 81.9 %
Extraction speed 2.2 X
Track quality 100.0 %
Test CRC 99A785A7
Copy CRC 99A785A7
Accurately ripped (confidence 7) [1DAAEA18] (AR v2)
Copy OK

Track 17

Filename M:\_EAC\Charlie Parker - Retrospective 1940-1953 (2005) [FLAC] {3CDs Set Saga}\CD1 - 1940-1947\17 - Ornithology.wav

Peak level 81.6 %
Extraction speed 2.2 X
Track quality 100.0 %
Test CRC 8EF12697
Copy CRC 8EF12697
Accurately ripped (confidence 7) [FF3FBED7] (AR v2)
Copy OK

Track 18

Filename M:\_EAC\Charlie Parker - Retrospective 1940-1953 (2005) [FLAC] {3CDs Set Saga}\CD1 - 1940-1947\18 - A Night In Tunisia.wav

Pre-gap length 0:00:01.02

Peak level 96.5 %
Extraction speed 2.3 X
Track quality 100.0 %
Test CRC 6D7DB796
Copy CRC 6D7DB796
Accurately ripped (confidence 7) [D4F8EA85] (AR v2)
Copy OK

Track 19

Filename M:\_EAC\Charlie Parker - Retrospective 1940-1953 (2005) [FLAC] {3CDs Set Saga}\CD1 - 1940-1947\19 - The Famous Alto Break.wav

Peak level 92.3 %
Extraction speed 1.5 X
Track quality 100.0 %
Test CRC 70D63742
Copy CRC 70D63742
Accurately ripped (confidence 7) [798A5F44] (AR v2)
Copy OK

Track 20

Filename M:\_EAC\Charlie Parker - Retrospective 1940-1953 (2005) [FLAC] {3CDs Set Saga}\CD1 - 1940-1947\20 - Cool Blues.wav

Pre-gap length 0:00:00.73

Peak level 88.0 %
Extraction speed 2.3 X
Track quality 100.0 %
Test CRC A188D44A
Copy CRC A188D44A
Accurately ripped (confidence 7) [51FCCC3A] (AR v2)
Copy OK

Track 21

Filename M:\_EAC\Charlie Parker - Retrospective 1940-1953 (2005) [FLAC] {3CDs Set Saga}\CD1 - 1940-1947\21 - Bird's Nest.wav

Peak level 85.1 %
Extraction speed 2.3 X
Track quality 100.0 %
Test CRC 13B153A1
Copy CRC 13B153A1
Accurately ripped (confidence 7) [2CF0BC85] (AR v2)
Copy OK

Track 22

Filename M:\_EAC\Charlie Parker - Retrospective 1940-1953 (2005) [FLAC] {3CDs Set Saga}\CD1 - 1940-1947\22 - Relaxin' At Camarillo.wav

Pre-gap length 0:00:00.73

Peak level 82.3 %
Extraction speed 2.4 X
Track quality 100.0 %
Test CRC 7AF1F7EB
Copy CRC 7AF1F7EB
Accurately ripped (confidence 7) [7CD26B3A] (AR v2)
Copy OK

Track 23

Filename M:\_EAC\Charlie Parker - Retrospective 1940-1953 (2005) [FLAC] {3CDs Set Saga}\CD1 - 1940-1947\23 - Chasin' The Bird.wav

Pre-gap length 0:00:00.68

Peak level 75.2 %
Extraction speed 2.4 X
Track quality 100.0 %
Test CRC 861900EF
Copy CRC 861900EF
Accurately ripped (confidence 7) [ABD65553] (AR v2)
Copy OK

Track 24

Filename M:\_EAC\Charlie Parker - Retrospective 1940-1953 (2005) [FLAC] {3CDs Set Saga}\CD1 - 1940-1947\24 - Honeysuckle Rose - Body And Soul.wav

Pre-gap length 0:00:02.63

Peak level 99.1 %
Extraction speed 2.2 X
Track quality 99.9 %
Test CRC 54DC01C2
Copy CRC 54DC01C2
Accurately ripped (confidence 7) [83673D34] (AR v2)
Copy OK


All tracks accurately ripped

No errors occurred

End of status report

==== Log checksum 32130D985C837C6DFA5176EF969FA0D9A77188FFCF272208897F8E061DAB5DF2 ====

Exact Audio Copy V1.1 from 23. June 2015

EAC extraction logfile from 11. January 2016, 23:36

Charlie Parker / Retrospective 1940-1953 (CD2 - 1947-1951)

Used drive : TSSTcorpCDDVDW SE-208DB Adapter: 7 ID: 0

Read mode : Secure
Utilize accurate stream : Yes
Defeat audio cache : Yes
Make use of C2 pointers : No

Read offset correction : 6
Overread into Lead-In and Lead-Out : No
Fill up missing offset samples with silence : Yes
Delete leading and trailing silent blocks : No
Null samples used in CRC calculations : Yes
Used interface : Installed external ASPI interface
Gap handling : Appended to previous track

Used output format : User Defined Encoder
Selected bitrate : 1024 kBit/s
Quality : High
Add ID3 tag : No
Command line compressor : C:\Program Files (x86)\FLAC Frontend\tools\flac.exe
Additional command line options : -8 -V -T "ARTIST=%artist%" -T "TITLE=%title%" -T "ALBUM=%albumtitle%" -T "DATE=%year%" -T "TRACKNUMBER=%tracknr%" -T "TOTALTRACKS=%numtracks%" -T "GENRE=%genre%" -T "ALBUMARTIST=%albumartist%" -T "ALBUM ARTIST=%albumartist%" -T "COMMENT=EAC Secure Mode, Test & Copy, AccurateRip, FLAC -8" %source%


TOC of the extracted CD

Track | Start | Length | Start sector | End sector
––––––––––––––––––––––––––––-
1 | 0:00.00 | 2:36.31 | 0 | 11730
2 | 2:36.31 | 2:37.29 | 11731 | 23534
3 | 5:13.60 | 2:51.52 | 23535 | 36411
4 | 8:05.37 | 2:30.41 | 36412 | 47702
5 | 10:36.03 | 3:02.24 | 47703 | 61376
6 | 13:38.27 | 3:15.26 | 61377 | 76027
7 | 16:53.53 | 2:50.07 | 76028 | 88784
8 | 19:43.60 | 3:08.27 | 88785 | 102911
9 | 22:52.12 | 3:33.59 | 102912 | 118945
10 | 26:25.71 | 2:42.34 | 118946 | 131129
11 | 29:08.30 | 2:29.64 | 131130 | 142368
12 | 31:38.19 | 2:57.25 | 142369 | 155668
13 | 34:35.44 | 3:05.41 | 155669 | 169584
14 | 37:41.10 | 2:34.56 | 169585 | 181190
15 | 40:15.66 | 2:45.11 | 181191 | 193576
16 | 43:01.02 | 3:03.64 | 193577 | 207365
17 | 46:04.66 | 3:09.13 | 207366 | 221553
18 | 49:14.04 | 3:27.19 | 221554 | 237097
19 | 52:41.23 | 2:33.55 | 237098 | 248627
20 | 55:15.03 | 3:12.72 | 248628 | 263099
21 | 58:28.00 | 2:49.39 | 263100 | 275813
22 | 61:17.39 | 3:37.14 | 275814 | 292102
23 | 64:54.53 | 3:07.55 | 292103 | 306182
24 | 68:02.33 | 3:24.64 | 306183 | 321546


Track 1

Filename M:\_EAC\Charlie Parker - Retrospective 1940-1953 (2005) [FLAC] {3CDs Set Saga}\CD2 - 1947-1951\01 - Donna Lee.wav

Pre-gap length 0:00:02.00

Peak level 93.3 %
Extraction speed 1.1 X
Track quality 100.0 %
Test CRC E4175544
Copy CRC E4175544
Accurately ripped (confidence 5) [051EB905] (AR v2)
Copy OK

Track 2

Filename M:\_EAC\Charlie Parker - Retrospective 1940-1953 (2005) [FLAC] {3CDs Set Saga}\CD2 - 1947-1951\02 - Milestones.wav

Peak level 55.0 %
Extraction speed 1.0 X
Track quality 99.9 %
Test CRC 4DA7A88E
Copy CRC 4DA7A88E
Accurately ripped (confidence 5) [8C360533] (AR v2)
Copy OK

Track 3

Filename M:\_EAC\Charlie Parker - Retrospective 1940-1953 (2005) [FLAC] {3CDs Set Saga}\CD2 - 1947-1951\03 - Little Willie Leaps.wav

Peak level 54.3 %
Extraction speed 1.3 X
Track quality 100.0 %
Test CRC 9B7B66C1
Copy CRC 9B7B66C1
Accurately ripped (confidence 6) [2D869C5B] (AR v2)
Copy OK

Track 4

Filename M:\_EAC\Charlie Parker - Retrospective 1940-1953 (2005) [FLAC] {3CDs Set Saga}\CD2 - 1947-1951\04 - The Hymn.wav

Peak level 70.9 %
Extraction speed 1.3 X
Track quality 100.0 %
Test CRC 603B0D03
Copy CRC 603B0D03
Accurately ripped (confidence 6) [C4DDD3A2] (AR v2)
Copy OK

Track 5

Filename M:\_EAC\Charlie Parker - Retrospective 1940-1953 (2005) [FLAC] {3CDs Set Saga}\CD2 - 1947-1951\05 - Scrapple From The Apple.wav

Pre-gap length 0:00:00.65

Peak level 86.4 %
Extraction speed 1.5 X
Track quality 100.0 %
Test CRC AFA31AC8
Copy CRC AFA31AC8
Accurately ripped (confidence 6) [F1E199E2] (AR v2)
Copy OK

Track 6

Filename M:\_EAC\Charlie Parker - Retrospective 1940-1953 (2005) [FLAC] {3CDs Set Saga}\CD2 - 1947-1951\06 - My Old Fame.wav

Pre-gap length 0:00:01.63

Peak level 77.6 %
Extraction speed 1.6 X
Track quality 100.0 %
Test CRC 9B083E52
Copy CRC 9B083E52
Accurately ripped (confidence 6) [0264ED4F] (AR v2)
Copy OK

Track 7

Filename M:\_EAC\Charlie Parker - Retrospective 1940-1953 (2005) [FLAC] {3CDs Set Saga}\CD2 - 1947-1951\07 - Don't Blame Me.wav

Pre-gap length 0:00:00.69

Peak level 86.8 %
Extraction speed 1.6 X
Track quality 100.0 %
Test CRC 73B52FF8
Copy CRC 73B52FF8
Accurately ripped (confidence 6) [5B6582EF] (AR v2)
Copy OK

Track 8

Filename M:\_EAC\Charlie Parker - Retrospective 1940-1953 (2005) [FLAC] {3CDs Set Saga}\CD2 - 1947-1951\08 - Bongo Beep.wav

Peak level 95.4 %
Extraction speed 1.7 X
Track quality 100.0 %
Test CRC C3574903
Copy CRC C3574903
Accurately ripped (confidence 6) [5827D0C5] (AR v2)
Copy OK

Track 9

Filename M:\_EAC\Charlie Parker - Retrospective 1940-1953 (2005) [FLAC] {3CDs Set Saga}\CD2 - 1947-1951\09 - How Deep Is The Ocean.wav

Pre-gap length 0:00:01.62

Peak level 73.1 %
Extraction speed 1.5 X
Track quality 99.9 %
Test CRC 1C5A7AC6
Copy CRC 1C5A7AC6
Accurately ripped (confidence 6) [9DF48D2E] (AR v2)
Copy OK

Track 10

Filename M:\_EAC\Charlie Parker - Retrospective 1940-1953 (2005) [FLAC] {3CDs Set Saga}\CD2 - 1947-1951\10 - Bird Gets The Worm.wav

Pre-gap length 0:00:01.70

Peak level 82.4 %
Extraction speed 1.8 X
Track quality 100.0 %
Test CRC 447BD7A2
Copy CRC 447BD7A2
Accurately ripped (confidence 6) [3C3CF55B] (AR v2)
Copy OK

Track 11

Filename M:\_EAC\Charlie Parker - Retrospective 1940-1953 (2005) [FLAC] {3CDs Set Saga}\CD2 - 1947-1951\11 - Barbados.wav

Peak level 90.2 %
Extraction speed 1.8 X
Track quality 100.0 %
Test CRC 103FCCA3
Copy CRC 103FCCA3
Accurately ripped (confidence 6) [E744B73B] (AR v2)
Copy OK

Track 12

Filename M:\_EAC\Charlie Parker - Retrospective 1940-1953 (2005) [FLAC] {3CDs Set Saga}\CD2 - 1947-1951\12 - Ah-Leu-Cha.wav

Peak level 90.8 %
Extraction speed 1.9 X
Track quality 100.0 %
Test CRC 2A120F23
Copy CRC 2A120F23
Accurately ripped (confidence 6) [351C01FE] (AR v2)
Copy OK

Track 13

Filename M:\_EAC\Charlie Parker - Retrospective 1940-1953 (2005) [FLAC] {3CDs Set Saga}\CD2 - 1947-1951\13 - Parker's Mood.wav

Peak level 76.3 %
Extraction speed 1.9 X
Track quality 100.0 %
Test CRC 063F95AF
Copy CRC 063F95AF
Accurately ripped (confidence 6) [C87FF6B7] (AR v2)
Copy OK

Track 14

Filename M:\_EAC\Charlie Parker - Retrospective 1940-1953 (2005) [FLAC] {3CDs Set Saga}\CD2 - 1947-1951\14 - Perhaps.wav

Pre-gap length 0:00:00.61

Peak level 69.7 %
Extraction speed 1.9 X
Track quality 100.0 %
Test CRC D2E4E431
Copy CRC D2E4E431
Accurately ripped (confidence 6) [C8A3F150] (AR v2)
Copy OK

Track 15

Filename M:\_EAC\Charlie Parker - Retrospective 1940-1953 (2005) [FLAC] {3CDs Set Saga}\CD2 - 1947-1951\15 - Marmaduke.wav

Peak level 72.4 %
Extraction speed 2.0 X
Track quality 100.0 %
Test CRC C7AB4529
Copy CRC C7AB4529
Accurately ripped (confidence 6) [7DEA5CA2] (AR v2)
Copy OK

Track 16

Filename M:\_EAC\Charlie Parker - Retrospective 1940-1953 (2005) [FLAC] {3CDs Set Saga}\CD2 - 1947-1951\16 - Visa.wav

Peak level 93.3 %
Extraction speed 2.1 X
Track quality 100.0 %
Test CRC 00BA9E9C
Copy CRC 00BA9E9C
Accurately ripped (confidence 6) [B4613E5D] (AR v2)
Copy OK

Track 17

Filename M:\_EAC\Charlie Parker - Retrospective 1940-1953 (2005) [FLAC] {3CDs Set Saga}\CD2 - 1947-1951\17 - April In Paris.wav

Pre-gap length 0:00:02.71

Peak level 62.7 %
Extraction speed 2.1 X
Track quality 100.0 %
Test CRC 95DDE476
Copy CRC 95DDE476
Accurately ripped (confidence 6) [D20A2FD9] (AR v2)
Copy OK

Track 18

Filename M:\_EAC\Charlie Parker - Retrospective 1940-1953 (2005) [FLAC] {3CDs Set Saga}\CD2 - 1947-1951\18 - Bloomdido.wav

Pre-gap length 0:00:01.63

Peak level 90.4 %
Extraction speed 2.2 X
Track quality 100.0 %
Test CRC 11BB6D07
Copy CRC 11BB6D07
Accurately ripped (confidence 6) [FD0B94F7] (AR v2)
Copy OK

Track 19

Filename M:\_EAC\Charlie Parker - Retrospective 1940-1953 (2005) [FLAC] {3CDs Set Saga}\CD2 - 1947-1951\19 - Leap Frog.wav

Peak level 75.4 %
Extraction speed 2.1 X
Track quality 100.0 %
Test CRC 80B89C7A
Copy CRC 80B89C7A
Accurately ripped (confidence 6) [810BD40D] (AR v2)
Copy OK

Track 20

Filename M:\_EAC\Charlie Parker - Retrospective 1940-1953 (2005) [FLAC] {3CDs Set Saga}\CD2 - 1947-1951\20 - Out Of Nowhere.wav

Pre-gap length 0:00:01.56

Peak level 85.0 %
Extraction speed 2.3 X
Track quality 100.0 %
Test CRC 97686F56
Copy CRC 97686F56
Accurately ripped (confidence 6) [60FB3BA1] (AR v2)
Copy OK

Track 21

Filename M:\_EAC\Charlie Parker - Retrospective 1940-1953 (2005) [FLAC] {3CDs Set Saga}\CD2 - 1947-1951\21 - Au Privave.wav

Pre-gap length 0:00:00.62

Peak level 87.0 %
Extraction speed 2.3 X
Track quality 100.0 %
Test CRC D5A3FF68
Copy CRC D5A3FF68
Accurately ripped (confidence 6) [848D0DBB] (AR v2)
Copy OK

Track 22

Filename M:\_EAC\Charlie Parker - Retrospective 1940-1953 (2005) [FLAC] {3CDs Set Saga}\CD2 - 1947-1951\22 - Star Eyes.wav

Peak level 97.1 %
Extraction speed 2.4 X
Track quality 100.0 %
Test CRC BC56B011
Copy CRC BC56B011
Accurately ripped (confidence 6) [32EB7238] (AR v2)
Copy OK

Track 23

Filename M:\_EAC\Charlie Parker - Retrospective 1940-1953 (2005) [FLAC] {3CDs Set Saga}\CD2 - 1947-1951\23 - My Little Suede Shoes.wav

Peak level 85.7 %
Extraction speed 2.4 X
Track quality 100.0 %
Test CRC C850802D
Copy CRC C850802D
Accurately ripped (confidence 6) [A0296220] (AR v2)
Copy OK

Track 24

Filename M:\_EAC\Charlie Parker - Retrospective 1940-1953 (2005) [FLAC] {3CDs Set Saga}\CD2 - 1947-1951\24 - Lover Man.wav

Pre-gap length 0:00:01.62

Peak level 94.7 %
Extraction speed 2.1 X
Track quality 99.9 %
Test CRC 598F939B
Copy CRC 598F939B
Accurately ripped (confidence 6) [9E6B2B54] (AR v2)
Copy OK


All tracks accurately ripped

No errors occurred

End of status report

==== Log checksum DB225A15B90A1D028420BEB59E191D6B6CAF2DB21C0FFF028C6A5B346383D0F6 ====

Exact Audio Copy V1.1 from 23. June 2015

EAC extraction logfile from 12. January 2016, 2:00

Charlie Parker / Retrospective 1940-1953 (CD3 - 1947-1953 - Broadcasts And Live)

Used drive : TSSTcorpCDDVDW SE-208DB Adapter: 7 ID: 0

Read mode : Secure
Utilize accurate stream : Yes
Defeat audio cache : Yes
Make use of C2 pointers : No

Read offset correction : 6
Overread into Lead-In and Lead-Out : No
Fill up missing offset samples with silence : Yes
Delete leading and trailing silent blocks : No
Null samples used in CRC calculations : Yes
Used interface : Installed external ASPI interface
Gap handling : Appended to previous track

Used output format : User Defined Encoder
Selected bitrate : 1024 kBit/s
Quality : High
Add ID3 tag : No
Command line compressor : C:\Program Files (x86)\FLAC Frontend\tools\flac.exe
Additional command line options : -8 -V -T "ARTIST=%artist%" -T "TITLE=%title%" -T "ALBUM=%albumtitle%" -T "DATE=%year%" -T "TRACKNUMBER=%tracknr%" -T "TOTALTRACKS=%numtracks%" -T "GENRE=%genre%" -T "ALBUMARTIST=%albumartist%" -T "ALBUM ARTIST=%albumartist%" -T "COMMENT=EAC Secure Mode, Test & Copy, AccurateRip, FLAC -8" %source%


TOC of the extracted CD

Track | Start | Length | Start sector | End sector
––––––––––––––––––––––––––––-
1 | 0:00.00 | 4:16.52 | 0 | 19251
2 | 4:16.52 | 4:31.43 | 19252 | 39619
3 | 8:48.20 | 4:44.51 | 39620 | 60970
4 | 13:32.71 | 3:40.23 | 60971 | 77493
5 | 17:13.19 | 6:36.28 | 77494 | 107221
6 | 23:49.47 | 5:06.44 | 107222 | 130215
7 | 28:56.16 | 6:13.35 | 130216 | 158225
8 | 35:09.51 | 7:30.67 | 158226 | 192042
9 | 42:40.43 | 5:52.26 | 192043 | 218468
10 | 48:32.69 | 3:21.00 | 218469 | 233543
11 | 51:53.69 | 4:29.57 | 233544 | 253775
12 | 56:23.51 | 5:29.67 | 253776 | 278517
13 | 61:53.43 | 7:45.52 | 278518 | 313444
14 | 69:39.20 | 6:48.52 | 313445 | 344096


Track 1

Filename M:\_EAC\Charlie Parker - Retrospective 1940-1953 (2005) [FLAC] {3CDs Set Saga}\CD3 - 1947-1953 - Broadcasts and Live\01 - Ko Ko.wav

Pre-gap length 0:00:02.00

Peak level 91.1 %
Extraction speed 3.0 X
Track quality 100.0 %
Test CRC 06FC7DA7
Copy CRC 06FC7DA7
Accurately ripped (confidence 6) [EB11C863] (AR v2)
Copy OK

Track 2

Filename M:\_EAC\Charlie Parker - Retrospective 1940-1953 (2005) [FLAC] {3CDs Set Saga}\CD3 - 1947-1953 - Broadcasts and Live\02 - Hot House.wav

Peak level 85.9 %
Extraction speed 2.7 X
Track quality 99.9 %
Test CRC 9C5E6B0E
Copy CRC 9C5E6B0E
Accurately ripped (confidence 6) [F0E889A6] (AR v2)
Copy OK

Track 3

Filename M:\_EAC\Charlie Parker - Retrospective 1940-1953 (2005) [FLAC] {3CDs Set Saga}\CD3 - 1947-1953 - Broadcasts and Live\03 - On A Slow Boat To China.wav

Peak level 82.6 %
Extraction speed 3.6 X
Track quality 100.0 %
Test CRC 3F02CEB0
Copy CRC 3F02CEB0
Accurately ripped (confidence 6) [005BD71F] (AR v2)
Copy OK

Track 4

Filename M:\_EAC\Charlie Parker - Retrospective 1940-1953 (2005) [FLAC] {3CDs Set Saga}\CD3 - 1947-1953 - Broadcasts and Live\04 - Confirmation.wav

Pre-gap length 0:00:01.64

Peak level 75.5 %
Extraction speed 3.7 X
Track quality 100.0 %
Test CRC 295C5BB7
Copy CRC 295C5BB7
Accurately ripped (confidence 6) [84681258] (AR v2)
Copy OK

Track 5

Filename M:\_EAC\Charlie Parker - Retrospective 1940-1953 (2005) [FLAC] {3CDs Set Saga}\CD3 - 1947-1953 - Broadcasts and Live\05 - Embraceable You.wav

Pre-gap length 0:00:01.70

Peak level 66.1 %
Extraction speed 3.7 X
Track quality 99.9 %
Test CRC C902C8B1
Copy CRC C902C8B1
Accurately ripped (confidence 6) [51A0B80D] (AR v2)
Copy OK

Track 6

Filename M:\_EAC\Charlie Parker - Retrospective 1940-1953 (2005) [FLAC] {3CDs Set Saga}\CD3 - 1947-1953 - Broadcasts and Live\06 - Cheryl.wav

Pre-gap length 0:00:01.60

Peak level 95.9 %
Extraction speed 4.4 X
Track quality 100.0 %
Test CRC 655358FB
Copy CRC 655358FB
Accurately ripped (confidence 6) [54AC21BC] (AR v2)
Copy OK

Track 7

Filename M:\_EAC\Charlie Parker - Retrospective 1940-1953 (2005) [FLAC] {3CDs Set Saga}\CD3 - 1947-1953 - Broadcasts and Live\07 - Bird Of Paradise.wav

Peak level 96.7 %
Extraction speed 4.1 X
Track quality 99.9 %
Test CRC 81C4B78F
Copy CRC 81C4B78F
Accurately ripped (confidence 6) [1B041355] (AR v2)
Copy OK

Track 8

Filename M:\_EAC\Charlie Parker - Retrospective 1940-1953 (2005) [FLAC] {3CDs Set Saga}\CD3 - 1947-1953 - Broadcasts and Live\08 - Blue 'n' Boogie.wav

Pre-gap length 0:00:01.63

Peak level 80.1 %
Extraction speed 5.2 X
Track quality 100.0 %
Test CRC 9A81C6A5
Copy CRC 9A81C6A5
Accurately ripped (confidence 6) [B73ACAAB] (AR v2)
Copy OK

Track 9

Filename M:\_EAC\Charlie Parker - Retrospective 1940-1953 (2005) [FLAC] {3CDs Set Saga}\CD3 - 1947-1953 - Broadcasts and Live\09 - Anthropology.wav

Peak level 66.9 %
Extraction speed 5.3 X
Track quality 100.0 %
Test CRC 65715D98
Copy CRC 65715D98
Accurately ripped (confidence 6) [0D1948DF] (AR v2)
Copy OK

Track 10

Filename M:\_EAC\Charlie Parker - Retrospective 1940-1953 (2005) [FLAC] {3CDs Set Saga}\CD3 - 1947-1953 - Broadcasts and Live\10 - 'Round Midnight.wav

Peak level 53.3 %
Extraction speed 5.1 X
Track quality 100.0 %
Test CRC DDBE4A8F
Copy CRC DDBE4A8F
Accurately ripped (confidence 6) [F027FE46] (AR v2)
Copy OK

Track 11

Filename M:\_EAC\Charlie Parker - Retrospective 1940-1953 (2005) [FLAC] {3CDs Set Saga}\CD3 - 1947-1953 - Broadcasts and Live\11 - Lester Leaps In.wav

Pre-gap length 0:00:01.68

Peak level 53.1 %
Extraction speed 5.4 X
Track quality 100.0 %
Test CRC F8A26849
Copy CRC F8A26849
Accurately ripped (confidence 6) [82FEFE9C] (AR v2)
Copy OK

Track 12

Filename M:\_EAC\Charlie Parker - Retrospective 1940-1953 (2005) [FLAC] {3CDs Set Saga}\CD3 - 1947-1953 - Broadcasts and Live\12 - Cool Blues.wav

Peak level 76.1 %
Extraction speed 5.7 X
Track quality 100.0 %
Test CRC 61227416
Copy CRC 61227416
Accurately ripped (confidence 6) [80FE504A] (AR v2)
Copy OK

Track 13

Filename M:\_EAC\Charlie Parker - Retrospective 1940-1953 (2005) [FLAC] {3CDs Set Saga}\CD3 - 1947-1953 - Broadcasts and Live\13 - Salt Peanuts.wav

Pre-gap length 0:00:01.57

Peak level 81.1 %
Extraction speed 6.2 X
Track quality 100.0 %
Test CRC 42ED1D88
Copy CRC 42ED1D88
Accurately ripped (confidence 6) [D6F40A1E] (AR v2)
Copy OK

Track 14

Filename M:\_EAC\Charlie Parker - Retrospective 1940-1953 (2005) [FLAC] {3CDs Set Saga}\CD3 - 1947-1953 - Broadcasts and Live\14 - Wee.wav

Peak level 87.4 %
Extraction speed 5.4 X
Track quality 99.9 %
Test CRC 7252BA16
Copy CRC 7252BA16
Accurately ripped (confidence 5) [F2CD99E9] (AR v2)
Copy OK


All tracks accurately ripped

No errors occurred

End of status report

==== Log checksum 012FA9B1071C5CABD753AC3E13695CBFF00B01B326FA148CF9F7DD2794E62DBE ====


Charlie Parker - Retrospective 1940-1953 (2005) {3CDs Set Saga}



===