Tags
Language
Tags

Charlie Parker - The Complete Savoy Studio Sessions (1988) {Savoy, 3CD, ZDS 5500-1~3, Rare Early Press rec 1944-1948}

Posted By: ruskaval
Charlie Parker - The Complete Savoy Studio Sessions (1988) {Savoy, 3CD, ZDS 5500-1~3, Rare Early Press rec 1944-1948}

Charlie Parker - The Complete Savoy Studio Sessions (1988) {Savoy, 3CD, ZDS 5500-1~3, Rare Early Press rec 1944-1948}
EAC rip (secure mode) | FLAC (tracks)+CUE+LOG -> 839 Mb | MP3 @320 -> 493 Mb
Full Artwork @ 600 dpi (png) -> 1.18 Gb | 5% repair rar
© 1944-48, 1988 Savoy Jazz / SJ Records | ZDS 5500-1~3 | Rare
Jazz / Bop / Alto Saxophone

This three-CD box set contains all of the recordings Charlie Parker made for the Savoy label and it is overflowing with gems and an almost countless number of alternate takes. Bird was one of the most important jazzmen of all time and nearly every note he recorded (in the studios if not live) is well worth hearing. This box starts off with his sideman date with Tiny Grimes in 1944, contains Parker's famous "Ko Ko" session of 1945 (with a young Miles Davis on trumpet and highlighted by "Now's the Time" and "Billie's Bounce"), and continues through his 1947-1948 quintet sessions with a more mature Miles Davis; either Bud Powell, John Lewis, or Duke Jordan on piano; bassists Tommy Potter, Curly Russell, or Nelson Boyd; and drummer Max Roach. Together they recorded such classics as "Donna Lee," "Chasin' the Bird," "Milestones," and "Parker's Mood." Every scrap that the great altoist cut for Savoy is in this box.
Charlie Parker - The Complete Savoy Studio Sessions (1988) {Savoy, 3CD, ZDS 5500-1~3, Rare Early Press rec 1944-1948}


Personnel:

*1 1944/09/15 Tiny Grimes Quintet Savoy Rec., 'WOR Recording Studios', NYC
Tiny Grimes (g); Charlie Parker (as); Clyde Hart (p); Jimmy Butts (b); Harold West (ds).

*2 1945/11/26 Charlie Parker's Reboppers Savoy Rec. WOR Rec. studios, NYC
Charlie Parker (as); Miles Davis (tp); Dizzy Gillespie (tp, p); Sadik Hakim (p); Curly Russell (b); Max Roach (ds).

*3 1947/05/08 Charlie Parker Quintet Savoy records, 'Harry Smith Studios', NYC
Charlie Parker (as); Miles Davis (tp); Bud Powell (p); Tommy Potter (b); Max Roach (ds).

*4 1947/08/14 Miles Davis All-Stars Savoy records, 'Harry Smith Studios', NYC
Miles Davis (tp); Charlie Parker (ts); John Lewis (p); Nelson Boyd (b); Max Roach (ds).

*5 1947/12/21 Charlie Parker Quintet Savoy Records, 'United Sound Studios', Detroit
Charlie Parker (as); Miles Davis (tp); Duke Jordan (p); Tommy Potter (b); Max Roach (ds).

*6 1948/09/18 Charlie Parker All-Stars Savoy Records, 'Harry Smith Studios', NYC
Charlie Parker (as); Miles Davis (tp); John Lewis (p) ; Curly Russell (b); Max Roach (ds).

*7 1948/09/24 Charlie Parker All-Stars Savoy Records, 'Harry Smith Studios', NYC
Charlie Parker (as); Miles Davis (tp); John Lewis (p); Curly Russell (b); Max Roach (ds).

Charlie Parker - The Complete Savoy Studio Sessions (1988) {Savoy, 3CD, ZDS 5500-1~3, Rare Early Press rec 1944-1948}


Track Listing

Disc 1


1. Tiny's Tempo (T. Grimes) [take 1] 3:00 *1
2. Tiny's Tempo (T. Grimes) [take 2] 2:59 *1
3. Tiny's Tempo (T. Grimes) [take 3 (master)] 2:53 *1
4. I'll Always Love You Just the Same (Unknown) [take 1] 0:04 *1
- I'll Always Love You Just the Same (Unknown) [take 2] 2:57 *1
5. I'll Always Love You Just the Same (Unknown) [take 3 (master)] 3:00 *1
6. Romance without Finance (T. Grimes) [take 1] 3:06 *1
7. Romance without Finance (T. Grimes) [take 2 (i.t)] 1:01 *1
8. Romance without Finance (T. Grimes) [take 3] 3:04 *1
9. Romance without Finance (T. Grimes) [take 4 (i.t)] 0:43 *1
10. Romance without Finance (T. Grimes) [take 5 (master)] 3:00 *1
11. Red Cross (C. Parker) [take 1] 3:16 *1
12. Red Cross (C. Parker) [take 2 (master)] 3:07 *1
13. Warming Up a Riff (D. Gillespie-C. Parker) [Cherokee] [i.t] 2:33 *2
14. Billie's Bounce (C. Parker) [take 1] 2:39 *2
15. Billie's Bounce (C. Parker) [take 2 (i.t)] 1:42 *2
16. Billie's Bounce (C. Parker) [take 3] 3:04 *2
17. Billie's Bounce (C. Parker) [take 4 (i.t)] 1:37 *2
18. Billie's Bounce (C. Parker) [take 5 (master)] 3:08 *2
19. Now's the Time (C. Parker) [take 1 (f.s)] 0:19 *2
- Now's the Time (C. Parker) [take 2 (f.s)] 0:37 *2
20. Now's the Time (C. Parker) [take 3] 3:06 *2
21. Now's the Time (C. Parker) [take 4 (master)] 3:15 *2
22. Thriving on a Riff (D. Gillespie-C. Parker) [Anthropology] [take 1] 2:58 *2
23. Thriving on a Riff (D. Gillespie-C. Parker) [Anthropology] [take 2 (i.t)] 0:22 *2
24. Thriving on a Riff (D. Gillespie-C. Parker) [Anthropology] [take 3 (master)] 2:53 *2
25. Meandering (P. David) [Embraceable You] [i.t] 3:15 *2
26. Ko Ko (C. Parker) [take 1 (f.s)) [Cherokee] 0:38 *2
27. Ko Ko (C. Parker) [take 2 (master)] 2:53 *2

Charlie Parker - The Complete Savoy Studio Sessions (1988) {Savoy, 3CD, ZDS 5500-1~3, Rare Early Press rec 1944-1948}


Disc 2

1. Donna Lee (M. Davis) [take 1 (f.s)] 0:11 *3
- Donna Lee (M. Davis) [take 2] 2:58 *3
2. Donna Lee (M. Davis) [take 3] 2:29 *3
3. Donna Lee (M. Davis) [take 4] 2:34 *3
4. Donna Lee (M. Davis) [take 5 (master)] 2:30 *3
5. Chasin' the Bird (C. Parker) [take 1] 2:53) *3
6. Chasin' the Bird (C. Parker) [take 2 (f.s)] 0:18 *3
7. Chasin' the Bird (C. Parker) [take 3] 2:57 *3
8. Chasin' the Bird (C. Parker) [take 4 (master)] 2:42 *3
9. Cheryl (C. Parker) [take 1] 0:04 *3
10. Cheryl (C. Parker) [take 2 (master)] 2:55 *3
11. Buzzy (C. Parker) [take 1] 2:55 *3
12. Buzzy (C. Parker) [take 2 (i.t)] 0:32 *3
13. Buzzy (C. Parker) [take 3] 2:35 *3
14. Buzzy (C. Parker) [take 4 (i.t)] 0:19 *3
15. Buzzy (C. Parker) [take 5 (master)] 2:26 *3
16. Milestones (M. Davis) [take 1 (f.s)] 0:07 *4
17. Milestones (M. Davis) [take 2 (master)] 2:33 *4
18. Milestones (M. Davis) [take 3] 2:42 *4
19. Little Willie Leaps (M. Davis) [take 1 (i.t)] 0:46 *4
20. Little Willie Leaps (M. Davis) [take 2] 3:05 *4
21. Little Willie Leaps (M. Davis) [take 3 (master)] 2:48 *4
22. Half Nelson (M. Davis) [take 1] 2:47 *4
23. Half Nelson (M. Davis) [take 2 (master)] 2:41 *4
24. Sippin' at Bells (M. Davis) [take 1 (i.t)] 0:51 *4
25. Sippin' at Bells (M. Davis) [take 2 (master)] 2:20 *4
26. Sippin' at Bells (M. Davis) [take 3 (f.s)] 0:04 *4
27. Sippin' at Bells (M. Davis) [take 4] 2:24 *4
28. Another Hair-Do (C. Parker) [take 1 (i.t)] 0:13 *5
- Another Hair-Do (C. Parker) [take 2 (i.t)] 0:43 *5
- Another Hair-Do (C. Parker) [take 3 (i.t)] 1:03 *5
29 Another Hair-Do (C. Parker) [take 4 (master)] 2:36 *5
30. Bluebird (C. Parker) [take 1] 2:50 *5
31. Bluebird (C. Parker) [take 2] 0:03 *5
32. Bluebird (C. Parker) [take 3 (master)] 2:47 *5

Charlie Parker - The Complete Savoy Studio Sessions (1988) {Savoy, 3CD, ZDS 5500-1~3, Rare Early Press rec 1944-1948}


Disc 3

1. Klaunstance (C. Parker) [The Way You Look Tonight] 2:43 *5
2. Bird Gets the Worm (C. Parker) [Lover Come Back to Me] [take 1] 2:58 *5
3. Bird Gets the Worm (C. Parker) [Lover Come Back to Me] [take 2 (i.t)] 0:09 *5
4. Bird Gets the Worm (C. Parker) [Lover Come Back to Me] [take 3 (master)] 2:33 *5
5. Barbados (C. Parker) [take 1] 2:36 *6
6. Barbados (C. Parker) [take 2ЎЎ(i.t)] 0:44 *6
7. Barbados (C. Parker) [take 3] 2:33 *6
8. Barbados (C. Parker) [take 4 (master)] 2:27 *6
9. Ah-Leu-Cha (C. Parker) [take 1 (i.t)] 0:37 *6
10. Ah-Leu-Cha (C. Parker) [take 2 (master)] 2:52 *6
11. Constellation (C. Parker) [take 1 (i.t)] 0:21 *6
12. Constellation (C. Parker) [take 2] 2:30 *6
13. Constellation (C. Parker) [take 3 (i.t)] 2:05 *6
14. Constellation (C. Parker) [take 4 (i.t)] 0:21 *6
15. Constellation (C. Parker) [take 5 (master)] 2:25 *6
16. Parker's Mood (C. Parker) [take 1 (f.s)] 0:06 *6
17. Parker's Mood (C. Parker) [take 2] 3:25 *6
18. Parker's Mood (C. Parker) [take 3 (f.s)] 0:11 *6
- Parker's Mood (C. Parker) [take 4 (i.t)] 2:11 *6
19. Parker's Mood (C. Parker) [take 5 (master)] 3:01 *6
20. Perhaps (C. Parker) [take 1] 2:02 *7
21. Perhaps (C. Parker) [take 2 (i.t)] 0:26 *7
22. Perhaps (C. Parker) [take 3] 2:08 *7
23. Perhaps (C. Parker) [take 4 (i.t)] 0:19 *7
- Perhaps (C. Parker) [take 5 (i.t)] 0:46 *7
24. Perhaps (C. Parker) [take 6] 2:17 *7
25. Perhaps (C. Parker) [take 7 (master)] 2:32 *7
26. Marmaduke (C. Parker) [take 1 (f.s)] 0:03 *7
- Marmaduke (C. Parker) [take 2 (i.t)] 1:14 *7
- Marmaduke (C. Parker) [take 3 (i.t)] 0:51 *7
- Marmaduke (C. Parker) [take 4 (f.s)] 0:04 *7
27. Marmaduke (C. Parker) [take 5] 2:51 *7
28. Marmaduke (C. Parker) [take 6 (f.s)] 0:06 *7
- Marmaduke (C. Parker) [take 7 (i.t)] 1:00 *7
- Marmaduke (C. Parker) [take 8 (f.t)] 0:05 *7
29. Marmaduke (C. Parker) [take 9] 2:59 *7
30. Marmaduke (C. Parker) [take 10 (i.t)] 0:35 *7
- Marmaduke (C. Parker) [take 11 (i.t)] 0:47 *7
31. Marmaduke (C. Parker) [take 12 (master)] 2:44 *7
32. Steeplechase (C. Parker) [take 1 (f.s)] 0:07 *7
33. Steeplechase (C. Parker) [take 2 (master)] 3:02 *7
34. Merry-Go-Round (C. Parker) [take 1] 2:18 *7
35. Merry-Go-Round (C. Parker) [take 2 (master)] 2:24 *7

Charlie Parker - The Complete Savoy Studio Sessions (1988) {Savoy, 3CD, ZDS 5500-1~3, Rare Early Press rec 1944-1948}


Exact Audio Copy V1.0 beta 3 from 29. August 2011

EAC extraction logfile from 30. December 2016, 22:40

Charlie Parker / Complete Savoy Studio Sessions (Disc1)

Used drive : HL-DT-STDVDRAM GU70N Adapter: 0 ID: 0

Read mode : Secure
Utilize accurate stream : Yes
Defeat audio cache : Yes
Make use of C2 pointers : No

Read offset correction : 48
Overread into Lead-In and Lead-Out : No
Fill up missing offset samples with silence : Yes
Delete leading and trailing silent blocks : No
Null samples used in CRC calculations : Yes
Used interface : Native Win32 interface for Win NT & 2000
Gap handling : Appended to previous track

Used output format : User Defined Encoder
Selected bitrate : 128 kBit/s
Quality : High
Add ID3 tag : No
Command line compressor : C:\Program Files (x86)\Exact Audio Copy\Flac\flac.exe
Additional command line options : -8 -V -T "ARTIST=%artist%" -T "TITLE=%title%" -T "ALBUM=%albumtitle%" -T "DATE=%year%" -T "TRACKNUMBER=%tracknr%" -T "TOTALTRACKS=%numtracks%" -T "GENRE=%genre%" -T "ALBUMARTIST=%albumartist%" -T "ALBUM ARTIST=%albumartist%" -T "COMMENT=EAC Secure Mode, Test & Copy, AccurateRip, FLAC -8" %source%


TOC of the extracted CD

Track | Start | Length | Start sector | End sector
––––––––––––––––––––––––––––-
1 | 0:00.00 | 3:02.68 | 0 | 13717
2 | 3:02.68 | 3:02.50 | 13718 | 27417
3 | 6:05.43 | 2:55.72 | 27418 | 40614
4 | 9:01.40 | 3:04.55 | 40615 | 54469
5 | 12:06.20 | 3:02.05 | 54470 | 68124
6 | 15:08.25 | 3:07.38 | 68125 | 82187
7 | 18:15.63 | 1:03.35 | 82188 | 86947
8 | 19:19.23 | 3:06.27 | 86948 | 100924
9 | 22:25.50 | 0:46.03 | 100925 | 104377
10 | 23:11.53 | 3:02.47 | 104378 | 118074
11 | 26:14.25 | 3:19.10 | 118075 | 133009
12 | 29:33.35 | 3:10.30 | 133010 | 147289
13 | 32:43.65 | 2:42.38 | 147290 | 159477
14 | 35:26.28 | 1:43.40 | 159478 | 167242
15 | 37:09.68 | 3:06.35 | 167243 | 181227
16 | 40:16.28 | 2:35.32 | 181228 | 192884
17 | 42:51.60 | 1:40.30 | 192885 | 200414
18 | 44:32.15 | 3:11.30 | 200415 | 214769
19 | 47:43.45 | 0:58.43 | 214770 | 219162
20 | 48:42.13 | 3:09.30 | 219163 | 233367
21 | 51:51.43 | 3:18.15 | 233368 | 248232
22 | 55:09.58 | 3:02.72 | 248233 | 261954
23 | 58:12.55 | 0:24.25 | 261955 | 263779
24 | 58:37.05 | 2:57.08 | 263780 | 277062
25 | 61:34.13 | 3:18.15 | 277063 | 291927
26 | 64:52.28 | 0:40.25 | 291928 | 294952
27 | 65:32.53 | 2:55.05 | 294953 | 308082


Track 1

Filename F:\EAC\Charlie Parker - The Complete Savoy Sessions (1988) [FLAC] {Savoy, 3CD, ZDS 5500-1~3, Rare}\Disk1\01 - Tiny's Tempo (take 1).wav

Pre-gap length 0:00:02.00

Peak level 94.9 %
Extraction speed 1.0 X
Track quality 99.9 %
Test CRC 926C0E43
Copy CRC 926C0E43
Track not present in AccurateRip database
Copy OK

Track 2

Filename F:\EAC\Charlie Parker - The Complete Savoy Sessions (1988) [FLAC] {Savoy, 3CD, ZDS 5500-1~3, Rare}\Disk1\02 - Tiny's Tempo (take 2).wav

Pre-gap length 0:00:01.68

Peak level 86.0 %
Extraction speed 1.2 X
Track quality 100.0 %
Test CRC F22E22D8
Copy CRC F22E22D8
Track not present in AccurateRip database
Copy OK

Track 3

Filename F:\EAC\Charlie Parker - The Complete Savoy Sessions (1988) [FLAC] {Savoy, 3CD, ZDS 5500-1~3, Rare}\Disk1\03 - Tiny's Tempo (take 3).wav

Pre-gap length 0:00:02.13

Peak level 92.4 %
Extraction speed 1.1 X
Track quality 99.9 %
Test CRC 0AE7A81E
Copy CRC 0AE7A81E
Track not present in AccurateRip database
Copy OK

Track 4

Filename F:\EAC\Charlie Parker - The Complete Savoy Sessions (1988) [FLAC] {Savoy, 3CD, ZDS 5500-1~3, Rare}\Disk1\04 - I'll Always Love You Just The Same (takes 1 & 2).wav

Pre-gap length 0:00:02.02

Peak level 92.3 %
Extraction speed 1.4 X
Track quality 100.0 %
Test CRC 623186F0
Copy CRC 623186F0
Track not present in AccurateRip database
Copy OK

Track 5

Filename F:\EAC\Charlie Parker - The Complete Savoy Sessions (1988) [FLAC] {Savoy, 3CD, ZDS 5500-1~3, Rare}\Disk1\05 - I'll Always Love You Just The Same (take 3).wav

Pre-gap length 0:00:01.52

Peak level 79.6 %
Extraction speed 1.5 X
Track quality 100.0 %
Test CRC 64AF467E
Copy CRC 64AF467E
Track not present in AccurateRip database
Copy OK

Track 6

Filename F:\EAC\Charlie Parker - The Complete Savoy Sessions (1988) [FLAC] {Savoy, 3CD, ZDS 5500-1~3, Rare}\Disk1\06 - Romance Without Finance (take 1).wav

Pre-gap length 0:00:01.67

Peak level 95.1 %
Extraction speed 1.6 X
Track quality 100.0 %
Test CRC 412AB285
Copy CRC 412AB285
Track not present in AccurateRip database
Copy OK

Track 7

Filename F:\EAC\Charlie Parker - The Complete Savoy Sessions (1988) [FLAC] {Savoy, 3CD, ZDS 5500-1~3, Rare}\Disk1\07 - Romance Without Finance (take 2).wav

Pre-gap length 0:00:00.45

Peak level 73.5 %
Extraction speed 1.2 X
Track quality 100.0 %
Test CRC 4BAECED4
Copy CRC 4BAECED4
Track not present in AccurateRip database
Copy OK

Track 8

Filename F:\EAC\Charlie Parker - The Complete Savoy Sessions (1988) [FLAC] {Savoy, 3CD, ZDS 5500-1~3, Rare}\Disk1\08 - Romance Without Finance (take 3).wav

Pre-gap length 0:00:01.10

Peak level 92.8 %
Extraction speed 1.7 X
Track quality 100.0 %
Test CRC 9A2461A9
Copy CRC 9A2461A9
Track not present in AccurateRip database
Copy OK

Track 9

Filename F:\EAC\Charlie Parker - The Complete Savoy Sessions (1988) [FLAC] {Savoy, 3CD, ZDS 5500-1~3, Rare}\Disk1\09 - Romance Without Finance (take 4).wav

Pre-gap length 0:00:01.17

Peak level 93.2 %
Extraction speed 1.1 X
Track quality 100.0 %
Test CRC 31FA0B8E
Copy CRC 31FA0B8E
Track not present in AccurateRip database
Copy OK

Track 10

Filename F:\EAC\Charlie Parker - The Complete Savoy Sessions (1988) [FLAC] {Savoy, 3CD, ZDS 5500-1~3, Rare}\Disk1\10 - Romance Without Finance (take 5).wav

Pre-gap length 0:00:02.10

Peak level 90.0 %
Extraction speed 1.7 X
Track quality 100.0 %
Test CRC 935ED88B
Copy CRC 935ED88B
Track not present in AccurateRip database
Copy OK

Track 11

Filename F:\EAC\Charlie Parker - The Complete Savoy Sessions (1988) [FLAC] {Savoy, 3CD, ZDS 5500-1~3, Rare}\Disk1\11 - Red Cross (take 1).wav

Pre-gap length 0:00:02.15

Peak level 92.4 %
Extraction speed 1.9 X
Track quality 100.0 %
Test CRC 44DFE79E
Copy CRC 44DFE79E
Track not present in AccurateRip database
Copy OK

Track 12

Filename F:\EAC\Charlie Parker - The Complete Savoy Sessions (1988) [FLAC] {Savoy, 3CD, ZDS 5500-1~3, Rare}\Disk1\12 - Red Cross (take 2).wav

Pre-gap length 0:00:02.60

Peak level 83.7 %
Extraction speed 1.9 X
Track quality 100.0 %
Test CRC AD790BAC
Copy CRC AD790BAC
Track not present in AccurateRip database
Copy OK

Track 13

Filename F:\EAC\Charlie Parker - The Complete Savoy Sessions (1988) [FLAC] {Savoy, 3CD, ZDS 5500-1~3, Rare}\Disk1\13 - Billie's Bounce (take 1).wav

Pre-gap length 0:00:02.45

Peak level 98.0 %
Extraction speed 1.9 X
Track quality 100.0 %
Test CRC AB74E561
Copy CRC AB74E561
Track not present in AccurateRip database
Copy OK

Track 14

Filename F:\EAC\Charlie Parker - The Complete Savoy Sessions (1988) [FLAC] {Savoy, 3CD, ZDS 5500-1~3, Rare}\Disk1\14 - Billie's Bounce (take 2).wav

Pre-gap length 0:00:01.68

Peak level 100.0 %
Extraction speed 1.8 X
Track quality 100.0 %
Test CRC 9F22016E
Copy CRC 9F22016E
Track not present in AccurateRip database
Copy OK

Track 15

Filename F:\EAC\Charlie Parker - The Complete Savoy Sessions (1988) [FLAC] {Savoy, 3CD, ZDS 5500-1~3, Rare}\Disk1\15 - Billie's Bounce (take 3).wav

Pre-gap length 0:00:01.00

Peak level 100.0 %
Extraction speed 2.0 X
Track quality 100.0 %
Test CRC 318CB5C2
Copy CRC 318CB5C2
Track not present in AccurateRip database
Copy OK

Track 16

Filename F:\EAC\Charlie Parker - The Complete Savoy Sessions (1988) [FLAC] {Savoy, 3CD, ZDS 5500-1~3, Rare}\Disk1\16 - Warming Up A Riff.wav

Pre-gap length 0:00:02.25

Peak level 89.9 %
Extraction speed 2.0 X
Track quality 100.0 %
Test CRC 2B448E6C
Copy CRC 2B448E6C
Track not present in AccurateRip database
Copy OK

Track 17

Filename F:\EAC\Charlie Parker - The Complete Savoy Sessions (1988) [FLAC] {Savoy, 3CD, ZDS 5500-1~3, Rare}\Disk1\17 - Billie's Bounce (take 4).wav

Pre-gap length 0:00:02.17

Peak level 77.5 %
Extraction speed 1.9 X
Track quality 100.0 %
Test CRC 36FF725C
Copy CRC 36FF725C
Track not present in AccurateRip database
Copy OK

Track 18

Filename F:\EAC\Charlie Parker - The Complete Savoy Sessions (1988) [FLAC] {Savoy, 3CD, ZDS 5500-1~3, Rare}\Disk1\18 - Billie's Bounce (take 5).wav

Pre-gap length 0:00:05.70

Peak level 99.7 %
Extraction speed 2.2 X
Track quality 100.0 %
Test CRC 7001EF32
Copy CRC 7001EF32
Track not present in AccurateRip database
Copy OK

Track 19

Filename F:\EAC\Charlie Parker - The Complete Savoy Sessions (1988) [FLAC] {Savoy, 3CD, ZDS 5500-1~3, Rare}\Disk1\19 - Now's The Time (takes 1 & 2).wav

Pre-gap length 0:00:02.07

Peak level 80.6 %
Extraction speed 1.6 X
Track quality 100.0 %
Test CRC ECEEBA57
Copy CRC ECEEBA57
Track not present in AccurateRip database
Copy OK

Track 20

Filename F:\EAC\Charlie Parker - The Complete Savoy Sessions (1988) [FLAC] {Savoy, 3CD, ZDS 5500-1~3, Rare}\Disk1\20 - Now's The Time (take 3).wav

Pre-gap length 0:00:01.30

Peak level 77.3 %
Extraction speed 2.2 X
Track quality 100.0 %
Test CRC 395BC7B9
Copy CRC 395BC7B9
Track not present in AccurateRip database
Copy OK

Track 21

Filename F:\EAC\Charlie Parker - The Complete Savoy Sessions (1988) [FLAC] {Savoy, 3CD, ZDS 5500-1~3, Rare}\Disk1\21 - Now's The Time (take 4).wav

Pre-gap length 0:00:01.58

Peak level 81.2 %
Extraction speed 2.0 X
Track quality 99.9 %
Test CRC D3C3902F
Copy CRC D3C3902F
Track not present in AccurateRip database
Copy OK

Track 22

Filename F:\EAC\Charlie Parker - The Complete Savoy Sessions (1988) [FLAC] {Savoy, 3CD, ZDS 5500-1~3, Rare}\Disk1\22 - Thriving On A Riff (take 1).wav

Pre-gap length 0:00:02.25

Peak level 70.1 %
Extraction speed 1.8 X
Track quality 100.0 %
Test CRC 98BABD8C
Copy CRC 98BABD8C
Track not present in AccurateRip database
Copy OK

Track 23

Filename F:\EAC\Charlie Parker - The Complete Savoy Sessions (1988) [FLAC] {Savoy, 3CD, ZDS 5500-1~3, Rare}\Disk1\23 - Thriving On A Riff (take 2).wav

Pre-gap length 0:00:02.72

Peak level 60.1 %
Extraction speed 1.1 X
Track quality 100.0 %
Test CRC 1B55CEDD
Copy CRC 1B55CEDD
Track not present in AccurateRip database
Copy OK

Track 24

Filename F:\EAC\Charlie Parker - The Complete Savoy Sessions (1988) [FLAC] {Savoy, 3CD, ZDS 5500-1~3, Rare}\Disk1\24 - Thriving On A Riff (take 3).wav

Pre-gap length 0:00:02.30

Peak level 88.1 %
Extraction speed 2.4 X
Track quality 100.0 %
Test CRC 789A43AC
Copy CRC 789A43AC
Track not present in AccurateRip database
Copy OK

Track 25

Filename F:\EAC\Charlie Parker - The Complete Savoy Sessions (1988) [FLAC] {Savoy, 3CD, ZDS 5500-1~3, Rare}\Disk1\25 - Meandering.wav

Pre-gap length 0:00:01.60

Peak level 60.5 %
Extraction speed 2.2 X
Track quality 99.9 %
Test CRC 4E65E611
Copy CRC 4E65E611
Track not present in AccurateRip database
Copy OK

Track 26

Filename F:\EAC\Charlie Parker - The Complete Savoy Sessions (1988) [FLAC] {Savoy, 3CD, ZDS 5500-1~3, Rare}\Disk1\26 - Koko (take 1).wav

Pre-gap length 0:00:02.03

Peak level 73.5 %
Extraction speed 1.5 X
Track quality 100.0 %
Test CRC 089E73B4
Copy CRC 089E73B4
Track not present in AccurateRip database
Copy OK

Track 27

Filename F:\EAC\Charlie Parker - The Complete Savoy Sessions (1988) [FLAC] {Savoy, 3CD, ZDS 5500-1~3, Rare}\Disk1\27 - Koko (take 2).wav

Pre-gap length 0:00:01.48

Peak level 97.0 %
Extraction speed 2.5 X
Track quality 100.0 %
Test CRC 970874D1
Copy CRC 970874D1
Track not present in AccurateRip database
Copy OK


None of the tracks are present in the AccurateRip database

No errors occurred

End of status report

==== Log checksum 72D81E9F4C3690BBECA6D4E58B6B993AF6EAF02EA232DC16C5327994FB80436C ====

Exact Audio Copy V1.0 beta 3 from 29. August 2011

EAC extraction logfile from 30. December 2016, 21:13

Charlie Parker / Complete Savoy Studio Sessions (Disc2)

Used drive : HL-DT-STDVDRAM GU70N Adapter: 0 ID: 0

Read mode : Secure
Utilize accurate stream : Yes
Defeat audio cache : Yes
Make use of C2 pointers : No

Read offset correction : 48
Overread into Lead-In and Lead-Out : No
Fill up missing offset samples with silence : Yes
Delete leading and trailing silent blocks : No
Null samples used in CRC calculations : Yes
Used interface : Native Win32 interface for Win NT & 2000
Gap handling : Appended to previous track

Used output format : User Defined Encoder
Selected bitrate : 128 kBit/s
Quality : High
Add ID3 tag : No
Command line compressor : C:\Program Files (x86)\Exact Audio Copy\Flac\flac.exe
Additional command line options : -8 -V -T "ARTIST=%artist%" -T "TITLE=%title%" -T "ALBUM=%albumtitle%" -T "DATE=%year%" -T "TRACKNUMBER=%tracknr%" -T "TOTALTRACKS=%numtracks%" -T "GENRE=%genre%" -T "ALBUMARTIST=%albumartist%" -T "ALBUM ARTIST=%albumartist%" -T "COMMENT=EAC Secure Mode, Test & Copy, AccurateRip, FLAC -8" %source%


TOC of the extracted CD

Track | Start | Length | Start sector | End sector
––––––––––––––––––––––––––––-
1 | 0:00.00 | 3:18.43 | 0 | 14892
2 | 3:18.43 | 2:33.02 | 14893 | 26369
3 | 5:51.45 | 2:39.18 | 26370 | 38312
4 | 8:30.63 | 2:35.20 | 38313 | 49957
5 | 11:06.08 | 2:55.12 | 49958 | 63094
6 | 14:01.20 | 0:19.55 | 63095 | 64574
7 | 14:21.00 | 3:00.63 | 64575 | 78137
8 | 17:21.63 | 2:46.62 | 78138 | 90649
9 | 20:08.50 | 0:06.20 | 90650 | 91119
10 | 20:14.70 | 3:00.45 | 91120 | 104664
11 | 23:15.40 | 3:00.43 | 104665 | 118207
12 | 26:16.08 | 0:35.57 | 118208 | 120889
13 | 26:51.65 | 2:39.68 | 120890 | 132882
14 | 29:31.58 | 0:24.32 | 132883 | 134714
15 | 29:56.15 | 2:32.73 | 134715 | 146187
16 | 32:29.13 | 0:11.57 | 146188 | 147069
17 | 32:40.70 | 2:38.13 | 147070 | 158932
18 | 35:19.08 | 2:47.60 | 158933 | 171517
19 | 38:06.68 | 0:49.00 | 171518 | 175192
20 | 38:55.68 | 3:11.52 | 175193 | 189569
21 | 42:07.45 | 2:53.68 | 189570 | 202612
22 | 45:01.38 | 2:53.60 | 202613 | 215647
23 | 47:55.23 | 2:47.05 | 215648 | 228177
24 | 50:42.28 | 0:58.17 | 228178 | 232544
25 | 51:40.45 | 2:25.50 | 232545 | 243469
26 | 54:06.20 | 0:07.40 | 243470 | 244034
27 | 54:13.60 | 2:30.40 | 244035 | 255324
28 | 56:44.25 | 2:06.70 | 255325 | 264844
29 | 58:51.20 | 2:40.65 | 264845 | 276909
30 | 61:32.10 | 2:54.65 | 276910 | 290024
31 | 64:27.00 | 0:05.60 | 290025 | 290459
32 | 64:32.60 | 2:51.65 | 290460 | 303349


Track 1

Filename F:\EAC\Charlie Parker - The Complete Savoy Sessions (1988) [FLAC] {Savoy, 3CD, ZDS 5500-1~3, Rare}\Disk2\01 - Donna Lee (takes 1 & 2).wav

Pre-gap length 0:00:02.00

Peak level 92.5 %
Extraction speed 1.2 X
Track quality 100.0 %
Test CRC BAEF0614
Copy CRC BAEF0614
Accurately ripped (confidence 3) [058E3EBC] (AR v1)
Copy OK

Track 2

Filename F:\EAC\Charlie Parker - The Complete Savoy Sessions (1988) [FLAC] {Savoy, 3CD, ZDS 5500-1~3, Rare}\Disk2\02 - Donna Lee (take 3).wav

Pre-gap length 0:00:00.48

Peak level 83.1 %
Extraction speed 1.0 X
Track quality 99.9 %
Test CRC EDDCF630
Copy CRC EDDCF630
Accurately ripped (confidence 3) [D5F3F5DA] (AR v1)
Copy OK

Track 3

Filename F:\EAC\Charlie Parker - The Complete Savoy Sessions (1988) [FLAC] {Savoy, 3CD, ZDS 5500-1~3, Rare}\Disk2\03 - Donna Lee (take 4).wav

Pre-gap length 0:00:00.60

Peak level 100.0 %
Extraction speed 1.3 X
Track quality 100.0 %
Test CRC D3F64364
Copy CRC D3F64364
Accurately ripped (confidence 3) [6B52CB6D] (AR v1)
Copy OK

Track 4

Filename F:\EAC\Charlie Parker - The Complete Savoy Sessions (1988) [FLAC] {Savoy, 3CD, ZDS 5500-1~3, Rare}\Disk2\04 - Donna Lee (take 5).wav

Pre-gap length 0:00:02.23

Peak level 92.8 %
Extraction speed 1.4 X
Track quality 100.0 %
Test CRC D0CFA56C
Copy CRC D0CFA56C
Accurately ripped (confidence 3) [A0A79EFE] (AR v1)
Copy OK

Track 5

Filename F:\EAC\Charlie Parker - The Complete Savoy Sessions (1988) [FLAC] {Savoy, 3CD, ZDS 5500-1~3, Rare}\Disk2\05 - Chasin' The Bird (take 1).wav

Pre-gap length 0:00:02.00

Peak level 93.8 %
Extraction speed 1.5 X
Track quality 100.0 %
Test CRC 760941D6
Copy CRC 760941D6
Accurately ripped (confidence 3) [144CD1A8] (AR v1)
Copy OK

Track 6

Filename F:\EAC\Charlie Parker - The Complete Savoy Sessions (1988) [FLAC] {Savoy, 3CD, ZDS 5500-1~3, Rare}\Disk2\06 - Chasin' The Bird (take 2).wav

Pre-gap length 0:00:01.25

Peak level 93.0 %
Extraction speed 0.6 X
Track quality 100.0 %
Test CRC 30D7966C
Copy CRC 30D7966C
Accurately ripped (confidence 3) [59A261C2] (AR v1)
Copy OK

Track 7

Filename F:\EAC\Charlie Parker - The Complete Savoy Sessions (1988) [FLAC] {Savoy, 3CD, ZDS 5500-1~3, Rare}\Disk2\07 - Chasin' The Bird (take 3).wav

Pre-gap length 0:00:00.12

Peak level 90.8 %
Extraction speed 1.5 X
Track quality 100.0 %
Test CRC F1324273
Copy CRC F1324273
Accurately ripped (confidence 3) [BB2BE662] (AR v1)
Copy OK

Track 8

Filename F:\EAC\Charlie Parker - The Complete Savoy Sessions (1988) [FLAC] {Savoy, 3CD, ZDS 5500-1~3, Rare}\Disk2\08 - Chasin' The Bird (take 4).wav

Pre-gap length 0:00:01.53

Peak level 91.1 %
Extraction speed 1.6 X
Track quality 100.0 %
Test CRC 155A6CF8
Copy CRC 155A6CF8
Accurately ripped (confidence 3) [A3B6A725] (AR v1)
Copy OK

Track 9

Filename F:\EAC\Charlie Parker - The Complete Savoy Sessions (1988) [FLAC] {Savoy, 3CD, ZDS 5500-1~3, Rare}\Disk2\09 - Cheryl (take 1).wav

Pre-gap length 0:00:01.65

Peak level 60.5 %
Extraction speed 0.3 X
Track quality 100.0 %
Test CRC EC5CE00C
Copy CRC EC5CE00C
Accurately ripped (confidence 3) [37D6E47A] (AR v1)
Copy OK

Track 10

Filename F:\EAC\Charlie Parker - The Complete Savoy Sessions (1988) [FLAC] {Savoy, 3CD, ZDS 5500-1~3, Rare}\Disk2\10 - Cheryl (take 2).wav

Pre-gap length 0:00:02.22

Peak level 87.4 %
Extraction speed 1.4 X
Track quality 99.9 %
Test CRC 24164490
Copy CRC 24164490
Accurately ripped (confidence 3) [CAA42D77] (AR v1)
Copy OK

Track 11

Filename F:\EAC\Charlie Parker - The Complete Savoy Sessions (1988) [FLAC] {Savoy, 3CD, ZDS 5500-1~3, Rare}\Disk2\11 - Buzzy (take 1).wav

Pre-gap length 0:00:02.15

Peak level 100.0 %
Extraction speed 1.5 X
Track quality 99.9 %
Test CRC 4F4A5DEE
Copy CRC 4F4A5DEE
Accurately ripped (confidence 3) [3404796D] (AR v1)
Copy OK

Track 12

Filename F:\EAC\Charlie Parker - The Complete Savoy Sessions (1988) [FLAC] {Savoy, 3CD, ZDS 5500-1~3, Rare}\Disk2\12 - Buzzy (take 2).wav

Pre-gap length 0:00:01.25

Peak level 100.0 %
Extraction speed 1.0 X
Track quality 100.0 %
Test CRC F5F3AFBA
Copy CRC F5F3AFBA
Accurately ripped (confidence 3) [3625CA90] (AR v1)
Copy OK

Track 13

Filename F:\EAC\Charlie Parker - The Complete Savoy Sessions (1988) [FLAC] {Savoy, 3CD, ZDS 5500-1~3, Rare}\Disk2\13 - Buzzy (take 3).wav

Pre-gap length 0:00:00.57

Peak level 99.9 %
Extraction speed 1.8 X
Track quality 100.0 %
Test CRC ADE9D237
Copy CRC ADE9D237
Accurately ripped (confidence 3) [F10D7287] (AR v1)
Copy OK

Track 14

Filename F:\EAC\Charlie Parker - The Complete Savoy Sessions (1988) [FLAC] {Savoy, 3CD, ZDS 5500-1~3, Rare}\Disk2\14 - Buzzy (take 4).wav

Pre-gap length 0:00:01.08

Peak level 57.7 %
Extraction speed 0.9 X
Track quality 100.0 %
Test CRC FC94FE4A
Copy CRC FC94FE4A
Accurately ripped (confidence 3) [1613E0F5] (AR v1)
Copy OK

Track 15

Filename F:\EAC\Charlie Parker - The Complete Savoy Sessions (1988) [FLAC] {Savoy, 3CD, ZDS 5500-1~3, Rare}\Disk2\15 - Buzzy (take 5).wav

Pre-gap length 0:00:02.40

Peak level 89.7 %
Extraction speed 1.8 X
Track quality 100.0 %
Test CRC 6BFCFCC3
Copy CRC 6BFCFCC3
Accurately ripped (confidence 3) [5D2E166C] (AR v1)
Copy OK

Track 16

Filename F:\EAC\Charlie Parker - The Complete Savoy Sessions (1988) [FLAC] {Savoy, 3CD, ZDS 5500-1~3, Rare}\Disk2\16 - Milestones (take 1).wav

Pre-gap length 0:00:02.65

Peak level 71.3 %
Extraction speed 0.5 X
Track quality 100.0 %
Test CRC C011E381
Copy CRC C011E381
Accurately ripped (confidence 3) [E6C67464] (AR v1)
Copy OK

Track 17

Filename F:\EAC\Charlie Parker - The Complete Savoy Sessions (1988) [FLAC] {Savoy, 3CD, ZDS 5500-1~3, Rare}\Disk2\17 - Milestones (take 2).wav

Pre-gap length 0:00:02.20

Peak level 66.3 %
Extraction speed 1.9 X
Track quality 100.0 %
Test CRC F1904F1C
Copy CRC F1904F1C
Accurately ripped (confidence 3) [CB47CDBC] (AR v1)
Copy OK

Track 18

Filename F:\EAC\Charlie Parker - The Complete Savoy Sessions (1988) [FLAC] {Savoy, 3CD, ZDS 5500-1~3, Rare}\Disk2\18 - Milestones (take 3).wav

Pre-gap length 0:00:02.08

Peak level 72.5 %
Extraction speed 2.0 X
Track quality 100.0 %
Test CRC 2A1F8BD2
Copy CRC 2A1F8BD2
Accurately ripped (confidence 3) [76E8CDBA] (AR v1)
Copy OK

Track 19

Filename F:\EAC\Charlie Parker - The Complete Savoy Sessions (1988) [FLAC] {Savoy, 3CD, ZDS 5500-1~3, Rare}\Disk2\19 - Little Willie Leaps (take 1).wav

Pre-gap length 0:00:02.30

Peak level 68.5 %
Extraction speed 1.4 X
Track quality 100.0 %
Test CRC 4CE17CC8
Copy CRC 4CE17CC8
Accurately ripped (confidence 3) [28AFD783] (AR v1)
Copy OK

Track 20

Filename F:\EAC\Charlie Parker - The Complete Savoy Sessions (1988) [FLAC] {Savoy, 3CD, ZDS 5500-1~3, Rare}\Disk2\20 - Little Willie Leaps (take 2).wav

Pre-gap length 0:00:01.08

Peak level 89.3 %
Extraction speed 2.1 X
Track quality 100.0 %
Test CRC 5359B65F
Copy CRC 5359B65F
Accurately ripped (confidence 3) [B8A6D720] (AR v1)
Copy OK

Track 21

Filename F:\EAC\Charlie Parker - The Complete Savoy Sessions (1988) [FLAC] {Savoy, 3CD, ZDS 5500-1~3, Rare}\Disk2\21 - Little Willie Leaps (take 3).wav

Pre-gap length 0:00:01.57

Peak level 68.6 %
Extraction speed 2.1 X
Track quality 100.0 %
Test CRC 58DF9EE6
Copy CRC 58DF9EE6
Accurately ripped (confidence 3) [EDE6BAA8] (AR v1)
Copy OK

Track 22

Filename F:\EAC\Charlie Parker - The Complete Savoy Sessions (1988) [FLAC] {Savoy, 3CD, ZDS 5500-1~3, Rare}\Disk2\22 - Half Nelson (take 1).wav

Pre-gap length 0:00:02.25

Peak level 69.3 %
Extraction speed 2.2 X
Track quality 100.0 %
Test CRC FA719BFC
Copy CRC FA719BFC
Accurately ripped (confidence 3) [91DE9AEE] (AR v1)
Copy OK

Track 23

Filename F:\EAC\Charlie Parker - The Complete Savoy Sessions (1988) [FLAC] {Savoy, 3CD, ZDS 5500-1~3, Rare}\Disk2\23 - Half Nelson (take 2).wav

Pre-gap length 0:00:02.48

Peak level 84.7 %
Extraction speed 2.2 X
Track quality 100.0 %
Test CRC E66617EC
Copy CRC E66617EC
Accurately ripped (confidence 2) [B440A02F] (AR v1)
Copy OK

Track 24

Filename F:\EAC\Charlie Parker - The Complete Savoy Sessions (1988) [FLAC] {Savoy, 3CD, ZDS 5500-1~3, Rare}\Disk2\24 - Sippin' At Bells (take 1).wav

Pre-gap length 0:00:02.33

Peak level 67.2 %
Extraction speed 1.7 X
Track quality 100.0 %
Test CRC 8B6431BD
Copy CRC 8B6431BD
Accurately ripped (confidence 3) [5DC5123D] (AR v1)
Copy OK

Track 25

Filename F:\EAC\Charlie Parker - The Complete Savoy Sessions (1988) [FLAC] {Savoy, 3CD, ZDS 5500-1~3, Rare}\Disk2\25 - Sippin' At Bells (take 2).wav

Pre-gap length 0:00:02.30

Peak level 83.1 %
Extraction speed 2.2 X
Track quality 100.0 %
Test CRC 6DC4605B
Copy CRC 6DC4605B
Accurately ripped (confidence 3) [DDAC4435] (AR v1)
Copy OK

Track 26

Filename F:\EAC\Charlie Parker - The Complete Savoy Sessions (1988) [FLAC] {Savoy, 3CD, ZDS 5500-1~3, Rare}\Disk2\26 - Sippin' At Bells (take 3).wav

Pre-gap length 0:00:02.02

Peak level 65.0 %
Extraction speed 0.4 X
Track quality 100.0 %
Test CRC BE3BFFF8
Copy CRC BE3BFFF8
Accurately ripped (confidence 3) [FCFB2B04] (AR v1)
Copy OK

Track 27

Filename F:\EAC\Charlie Parker - The Complete Savoy Sessions (1988) [FLAC] {Savoy, 3CD, ZDS 5500-1~3, Rare}\Disk2\27 - Sippin' At Bells (take 4).wav

Pre-gap length 0:00:00.52

Peak level 65.0 %
Extraction speed 2.3 X
Track quality 100.0 %
Test CRC 64F4991E
Copy CRC 64F4991E
Accurately ripped (confidence 3) [98EB0A56] (AR v1)
Copy OK

Track 28

Filename F:\EAC\Charlie Parker - The Complete Savoy Sessions (1988) [FLAC] {Savoy, 3CD, ZDS 5500-1~3, Rare}\Disk2\28 - Another Hair Do (takes 1, 2, & 3).wav

Pre-gap length 0:00:01.47

Peak level 98.5 %
Extraction speed 2.2 X
Track quality 100.0 %
Test CRC BFE9F421
Copy CRC BFE9F421
Accurately ripped (confidence 3) [76A4E21E] (AR v1)
Copy OK

Track 29

Filename F:\EAC\Charlie Parker - The Complete Savoy Sessions (1988) [FLAC] {Savoy, 3CD, ZDS 5500-1~3, Rare}\Disk2\29 - Another Hair Do (take 4).wav

Pre-gap length 0:00:02.40

Peak level 76.4 %
Extraction speed 2.4 X
Track quality 100.0 %
Test CRC 51228567
Copy CRC 51228567
Accurately ripped (confidence 3) [CC84C4D4] (AR v1)
Copy OK

Track 30

Filename F:\EAC\Charlie Parker - The Complete Savoy Sessions (1988) [FLAC] {Savoy, 3CD, ZDS 5500-1~3, Rare}\Disk2\30 - Bluebird (take 1).wav

Pre-gap length 0:00:02.55

Peak level 69.1 %
Extraction speed 2.4 X
Track quality 100.0 %
Test CRC D2568142
Copy CRC D2568142
Accurately ripped (confidence 2) [055DFAEC] (AR v1)
Copy OK

Track 31

Filename F:\EAC\Charlie Parker - The Complete Savoy Sessions (1988) [FLAC] {Savoy, 3CD, ZDS 5500-1~3, Rare}\Disk2\31 - Bluebird (take 2).wav

Pre-gap length 0:00:02.06

Peak level 6.9 %
Extraction speed 0.4 X
Track quality 100.0 %
Test CRC E5A1E596
Copy CRC E5A1E596
Track not present in AccurateRip database
Copy OK

Track 32

Filename F:\EAC\Charlie Parker - The Complete Savoy Sessions (1988) [FLAC] {Savoy, 3CD, ZDS 5500-1~3, Rare}\Disk2\32 - Bluebird (take 3).wav

Pre-gap length 0:00:02.25

Peak level 64.3 %
Extraction speed 2.5 X
Track quality 100.0 %
Test CRC AD33EB06
Copy CRC AD33EB06
Accurately ripped (confidence 3) [758470B1] (AR v1)
Copy OK


31 track(s) accurately ripped
1 track(s) not present in the AccurateRip database

Some tracks could not be verified as accurate

No errors occurred

End of status report

==== Log checksum 1CCEE38A90578813C94F72625B1BC0F15A3B19E5E358F5F3D78ED09226AD4133 ====

Exact Audio Copy V1.0 beta 3 from 29. August 2011

EAC extraction logfile from 31. December 2016, 0:10

Charlie Parker / Complete Savoy Studio Sessions (Disc3)

Used drive : HL-DT-STDVDRAM GU70N Adapter: 0 ID: 0

Read mode : Secure
Utilize accurate stream : Yes
Defeat audio cache : Yes
Make use of C2 pointers : No

Read offset correction : 48
Overread into Lead-In and Lead-Out : No
Fill up missing offset samples with silence : Yes
Delete leading and trailing silent blocks : No
Null samples used in CRC calculations : Yes
Used interface : Native Win32 interface for Win NT & 2000
Gap handling : Appended to previous track

Used output format : User Defined Encoder
Selected bitrate : 128 kBit/s
Quality : High
Add ID3 tag : No
Command line compressor : C:\Program Files (x86)\Exact Audio Copy\Flac\flac.exe
Additional command line options : -8 -V -T "ARTIST=%artist%" -T "TITLE=%title%" -T "ALBUM=%albumtitle%" -T "DATE=%year%" -T "TRACKNUMBER=%tracknr%" -T "TOTALTRACKS=%numtracks%" -T "GENRE=%genre%" -T "ALBUMARTIST=%albumartist%" -T "ALBUM ARTIST=%albumartist%" -T "COMMENT=EAC Secure Mode, Test & Copy, AccurateRip, FLAC -8" %source%


TOC of the extracted CD

Track | Start | Length | Start sector | End sector
––––––––––––––––––––––––––––-
1 | 0:00.00 | 2:49.00 | 0 | 12674
2 | 2:49.00 | 3:02.03 | 12675 | 26327
3 | 5:51.03 | 0:11.55 | 26328 | 27207
4 | 6:02.58 | 2:38.50 | 27208 | 39107
5 | 8:41.33 | 2:38.37 | 39108 | 50994
6 | 11:19.70 | 0:44.73 | 50995 | 54367
7 | 12:04.68 | 2:37.05 | 54368 | 66147
8 | 14:41.73 | 2:30.40 | 66148 | 77437
9 | 17:12.38 | 0:39.37 | 77438 | 80399
10 | 17:52.00 | 2:56.10 | 80400 | 93609
11 | 20:48.10 | 0:10.35 | 93610 | 94394
12 | 20:58.45 | 2:34.03 | 94395 | 105947
13 | 23:32.48 | 2:13.22 | 105948 | 115944
14 | 25:45.70 | 0:25.53 | 115945 | 117872
15 | 26:11.48 | 2:30.35 | 117873 | 129157
16 | 28:42.08 | 0:05.62 | 129158 | 129594
17 | 28:47.70 | 3:25.28 | 129595 | 144997
18 | 32:13.23 | 2:27.55 | 144998 | 156077
19 | 34:41.03 | 3:03.60 | 156078 | 169862
20 | 37:44.63 | 2:10.20 | 169863 | 179632
21 | 39:55.08 | 0:28.35 | 179633 | 181767
22 | 40:23.43 | 2:10.27 | 181768 | 191544
23 | 42:33.70 | 1:00.73 | 191545 | 196117
24 | 43:34.68 | 2:27.52 | 196118 | 207194
25 | 46:02.45 | 2:36.30 | 207195 | 218924
26 | 48:39.00 | 2:21.50 | 218925 | 229549
27 | 51:00.50 | 2:53.05 | 229550 | 242529
28 | 53:53.55 | 1:19.23 | 242530 | 248477
29 | 55:13.03 | 3:03.35 | 248478 | 262237
30 | 58:16.38 | 1:25.15 | 262238 | 268627
31 | 59:41.53 | 2:44.62 | 268628 | 280989
32 | 62:26.40 | 0:13.50 | 280990 | 282014
33 | 62:40.15 | 3:04.73 | 282015 | 295887
34 | 65:45.13 | 2:20.47 | 295888 | 306434
35 | 68:05.60 | 2:26.05 | 306435 | 317389


Track 1

Filename F:\EAC\Charlie Parker - The Complete Savoy Sessions (1988) [FLAC] {Savoy, 3CD, ZDS 5500-1~3, Rare}\Disk3\01 - Klaunstance.wav

Pre-gap length 0:00:02.00

Peak level 76.5 %
Extraction speed 1.0 X
Track quality 99.9 %
Test CRC 8E4C36EC
Copy CRC 8E4C36EC
Accurately ripped (confidence 1) [AD3B3E87] (AR v1)
Copy OK

Track 2

Filename F:\EAC\Charlie Parker - The Complete Savoy Sessions (1988) [FLAC] {Savoy, 3CD, ZDS 5500-1~3, Rare}\Disk3\02 - Bird Gets The Worm (take 1).wav

Pre-gap length 0:00:02.17

Peak level 98.4 %
Extraction speed 1.2 X
Track quality 100.0 %
Test CRC 0EB53DCA
Copy CRC 0EB53DCA
Accurately ripped (confidence 2) [2CBEC69C] (AR v1)
Copy OK

Track 3

Filename F:\EAC\Charlie Parker - The Complete Savoy Sessions (1988) [FLAC] {Savoy, 3CD, ZDS 5500-1~3, Rare}\Disk3\03 - Bird Gets The Worm (take 2).wav

Pre-gap length 0:00:01.15

Peak level 68.4 %
Extraction speed 0.3 X
Track quality 100.0 %
Test CRC EF8C2D01
Copy CRC EF8C2D01
Accurately ripped (confidence 2) [F857D2E2] (AR v1)
Copy OK

Track 4

Filename F:\EAC\Charlie Parker - The Complete Savoy Sessions (1988) [FLAC] {Savoy, 3CD, ZDS 5500-1~3, Rare}\Disk3\04 - Bird Gets The Worm (take 3).wav

Pre-gap length 0:00:01.20

Peak level 97.5 %
Extraction speed 1.1 X
Track quality 99.9 %
Test CRC D091C3B9
Copy CRC D091C3B9
Accurately ripped (confidence 1) [3A222941] (AR v1)
Copy OK

Track 5

Filename F:\EAC\Charlie Parker - The Complete Savoy Sessions (1988) [FLAC] {Savoy, 3CD, ZDS 5500-1~3, Rare}\Disk3\05 - Barbados (take 1).wav

Pre-gap length 0:00:02.10

Peak level 62.9 %
Extraction speed 1.4 X
Track quality 100.0 %
Test CRC C65E3FE8
Copy CRC C65E3FE8
Accurately ripped (confidence 1) [22F97144] (AR v1)
Copy OK

Track 6

Filename F:\EAC\Charlie Parker - The Complete Savoy Sessions (1988) [FLAC] {Savoy, 3CD, ZDS 5500-1~3, Rare}\Disk3\06 - Barbados (take 2).wav

Pre-gap length 0:00:01.37

Peak level 62.5 %
Extraction speed 0.9 X
Track quality 100.0 %
Test CRC 03C80295
Copy CRC 03C80295
Accurately ripped (confidence 2) [E1375C51] (AR v1)
Copy OK

Track 7

Filename F:\EAC\Charlie Parker - The Complete Savoy Sessions (1988) [FLAC] {Savoy, 3CD, ZDS 5500-1~3, Rare}\Disk3\07 - Barbados (take 3).wav

Pre-gap length 0:00:00.65

Peak level 62.9 %
Extraction speed 1.4 X
Track quality 100.0 %
Test CRC 04A77529
Copy CRC 04A77529
Accurately ripped (confidence 2) [12E447BB] (AR v1)
Copy OK

Track 8

Filename F:\EAC\Charlie Parker - The Complete Savoy Sessions (1988) [FLAC] {Savoy, 3CD, ZDS 5500-1~3, Rare}\Disk3\08 - Barbados (take 4).wav

Pre-gap length 0:00:02.18

Peak level 57.4 %
Extraction speed 1.5 X
Track quality 100.0 %
Test CRC 112EFAF9
Copy CRC 112EFAF9
Accurately ripped (confidence 2) [E97BE061] (AR v1)
Copy OK

Track 9

Filename F:\EAC\Charlie Parker - The Complete Savoy Sessions (1988) [FLAC] {Savoy, 3CD, ZDS 5500-1~3, Rare}\Disk3\09 - Ah-Leu-Cha (take 1).wav

Pre-gap length 0:00:02.50

Peak level 59.6 %
Extraction speed 0.6 X
Track quality 99.7 %
Test CRC 2884033C
Copy CRC 2884033C
Accurately ripped (confidence 2) [1A83166D] (AR v1)
Copy OK

Track 10

Filename F:\EAC\Charlie Parker - The Complete Savoy Sessions (1988) [FLAC] {Savoy, 3CD, ZDS 5500-1~3, Rare}\Disk3\10 - Ah-Leu-Cha (take 2).wav

Pre-gap length 0:00:02.22

Peak level 63.1 %
Extraction speed 1.6 X
Track quality 100.0 %
Test CRC 9D1C3B08
Copy CRC 9D1C3B08
Accurately ripped (confidence 2) [F5EDD14B] (AR v1)
Copy OK

Track 11

Filename F:\EAC\Charlie Parker - The Complete Savoy Sessions (1988) [FLAC] {Savoy, 3CD, ZDS 5500-1~3, Rare}\Disk3\11 - Constellation (take 1).wav

Pre-gap length 0:00:02.07

Peak level 48.3 %
Extraction speed 0.4 X
Track quality 100.0 %
Test CRC 0EDDFCF0
Copy CRC 0EDDFCF0
Accurately ripped (confidence 2) [CE465E61] (AR v1)
Copy OK

Track 12

Filename F:\EAC\Charlie Parker - The Complete Savoy Sessions (1988) [FLAC] {Savoy, 3CD, ZDS 5500-1~3, Rare}\Disk3\12 - Constellation (take 2).wav

Pre-gap length 0:00:00.42

Peak level 81.2 %
Extraction speed 1.4 X
Track quality 99.9 %
Test CRC B1CD4456
Copy CRC B1CD4456
Accurately ripped (confidence 2) [C76C95D3] (AR v1)
Copy OK

Track 13

Filename F:\EAC\Charlie Parker - The Complete Savoy Sessions (1988) [FLAC] {Savoy, 3CD, ZDS 5500-1~3, Rare}\Disk3\13 - Constellation (take 3).wav

Pre-gap length 0:00:01.43

Peak level 80.5 %
Extraction speed 1.6 X
Track quality 100.0 %
Test CRC 093D39F0
Copy CRC 093D39F0
Accurately ripped (confidence 2) [CB2F61E0] (AR v1)
Copy OK

Track 14

Filename F:\EAC\Charlie Parker - The Complete Savoy Sessions (1988) [FLAC] {Savoy, 3CD, ZDS 5500-1~3, Rare}\Disk3\14 - Constellation (take 4).wav

Pre-gap length 0:00:01.50

Peak level 74.6 %
Extraction speed 0.9 X
Track quality 100.0 %
Test CRC E19C1574
Copy CRC E19C1574
Accurately ripped (confidence 2) [EF57D86B] (AR v1)
Copy OK

Track 15

Filename F:\EAC\Charlie Parker - The Complete Savoy Sessions (1988) [FLAC] {Savoy, 3CD, ZDS 5500-1~3, Rare}\Disk3\15 - Constellation (take 5).wav

Pre-gap length 0:00:02.50

Peak level 86.5 %
Extraction speed 1.7 X
Track quality 100.0 %
Test CRC 0856F084
Copy CRC 0856F084
Accurately ripped (confidence 2) [80844C2D] (AR v1)
Copy OK

Track 16

Filename F:\EAC\Charlie Parker - The Complete Savoy Sessions (1988) [FLAC] {Savoy, 3CD, ZDS 5500-1~3, Rare}\Disk3\16 - Parker's Mood (take 1).wav

Pre-gap length 0:00:02.25

Peak level 52.3 %
Extraction speed 0.3 X
Track quality 100.0 %
Test CRC 3984C16F
Copy CRC 3984C16F
Track not present in AccurateRip database
Copy OK

Track 17

Filename F:\EAC\Charlie Parker - The Complete Savoy Sessions (1988) [FLAC] {Savoy, 3CD, ZDS 5500-1~3, Rare}\Disk3\17 - Parker's Mood (take 2).wav

Pre-gap length 0:00:00.62

Peak level 60.1 %
Extraction speed 1.9 X
Track quality 100.0 %
Test CRC 11EB4126
Copy CRC 11EB4126
Accurately ripped (confidence 2) [F8F73EDD] (AR v1)
Copy OK

Track 18

Filename F:\EAC\Charlie Parker - The Complete Savoy Sessions (1988) [FLAC] {Savoy, 3CD, ZDS 5500-1~3, Rare}\Disk3\18 - Parker's Mood (takes 3 & 4).wav

Pre-gap length 0:00:00.63

Peak level 51.0 %
Extraction speed 1.5 X
Track quality 99.9 %
Test CRC 10BFEB9F
Copy CRC 10BFEB9F
Accurately ripped (confidence 1) [6EB26272] (AR v1)
Copy OK

Track 19

Filename F:\EAC\Charlie Parker - The Complete Savoy Sessions (1988) [FLAC] {Savoy, 3CD, ZDS 5500-1~3, Rare}\Disk3\19 - Parker's Mood (take 5).wav

Pre-gap length 0:00:02.28

Peak level 46.6 %
Extraction speed 2.0 X
Track quality 100.0 %
Test CRC 45C19C71
Copy CRC 45C19C71
Accurately ripped (confidence 1) [387712E0] (AR v1)
Copy OK

Track 20

Filename F:\EAC\Charlie Parker - The Complete Savoy Sessions (1988) [FLAC] {Savoy, 3CD, ZDS 5500-1~3, Rare}\Disk3\20 - Perhaps (take 1).wav

Pre-gap length 0:00:02.23

Peak level 53.8 %
Extraction speed 1.9 X
Track quality 100.0 %
Test CRC 81276F34
Copy CRC 81276F34
Accurately ripped (confidence 2) [9AC58A82] (AR v1)
Copy OK

Track 21

Filename F:\EAC\Charlie Parker - The Complete Savoy Sessions (1988) [FLAC] {Savoy, 3CD, ZDS 5500-1~3, Rare}\Disk3\21 - Perhaps (take 2).wav

Pre-gap length 0:00:01.60

Peak level 48.0 %
Extraction speed 1.0 X
Track quality 100.0 %
Test CRC 1EBE681C
Copy CRC 1EBE681C
Accurately ripped (confidence 2) [9CB9F5C2] (AR v1)
Copy OK

Track 22

Filename F:\EAC\Charlie Parker - The Complete Savoy Sessions (1988) [FLAC] {Savoy, 3CD, ZDS 5500-1~3, Rare}\Disk3\22 - Perhaps (take 3).wav

Pre-gap length 0:00:01.03

Peak level 56.9 %
Extraction speed 1.9 X
Track quality 100.0 %
Test CRC 4B845AA5
Copy CRC 4B845AA5
Accurately ripped (confidence 2) [3507BA34] (AR v1)
Copy OK

Track 23

Filename F:\EAC\Charlie Parker - The Complete Savoy Sessions (1988) [FLAC] {Savoy, 3CD, ZDS 5500-1~3, Rare}\Disk3\23 - Perhaps (takes 4 & 5).wav

Pre-gap length 0:00:01.02

Peak level 54.1 %
Extraction speed 1.5 X
Track quality 100.0 %
Test CRC BF567222
Copy CRC BF567222
Accurately ripped (confidence 2) [DA1BAC40] (AR v1)
Copy OK

Track 24

Filename F:\EAC\Charlie Parker - The Complete Savoy Sessions (1988) [FLAC] {Savoy, 3CD, ZDS 5500-1~3, Rare}\Disk3\24 - Perhaps (take 6).wav

Pre-gap length 0:00:00.68

Peak level 61.4 %
Extraction speed 1.7 X
Track quality 99.9 %
Test CRC 3890F089
Copy CRC 3890F089
Accurately ripped (confidence 1) [CA52646C] (AR v1)
Copy OK

Track 25

Filename F:\EAC\Charlie Parker - The Complete Savoy Sessions (1988) [FLAC] {Savoy, 3CD, ZDS 5500-1~3, Rare}\Disk3\25 - Perhaps (take 7).wav

Pre-gap length 0:00:02.22

Peak level 50.7 %
Extraction speed 2.1 X
Track quality 100.0 %
Test CRC 8675FEA5
Copy CRC 8675FEA5
Accurately ripped (confidence 2) [5AC9AE2C] (AR v1)
Copy OK

Track 26

Filename F:\EAC\Charlie Parker - The Complete Savoy Sessions (1988) [FLAC] {Savoy, 3CD, ZDS 5500-1~3, Rare}\Disk3\26 - Marmaduke (takes 1, 2, 3, & 4).wav

Pre-gap length 0:00:03.10

Peak level 54.2 %
Extraction speed 2.1 X
Track quality 100.0 %
Test CRC FF6F75E3
Copy CRC FF6F75E3
Accurately ripped (confidence 2) [763696E8] (AR v1)
Copy OK

Track 27

Filename F:\EAC\Charlie Parker - The Complete Savoy Sessions (1988) [FLAC] {Savoy, 3CD, ZDS 5500-1~3, Rare}\Disk3\27 - Marmaduke (take 5).wav

Pre-gap length 0:00:00.72

Peak level 52.1 %
Extraction speed 2.2 X
Track quality 100.0 %
Test CRC 1DCC599A
Copy CRC 1DCC599A
Accurately ripped (confidence 2) [0EBF47CA] (AR v1)
Copy OK

Track 28

Filename F:\EAC\Charlie Parker - The Complete Savoy Sessions (1988) [FLAC] {Savoy, 3CD, ZDS 5500-1~3, Rare}\Disk3\28 - Marmaduke (takes 6, 7, & 8).wav

Pre-gap length 0:00:01.50

Peak level 53.4 %
Extraction speed 1.9 X
Track quality 100.0 %
Test CRC CDDAEEE5
Copy CRC CDDAEEE5
Accurately ripped (confidence 2) [394DB28A] (AR v1)
Copy OK

Track 29

Filename F:\EAC\Charlie Parker - The Complete Savoy Sessions (1988) [FLAC] {Savoy, 3CD, ZDS 5500-1~3, Rare}\Disk3\29 - Marmaduke (take 9).wav

Pre-gap length 0:00:02.03

Peak level 57.7 %
Extraction speed 2.3 X
Track quality 100.0 %
Test CRC 1A88B758
Copy CRC 1A88B758
Accurately ripped (confidence 1) [7AB93F13] (AR v1)
Copy OK

Track 30

Filename F:\EAC\Charlie Parker - The Complete Savoy Sessions (1988) [FLAC] {Savoy, 3CD, ZDS 5500-1~3, Rare}\Disk3\30 - Marmaduke (takes 10 & 11).wav

Pre-gap length 0:00:01.50

Peak level 54.5 %
Extraction speed 2.0 X
Track quality 100.0 %
Test CRC 9493826D
Copy CRC 9493826D
Accurately ripped (confidence 2) [77E6EF0D] (AR v1)
Copy OK

Track 31

Filename F:\EAC\Charlie Parker - The Complete Savoy Sessions (1988) [FLAC] {Savoy, 3CD, ZDS 5500-1~3, Rare}\Disk3\31 - Marmaduke (take 12).wav

Pre-gap length 0:00:02.13

Peak level 61.1 %
Extraction speed 2.4 X
Track quality 100.0 %
Test CRC E921D8A6
Copy CRC E921D8A6
Accurately ripped (confidence 2) [4295449A] (AR v1)
Copy OK

Track 32

Filename F:\EAC\Charlie Parker - The Complete Savoy Sessions (1988) [FLAC] {Savoy, 3CD, ZDS 5500-1~3, Rare}\Disk3\32 - Steeplechase (take 1).wav

Pre-gap length 0:00:03.10

Peak level 47.4 %
Extraction speed 0.7 X
Track quality 100.0 %
Test CRC A607E377
Copy CRC A607E377
Accurately ripped (confidence 2) [16943E0F] (AR v1)
Copy OK

Track 33

Filename F:\EAC\Charlie Parker - The Complete Savoy Sessions (1988) [FLAC] {Savoy, 3CD, ZDS 5500-1~3, Rare}\Disk3\33 - Steeplechase (take 2).wav

Pre-gap length 0:00:02.40

Peak level 71.3 %
Extraction speed 2.5 X
Track quality 100.0 %
Test CRC A7B9B167
Copy CRC A7B9B167
Accurately ripped (confidence 2) [4FB3EDBE] (AR v1)
Copy OK

Track 34

Filename F:\EAC\Charlie Parker - The Complete Savoy Sessions (1988) [FLAC] {Savoy, 3CD, ZDS 5500-1~3, Rare}\Disk3\34 - Merry-Go-Round (take 1).wav

Pre-gap length 0:00:01.20

Peak level 66.8 %
Extraction speed 2.4 X
Track quality 100.0 %
Test CRC 66FE5356
Copy CRC 66FE5356
Accurately ripped (confidence 2) [E1762538] (AR v1)
Copy OK

Track 35

Filename F:\EAC\Charlie Parker - The Complete Savoy Sessions (1988) [FLAC] {Savoy, 3CD, ZDS 5500-1~3, Rare}\Disk3\35 - Merry-Go-Round (take 2).wav

Pre-gap length 0:00:02.42

Peak level 59.2 %
Extraction speed 2.0 X
Track quality 99.9 %
Test CRC AF9B6CA8
Copy CRC AF9B6CA8
Accurately ripped (confidence 1) [FC136B11] (AR v1)
Copy OK


34 track(s) accurately ripped
1 track(s) not present in the AccurateRip database

Some tracks could not be verified as accurate

No errors occurred

End of status report

==== Log checksum 76C84F702F95AA0AB2917F800E4353D5A2475666B7A54B53F4436FB6788D1ACB ====


Charlie Parker - The Complete Savoy Studio Sessions (1988) {Savoy, 3CD, ZDS 5500-1~3, Rare Early Press rec 1944-1948}


see more Charlie Parker…


===