Tags
Language
Tags
June 2024
Su Mo Tu We Th Fr Sa
26 27 28 29 30 31 1
2 3 4 5 6 7 8
9 10 11 12 13 14 15
16 17 18 19 20 21 22
23 24 25 26 27 28 29
30 1 2 3 4 5 6

Chet Baker - Born To Be Blue: The Music Of His Life (2017)

Posted By: delpotro
Chet Baker - Born To Be Blue: The Music Of His Life (2017)

Chet Baker - Born To Be Blue: The Music Of His Life (2017)
EAC Rip | FLAC (tracks+log+.cue) - 361 Mb | MP3 CBR 320 kbps - 178 Mb | 01:17:27
Cool Jazz, Vocal Jazz | Label: American Jazz Classics

In his dual role as trumpeter and singer, the perennial Chet Baker was one of the undisputed masters of the jazz ballad, able to reach climaxes of intense feeling and intimacy. This CD compiles Chet Baker’s original versions of many of the songs heard in the recent biopic film based on his life, and reminds us of his superb talents. The unforgettable performances by Odetta and Charles Mingus used on the soundtrack, as well as two amazing versions of the title song, “Born to Be Blue”, sung by Nancy Wilson and Helen Merrill (the latter is baked by another brilliant trumpet, Clifford Brown, on the recording) have also been included.
Tracklist:
1. My Funny Valentine (02:20)
2. Over The Rainbow (03:31)
3. Let's Get Lost (03:44)
4. I've Never Been In Love Before (04:28)
5. There Will Never Be Another You (02:59)
6. Go Down Sunshine (02:23)
7. The Thrill Is Gone (02:51)
8. Everything Happens To Me (05:07)
9. There's A Small Hotel (03:50)
10. Born To Be Blue (02:16)
11. Ballata In Forma Di Blues (10:05)
12. Someone To Watch Over Me (03:03)
13. Haitian Fight Song (12:04)
14. Deep In A Dream (04:34)
15. Grey December (03:46)
16. My Funny Valentine #2 (05:03)
17. Born To Be Blue (05:15)

Exact Audio Copy V1.6 from 23. October 2020

EAC extraction logfile from 10. October 2022, 12:26

Chet Baker / Born to Be Blue

Used drive : HL-DT-STDVDRAM GP60NB60 Adapter: 1 ID: 0

Read mode : Secure
Utilize accurate stream : Yes
Defeat audio cache : Yes
Make use of C2 pointers : No

Read offset correction : 6
Overread into Lead-In and Lead-Out : No
Fill up missing offset samples with silence : Yes
Delete leading and trailing silent blocks : No
Null samples used in CRC calculations : Yes
Used interface : Native Win32 interface for Win NT & 2000
Gap handling : Appended to previous track

Used output format : User Defined Encoder
Selected bitrate : 896 kBit/s
Quality : High
Add ID3 tag : No
Command line compressor : C:\Program Files\Exact Audio Copy\Flac\flac.exe
Additional command line options : -8 -V -T "ARTIST=%artist%" -T "TITLE=%title%" -T "ALBUM=%albumtitle%" -T "DATE=%year%" -T "TRACKNUMBER=%tracknr%" -T "GENRE=%genre%" -T "PERFORMER=%albuminterpret%" -T "COMPOSER=%composer%" -T "ALBUMARTIST=%albumartist%" -T "DISCNUMBER=%cdnumber%" -T "TOTALDISCS=%totalcds%" -T "TOTALTRACKS=%numtracks%" -T "COMMENT=%comment%" %source% -o %dest%


TOC of the extracted CD

Track | Start | Length | Start sector | End sector
––––––––––––––––––––––––––––-
1 | 0:00.00 | 2:20.18 | 0 | 10517
2 | 2:20.18 | 3:31.72 | 10518 | 26414
3 | 5:52.15 | 3:44.27 | 26415 | 43241
4 | 9:36.42 | 4:28.12 | 43242 | 63353
5 | 14:04.54 | 2:59.62 | 63354 | 76840
6 | 17:04.41 | 2:23.17 | 76841 | 87582
7 | 19:27.58 | 2:51.47 | 87583 | 100454
8 | 22:19.30 | 5:07.37 | 100455 | 123516
9 | 27:26.67 | 3:50.38 | 123517 | 140804
10 | 31:17.30 | 2:16.46 | 140805 | 151050
11 | 33:34.01 | 10:05.29 | 151051 | 196454
12 | 43:39.30 | 3:03.62 | 196455 | 210241
13 | 46:43.17 | 12:04.25 | 210242 | 264566
14 | 58:47.42 | 4:34.54 | 264567 | 285170
15 | 63:22.21 | 3:46.37 | 285171 | 302157
16 | 67:08.58 | 5:03.47 | 302158 | 324929
17 | 72:12.30 | 5:15.38 | 324930 | 348592


Track 1

Filename C:\EAC\Chet Baker - 2017 - Born To Be Blue, The Music Of His Life [CD-FLAC]\01. My Funny Valentine #1.wav

Pre-gap length 0:00:02.00

Peak level 64.3 %
Extraction speed 1.1 X
Track quality 100.0 %
Test CRC 49CACC47
Copy CRC 49CACC47
Accurately ripped (confidence 3) [87BA765A] (AR v2)
Copy OK

Track 2

Filename C:\EAC\Chet Baker - 2017 - Born To Be Blue, The Music Of His Life [CD-FLAC]\02. Over the Rainbow.wav

Pre-gap length 0:00:02.00

Peak level 88.6 %
Extraction speed 1.3 X
Track quality 100.0 %
Test CRC 848DE48D
Copy CRC 848DE48D
Accurately ripped (confidence 3) [CB255B16] (AR v2)
Copy OK

Track 3

Filename C:\EAC\Chet Baker - 2017 - Born To Be Blue, The Music Of His Life [CD-FLAC]\03. Let's Get Lost.wav

Pre-gap length 0:00:02.00

Peak level 78.3 %
Extraction speed 1.5 X
Track quality 100.0 %
Test CRC 36E75BCE
Copy CRC 36E75BCE
Accurately ripped (confidence 3) [5C944F9F] (AR v2)
Copy OK

Track 4

Filename C:\EAC\Chet Baker - 2017 - Born To Be Blue, The Music Of His Life [CD-FLAC]\04. I've Never Been in Love Before.wav

Pre-gap length 0:00:02.00

Peak level 48.4 %
Extraction speed 1.6 X
Track quality 100.0 %
Test CRC 5A701FE7
Copy CRC 5A701FE7
Accurately ripped (confidence 3) [7F884B26] (AR v2)
Copy OK

Track 5

Filename C:\EAC\Chet Baker - 2017 - Born To Be Blue, The Music Of His Life [CD-FLAC]\05. There Will Never Be Another You.wav

Pre-gap length 0:00:02.00

Peak level 94.8 %
Extraction speed 1.6 X
Track quality 100.0 %
Test CRC 13B41B4E
Copy CRC 13B41B4E
Accurately ripped (confidence 3) [77971A53] (AR v2)
Copy OK

Track 6

Filename C:\EAC\Chet Baker - 2017 - Born To Be Blue, The Music Of His Life [CD-FLAC]\06. Go Down Sunshine.wav

Pre-gap length 0:00:02.00

Peak level 98.4 %
Extraction speed 1.6 X
Track quality 100.0 %
Test CRC 93037C3E
Copy CRC 93037C3E
Accurately ripped (confidence 3) [F6F0AAC2] (AR v2)
Copy OK

Track 7

Filename C:\EAC\Chet Baker - 2017 - Born To Be Blue, The Music Of His Life [CD-FLAC]\07. The Thrill Is Gone.wav

Pre-gap length 0:00:02.00

Peak level 81.0 %
Extraction speed 1.1 X
Track quality 99.9 %
Test CRC 89633CC6
Copy CRC 89633CC6
Accurately ripped (confidence 3) [B15D9719] (AR v2)
Copy OK

Track 8

Filename C:\EAC\Chet Baker - 2017 - Born To Be Blue, The Music Of His Life [CD-FLAC]\08. Everything Happens to Me.wav

Pre-gap length 0:00:02.00

Peak level 83.8 %
Extraction speed 1.9 X
Track quality 100.0 %
Test CRC AB4CB655
Copy CRC AB4CB655
Accurately ripped (confidence 3) [8303FED5] (AR v2)
Copy OK

Track 9

Filename C:\EAC\Chet Baker - 2017 - Born To Be Blue, The Music Of His Life [CD-FLAC]\09. There's a Small Hotel.wav

Pre-gap length 0:00:02.00

Peak level 97.8 %
Extraction speed 2.0 X
Track quality 100.0 %
Test CRC 10829663
Copy CRC 10829663
Accurately ripped (confidence 3) [A1C4D0D2] (AR v2)
Copy OK

Track 10

Filename C:\EAC\Chet Baker - 2017 - Born To Be Blue, The Music Of His Life [CD-FLAC]\10. Born to Be Blue.wav

Pre-gap length 0:00:02.00

Peak level 92.2 %
Extraction speed 1.8 X
Track quality 100.0 %
Test CRC 94653C5D
Copy CRC 94653C5D
Accurately ripped (confidence 3) [EE15C8AB] (AR v2)
Copy OK

Track 11

Filename C:\EAC\Chet Baker - 2017 - Born To Be Blue, The Music Of His Life [CD-FLAC]\11. Ballata in Forma di Blues.wav

Pre-gap length 0:00:02.00

Peak level 99.8 %
Extraction speed 2.3 X
Track quality 100.0 %
Test CRC 0DD61484
Copy CRC 0DD61484
Accurately ripped (confidence 3) [C8ABE84D] (AR v2)
Copy OK

Track 12

Filename C:\EAC\Chet Baker - 2017 - Born To Be Blue, The Music Of His Life [CD-FLAC]\12. Someone to Watch over Me.wav

Pre-gap length 0:00:02.00

Peak level 83.6 %
Extraction speed 2.2 X
Track quality 100.0 %
Test CRC 9ABB19B5
Copy CRC 9ABB19B5
Accurately ripped (confidence 3) [92CD703C] (AR v2)
Copy OK

Track 13

Filename C:\EAC\Chet Baker - 2017 - Born To Be Blue, The Music Of His Life [CD-FLAC]\13. Haitian Fight Song.wav

Pre-gap length 0:00:02.00

Peak level 99.1 %
Extraction speed 2.6 X
Track quality 100.0 %
Test CRC 5665BE14
Copy CRC 5665BE14
Accurately ripped (confidence 3) [57F5A48F] (AR v2)
Copy OK

Track 14

Filename C:\EAC\Chet Baker - 2017 - Born To Be Blue, The Music Of His Life [CD-FLAC]\14. Deep in a Dream.wav

Pre-gap length 0:00:02.00

Peak level 86.3 %
Extraction speed 2.6 X
Track quality 100.0 %
Test CRC 05B1FA6E
Copy CRC 05B1FA6E
Accurately ripped (confidence 3) [14F6D092] (AR v2)
Copy OK

Track 15

Filename C:\EAC\Chet Baker - 2017 - Born To Be Blue, The Music Of His Life [CD-FLAC]\15. Grey December.wav

Pre-gap length 0:00:02.00

Peak level 100.0 %
Extraction speed 2.5 X
Track quality 100.0 %
Test CRC 279A424F
Copy CRC 279A424F
Accurately ripped (confidence 3) [C6CF63F6] (AR v2)
Copy OK

Track 16

Filename C:\EAC\Chet Baker - 2017 - Born To Be Blue, The Music Of His Life [CD-FLAC]\16. My Funny Valentine #2.wav

Pre-gap length 0:00:02.00

Peak level 91.2 %
Extraction speed 2.7 X
Track quality 100.0 %
Test CRC BFAF1FBA
Copy CRC BFAF1FBA
Accurately ripped (confidence 3) [ECE31859] (AR v2)
Copy OK

Track 17

Filename C:\EAC\Chet Baker - 2017 - Born To Be Blue, The Music Of His Life [CD-FLAC]\17. Born to Be Blue.wav

Pre-gap length 0:00:02.00

Peak level 96.5 %
Extraction speed 2.8 X
Track quality 100.0 %
Test CRC D1F14A09
Copy CRC D1F14A09
Accurately ripped (confidence 3) [ACC2721E] (AR v2)
Copy OK


All tracks accurately ripped

No errors occurred

End of status report

==== Log checksum E6976CE5911898775181F5625854A8EAA689F6D711BD1EFEEF34C50226E2F221 ====

Thanks to the Original ripper !