Tags
Language
Tags
June 2024
Su Mo Tu We Th Fr Sa
26 27 28 29 30 31 1
2 3 4 5 6 7 8
9 10 11 12 13 14 15
16 17 18 19 20 21 22
23 24 25 26 27 28 29
30 1 2 3 4 5 6

Claudio Arrau - The Complete RCA Victor and Columbia Album Collection (2016)

Posted By: delpotro
Claudio Arrau - The Complete RCA Victor and Columbia Album Collection (2016)

Claudio Arrau - The Complete RCA Victor and Columbia Album Collection (2016)
EAC Rip | FLAC (tracks+log+.cue) - 1,7 Gb | Artwork - 20 Mb | 10:03:23
Classical | Label: Sony Classical

Claudio Arrau (1903–1991) was a singular figure among the great pianists of his time, who strived to fuse the best that nineteenth- and twentieth-century performing traditions had to offer. Arrau’s 1941–1952 American recordings for Victor and Columbia represent the pianist on prime form at one of the peaks of his long career. Sony brings this body of work together for the first time in a comprehensive edition, vividly remastered from the original sources.

The Complete Victor and Columbia Album Collection reflects Arrau’s textually scrupulous yet highly personal mastery of many styles had matured and ripened, while retaining the fire and ardency of his youth. Arrau’s Mozart, Weber and Chopin probe beyond the music’s surface charm, as do the luminous and full-bodied Spanish and French Impressionist selections. Cumulative momentum and thoughtful detail characterize Arrau’s Beethoven and Schumann while the extraordinary technical finish of his Liszt transcends mere virtuosity and bravura.

Born in Chillán, Chile, on February 6, 1903, Arrau gave his first recital at five. Three years later the Chilean government awarded the prodigy a ten-year grant to study in Germany. Martin Krause, one of Liszt’s last pupils, nurtured the young pianist, gave him daily lessons, supervised his practice, and took him to concerts, museums, and the opera. At 24 Arrau won the 1927 International Geneva Prize, and embarked on his legendary cyclical programs encompassing the complete sonatas of Beethoven, Mozart, Schubert and Weber, plus all of Bach’s solo keyboard in twelve Berlin concerts. A triumphant 1941 Carnegie Hall recital launched Arrau’s American career, and his international profile came into focus with numerous worldwide tours, honors, prizes and recording sessions that continued up until his death on June 9, 1991 in Mürzzuschlag, Austria.
Tracklist:
Disc 1 (01:02:50)
1. Claudio Arrau – Piano Sonata No. 5 in G Major, K. 283 (K. 189h): I. Allegro (04:29)
2. Claudio Arrau – Piano Sonata No. 5 in G Major, K. 283 (K. 189h): II. Andante - Attaca (04:57)
3. Claudio Arrau – Piano Sonata No. 5 in G Major, K. 283 (K. 189h): III. Presto (05:11)
4. Claudio Arrau – Piano Sonata No. 18 in D Major, K. 576: I. Allegro (04:46)
5. Claudio Arrau – Piano Sonata No. 18 in D Major, K. 576: II. Adagio (05:36)
6. Claudio Arrau – Piano Sonata No. 18 in D Major, K. 576: III. Allegretto (04:01)
7. Claudio Arrau – Fantasia in C Minor, K. 475: I. Adagio (05:20)
8. Claudio Arrau – Fantasia in C Minor, K. 475: II. Allegro - Andantino (03:46)
9. Claudio Arrau – Fantasia in C Minor, K. 475: III. Più allegro - Tempo I (03:20)
10. Claudio Arrau – Invention No. 8 in F Major, BWV 779 (Remastered) (00:52)
11. Claudio Arrau – Sinfonia No. 6 in E Major, BWV 792 (Remastered) (00:57)
12. Claudio Arrau – Sinfonia No. 15 in B Minor, BWV 801 (Remastered) (01:45)
13. Claudio Arrau – Invention No. 2 in C Minor, BWV 773 (Remastered) (01:40)
14. Claudio Arrau – Sinfonia No. 2 in C Minor, BWV 788 (Remastered) (01:55)
15. Claudio Arrau – Invention No. 6 in E Major, BWV 777 (Remastered) (03:11)
16. Claudio Arrau – Chromatic Fantasy and Fugue in D Minor, BWV 903: I. Fantasia - Recitativo (Remastered) (06:38)
17. Claudio Arrau – Chromatic Fantasy and Fugue in D Minor, BWV 903: II. Fugue (Remastered) (04:26)

Disc 2 (57:21)
1. Claudio Arrau – Piano Sonata No. 1 in C Major, J. 138: I. Allegro (05:53)
2. Claudio Arrau – Piano Sonata No. 1 in C Major, J. 138: II. Adagio (06:07)
3. Claudio Arrau – Piano Sonata No. 1 in C Major, J. 138: III. Minuetto. Allegro (05:04)
4. Claudio Arrau – Piano Sonata No. 1 in C Major, J. 138: IV. Rondo. Presto "Perpetuum Mobile" (03:39)
5. Claudio Arrau – 6 Variations on an Original Theme in F Major, Op. 34: Theme. Adagio (01:40)
6. Claudio Arrau – 6 Variations on an Original Theme in F Major, Op. 34: Variation I (01:34)
7. Claudio Arrau – 6 Variations on an Original Theme in F Major, Op. 34: Variation II (00:59)
8. Claudio Arrau – 6 Variations on an Original Theme in F Major, Op. 34: Variation III (01:18)
9. Claudio Arrau – 6 Variations on an Original Theme in F Major, Op. 34: Variation IV (01:45)
10. Claudio Arrau – 6 Variations on an Original Theme in F Major, Op. 34: Variation V (01:44)
11. Claudio Arrau – 6 Variations on an Original Theme in F Major, Op. 34: Variation VI and Coda (04:08)
12. Claudio Arrau – Variations and Fugue in E-Flat Major, Op. 35 "Eroica Variations": Introduzione col basso del tema. Allegretto vivace - Tema (03:15)
13. Claudio Arrau – Variations and Fugue in E-Flat Major, Op. 35 "Eroica Variations": Variation I (00:32)
14. Claudio Arrau – Variations and Fugue in E-Flat Major, Op. 35 "Eroica Variations": Variation II (00:45)
15. Claudio Arrau – Variations and Fugue in E-Flat Major, Op. 35 "Eroica Variations": Variation III (00:41)
16. Claudio Arrau – Variations and Fugue in E-Flat Major, Op. 35 "Eroica Variations": Variation IV (00:32)
17. Claudio Arrau – Variations and Fugue in E-Flat Major, Op. 35 "Eroica Variations": Variation V (01:02)
18. Claudio Arrau – Variations and Fugue in E-Flat Major, Op. 35 "Eroica Variations": Variation VI (00:33)
19. Claudio Arrau – Variations and Fugue in E-Flat Major, Op. 35 "Eroica Variations": Variation VII (00:36)
20. Claudio Arrau – Variations and Fugue in E-Flat Major, Op. 35 "Eroica Variations": Variation VIII (01:08)
21. Claudio Arrau – Variations and Fugue in E-Flat Major, Op. 35 "Eroica Variations": Variation IX (00:39)
22. Claudio Arrau – Variations and Fugue in E-Flat Major, Op. 35 "Eroica Variations": Variation X (00:37)
23. Claudio Arrau – Variations and Fugue in E-Flat Major, Op. 35 "Eroica Variations": Variation XI (00:47)
24. Claudio Arrau – Variations and Fugue in E-Flat Major, Op. 35 "Eroica Variations": Variation XII (00:42)
25. Claudio Arrau – Variations and Fugue in E-Flat Major, Op. 35 "Eroica Variations": Variation XIII (00:41)
26. Claudio Arrau – Variations and Fugue in E-Flat Major, Op. 35 "Eroica Variations": Variation XIV (01:27)
27. Claudio Arrau – Variations and Fugue in E-Flat Major, Op. 35 "Eroica Variations": Variation XV (04:51)
28. Claudio Arrau – Variations and Fugue in E-Flat Major, Op. 35 "Eroica Variations": Finale alla fugue. Con brio (04:42)

Disc 3 (30:14)
1. Claudio Arrau, Karl Krueger & Detroit Symphony Orchestra – Piano Concerto in A Minor, Op. 54: I. Allegro affettuoso (14:55)
2. Claudio Arrau, Karl Krueger & Detroit Symphony Orchestra – Piano Concerto in A Minor, Op. 54: II. Intermezzo. Andantino grazioso (05:09)
3. Claudio Arrau, Karl Krueger & Detroit Symphony Orchestra – Piano Concerto in A Minor, Op. 54: III. Allegro vivace (10:10)

Disc 4 (34:28)
1. Claudio Arrau & Chicago Symphony Orchestra – Burleske for Piano and Orchestra in D Minor, TrV 145 (Live) (18:22)
2. Claudio Arrau, Desire Defauw & Chicago Symphony Orchestra – Konzertstück for Piano and Orchestra in F Minor, Op. 79, J. 282: I. Larghetto affettuoso (04:59)
3. Claudio Arrau, Desire Defauw & Chicago Symphony Orchestra – Konzertstück for Piano and Orchestra in F Minor, Op. 79, J. 282: II. Allegro passionato (03:56)
4. Claudio Arrau, Desire Defauw & Chicago Symphony Orchestra – Konzertstück for Piano and Orchestra in F Minor, Op. 79, J. 282: III. Adagio - Tempo di marcia (07:11)

Disc 5 (35:56)
1. Claudio Arrau – Iberia, Book I: I. Evocación (05:51)
2. Claudio Arrau – Iberia, Book I: II. El Puerto (04:15)
3. Claudio Arrau – Iberia, Book I: III. El Corpus Christi en Sevilla (07:12)
4. Claudio Arrau – Iberia, Book II: I. Rondeña (06:19)
5. Claudio Arrau – Iberia, Book II: II. Almería (07:57)
6. Claudio Arrau – Iberia, Book II: III. Triana (04:22)

Disc 6 (54:43)
1. Claudio Arrau – Pour le piano, L. 95: I. Prélude. Assez animé et très rythmé (03:54)
2. Claudio Arrau – Pour le piano, L. 95: II. Sarabande. Avec une élégance grave et lente (04:47)
3. Claudio Arrau – Pour le piano, L. 95: III. Toccata. Vif (03:49)
4. Claudio Arrau – Estampes, L. 100: I. Pagodes. Moderement anime (04:30)
5. Claudio Arrau – Estampes, L. 100: II. La soirée dans Grenade. Mouvement de Habanera (04:21)
6. Claudio Arrau – Estampes, L. 100: III. Jardins sous la pluie. Net et vif (03:37)
7. Claudio Arrau – Images, Book I, L. 110: I. Reflets dans l'eau (04:29)
8. Claudio Arrau – Images, Book I, L. 110: II. Hommage à Rameau (07:08)
9. Claudio Arrau – Images, Book I, L. 110: III. Mouvement (03:10)
10. Claudio Arrau – Images, Book II, L. 111: I. Cloches à travers les feuilles (05:33)
11. Claudio Arrau – Images, Book II, L. 111: II. Et la lune descend sur le temple qui fut (05:25)
12. Claudio Arrau – Images, Book II, L. 111: III. Poissons d'or (04:00)

Disc 7 (59:25)
1. Claudio Arrau, Eugene Ormandy & The Philadelphia Orchestra – Piano Concerto No. 3 in C Minor, Op. 37: I. Allegro con brio (15:50)
2. Claudio Arrau, Eugene Ormandy & The Philadelphia Orchestra – Piano Concerto No. 3 in C Minor, Op. 37: II. Largo (10:38)
3. Claudio Arrau, Eugene Ormandy & The Philadelphia Orchestra – Piano Concerto No. 3 in C Minor, Op. 37: III. Rondo. Allegro (08:34)
4. Claudio Arrau – Piano Sonata No. 21 in C Major, Op. 53 "Waldstein": I. Allegro con brio (10:46)
5. Claudio Arrau – Piano Sonata No. 21 in C Major, Op. 53 "Waldstein": II. Introduzione. Adagio molto (04:02)
6. Claudio Arrau – Piano Sonata No. 21 in C Major, Op. 53 "Waldstein": III. Rondo. Allegretto moderato (09:35)

Disc 8 (39:05)
1. Claudio Arrau – 24 Préludes, Op. 28: No. 1 in C Major (00:39)
2. Claudio Arrau – 24 Préludes, Op. 28: No. 2 in A Minor (02:04)
3. Claudio Arrau – 24 Préludes, Op. 28: No. 3 in G Major (01:03)
4. Claudio Arrau – 24 Préludes, Op. 28: No. 4 in E Minor (02:02)
5. Claudio Arrau – 24 Préludes, Op. 28: No. 5 in D Major (00:36)
6. Claudio Arrau – 24 Préludes, Op. 28: No. 6 in B Minor (02:20)
7. Claudio Arrau – 24 Préludes, Op. 28: No. 7 in A Major (00:48)
8. Claudio Arrau – 24 Préludes, Op. 28: No. 8 in F-Sharp Minor (01:50)
9. Claudio Arrau – 24 Préludes, Op. 28: No. 9 in E Major (01:25)
10. Claudio Arrau – 24 Préludes, Op. 28: No. 10 in C-Sharp Minor (00:29)
11. Claudio Arrau – 24 Préludes, Op. 28: No. 11 in B Major (00:35)
12. Claudio Arrau – 24 Préludes, Op. 28: No. 12 in G-Sharp Minor (01:06)
13. Claudio Arrau – 24 Préludes, Op. 28: No. 13 in F-Sharp Major (03:30)
14. Claudio Arrau – 24 Préludes, Op. 28: No. 15 in D-Flat Major (05:31)
15. Claudio Arrau – 24 Préludes, Op. 28: No. 14 in E-Flat Minor (00:46)
16. Claudio Arrau – 24 Préludes, Op. 28: No. 16 in B-Flat Minor (01:03)
17. Claudio Arrau – 24 Préludes, Op. 28: No. 17 in A-Flat Major (03:27)
18. Claudio Arrau – 24 Préludes, Op. 28: No. 18 in F Minor (00:49)
19. Claudio Arrau – 24 Préludes, Op. 28: No. 19 in E-Flat Major (01:17)
20. Claudio Arrau – 24 Préludes, Op. 28: No. 20 in C Minor (01:37)
21. Claudio Arrau – 24 Préludes, Op. 28: No. 21 in B-Flat Major (02:06)
22. Claudio Arrau – 24 Préludes, Op. 28: No. 22 in G Minor (00:50)
23. Claudio Arrau – 24 Préludes, Op. 28: No. 23 in F Major (00:54)
24. Claudio Arrau – 24 Préludes, Op. 28: No. 24 in D Minor (02:18)

Disc 9 (34:56)
1. Claudio Arrau, Eugene Ormandy & The Philadelphia Orchestra – Piano Concerto No. 1 in E-Flat Major, S. 124: I. Allegro maestoso (05:39)
2. Claudio Arrau, Eugene Ormandy & The Philadelphia Orchestra – Piano Concerto No. 1 in E-Flat Major, S. 124: II. Quasi Adagio (05:23)
3. Claudio Arrau, Eugene Ormandy & The Philadelphia Orchestra – Piano Concerto No. 1 in E-Flat Major, S. 124: III. Allegretto vivace - Allegro animato (04:12)
4. Claudio Arrau, Eugene Ormandy & The Philadelphia Orchestra – Piano Concerto No. 1 in E-Flat Major, S. 124: IV. Allegro marziale animato (04:04)
5. Claudio Arrau, Eugene Ormandy & The Philadelphia Orchestra – Fantasy on Hungarian Themes , S. 123: Andante mesto (03:33)
6. Claudio Arrau, Eugene Ormandy & The Philadelphia Orchestra – Fantasy on Hungarian Themes , S. 123: Allegro eroico - Piú animato (02:48)
7. Claudio Arrau, Eugene Ormandy & The Philadelphia Orchestra – Fantasy on Hungarian Themes , S. 123: Molto adagio - Quasi fantasia - Allegretto alla zingarese - Molto animato (05:50)
8. Claudio Arrau, Eugene Ormandy & The Philadelphia Orchestra – Fantasy on Hungarian Themes , S. 123: Vivace assai - Prestissimo (03:27)

Disc 10 (36:57)
1. Claudio Arrau – Kreisleriana, Op. 16: I. Äußerst bewegt (02:17)
2. Claudio Arrau – Kreisleriana, Op. 16: II. Sehr innig und nicht zu rasch (09:41)
3. Claudio Arrau – Kreisleriana, Op. 16: III. Sehr aufgeregt (04:25)
4. Claudio Arrau – Kreisleriana, Op. 16: IV. Sehr langsam (03:27)
5. Claudio Arrau – Kreisleriana, Op. 16: V. Sehr lebhaft (02:53)
6. Claudio Arrau – Kreisleriana, Op. 16: VI. Sehr langsam (04:03)
7. Claudio Arrau – Kreisleriana, Op. 16: VII. Sehr rasch (02:21)
8. Claudio Arrau – Kreisleriana, Op. 16: VIII. Schnell und spielend (03:20)
9. Claudio Arrau – Arabeske, Op. 18 (04:30)

Disc 11 (01:16:28)
1. Claudio Arrau & The Little Orchestra Society – Andante spianato et grande polonaise brillante in E-Flat Major, Op. 22 (13:07)
2. Claudio Arrau – Waltz No. 1 in E-Flat Major, Op. 18 "Grande valse brillante" (04:18)
3. Claudio Arrau – Bagatelle in A Minor, WoO 59 "Für Elise" (03:25)
4. Claudio Arrau – Allegretto in C Minor, D. 915 (04:14)
5. Claudio Arrau – Gaspard de la nuit, M. 55: I. Ondine (06:59)
6. Claudio Arrau – Gaspard de la nuit, M. 55: II. Le gibet (05:59)
7. Claudio Arrau – Hungarian Rhapsodies, S. 244: No. 8 in F-Sharp Minor "Capriccio" (06:19)
8. Claudio Arrau – Hungarian Rhapsodies, S. 244: No. 9 in E-Flat Major "The Carnival of Pest" (10:55)
9. Claudio Arrau – Hungarian Rhapsodies, S. 244: No. 10 in E Major (05:31)
10. Claudio Arrau – Hungarian Rhapsodies, S. 244: No. 11 in A Minor (06:38)
11. Claudio Arrau – Hungarian Rhapsodies, S. 244: No. 13 in A Minor (09:03)

Disc 12 (01:18:32)
1. Claudio Arrau – Goldberg Variations, BWV 988: Aria (04:59)
2. Claudio Arrau – Goldberg Variations, BWV 988: Variation I (01:46)
3. Claudio Arrau – Goldberg Variations, BWV 988: Variation II (01:27)
4. Claudio Arrau – Goldberg Variations, BWV 988: Variation III. Canon at the Unison (01:53)
5. Claudio Arrau – Goldberg Variations, BWV 988: Variation IV (01:05)
6. Claudio Arrau – Goldberg Variations, BWV 988: Variation V (01:32)
7. Claudio Arrau – Goldberg Variations, BWV 988: Variation VI. Canon at the Second (01:37)
8. Claudio Arrau – Goldberg Variations, BWV 988: Variation VII (01:37)
9. Claudio Arrau – Goldberg Variations, BWV 988: Variation VIII (01:48)
10. Claudio Arrau – Goldberg Variations, BWV 988: Variation IX. Canon at the Third (02:13)
11. Claudio Arrau – Goldberg Variations, BWV 988: Variation X (01:20)
12. Claudio Arrau – Goldberg Variations, BWV 988: Variation XI (01:44)
13. Claudio Arrau – Goldberg Variations, BWV 988: Variation XII - Canon at the Fourth (03:52)
14. Claudio Arrau – Goldberg Variations, BWV 988: Variation XIII (05:18)
15. Claudio Arrau – Goldberg Variations, BWV 988: Variation XIV (02:09)
16. Claudio Arrau – Goldberg Variations, BWV 988: Variation XV. Canon at the Fifth (04:12)
17. Claudio Arrau – Goldberg Variations, BWV 988: Variation XVI. Overture (02:52)
18. Claudio Arrau – Goldberg Variations, BWV 988: Variation XVII (01:58)
19. Claudio Arrau – Goldberg Variations, BWV 988: Variation XVIII. Canon at the Sixth (01:10)
20. Claudio Arrau – Goldberg Variations, BWV 988: Variation XIX (01:03)
21. Claudio Arrau – Goldberg Variations, BWV 988: Variation XX (01:59)
22. Claudio Arrau – Goldberg Variations, BWV 988: Variation XXI. Canon at the Seventh (03:05)
23. Claudio Arrau – Goldberg Variations, BWV 988: Variation XXII (01:22)
24. Claudio Arrau – Goldberg Variations, BWV 988: Variation XXIII (02:01)
25. Claudio Arrau – Goldberg Variations, BWV 988: Variation XXIV. Canon at the Octave (03:20)
26. Claudio Arrau – Goldberg Variations, BWV 988: Variation XXV (08:29)
27. Claudio Arrau – Goldberg Variations, BWV 988: Variation XXVI (02:08)
28. Claudio Arrau – Goldberg Variations, BWV 988: Variation XXVII. Canon at the Ninth (01:55)
29. Claudio Arrau – Goldberg Variations, BWV 988: Variation XXVIII (02:25)
30. Claudio Arrau – Goldberg Variations, BWV 988: Variation XXIX (02:09)
31. Claudio Arrau – Goldberg Variations, BWV 988: Variation XXX.Quodlibet (01:40)
32. Claudio Arrau – Goldberg Variations, BWV 988: Aria da capo (02:24)

Exact Audio Copy V1.3 from 2. September 2016

EAC extraction logfile from 15. January 2020, 13:43

Claudio Arrau / Claudio Arrau - The Complete Victor and Columbia Album Collection

Used drive : SlimtypeeBAU108 6 L Adapter: 1 ID: 1

Read mode : Secure
Utilize accurate stream : Yes
Defeat audio cache : Yes
Make use of C2 pointers : No

Read offset correction : 6
Overread into Lead-In and Lead-Out : No
Fill up missing offset samples with silence : Yes
Delete leading and trailing silent blocks : No
Null samples used in CRC calculations : Yes
Used interface : Native Win32 interface for Win NT & 2000
Gap handling : Appended to previous track

Used output format : User Defined Encoder
Selected bitrate : 896 kBit/s
Quality : High
Add ID3 tag : No
Command line compressor : C:\Program Files (x86)\Exact Audio Copy\FLAC\FLAC.EXE
Additional command line options : -6 -V -T "ARTIST=%artist%" -T "TITLE=%title%" -T "ALBUM=%albumtitle%" -T "DATE=%year%" -T "TRACKNUMBER=%tracknr%" -T "GENRE=%genre%" -T "COMMENT=%comment%" -T "BAND=%albuminterpret%" -T "ALBUMARTIST=%albuminterpret%" -T "COMPOSER=%composer%" %haslyrics%–tag-from-file=LYRICS="%lyricsfile%"%haslyrics% -T "DISCNUMBER=%cdnumber%" -T "TOTALDISCS=%totalcds%" -T "TOTALTRACKS=%numtracks%" %hascover%–picture="%coverfile%"%hascover% %source% -o %dest%


TOC of the extracted CD

Track | Start | Length | Start sector | End sector
––––––––––––––––––––––––––––-
1 | 0:00.00 | 4:29.48 | 0 | 20222
2 | 4:29.48 | 4:57.67 | 20223 | 42564
3 | 9:27.40 | 5:16.12 | 42565 | 66276
4 | 14:43.52 | 4:46.31 | 66277 | 87757
5 | 19:30.08 | 5:36.52 | 87758 | 113009
6 | 25:06.60 | 4:05.49 | 113010 | 131433
7 | 29:12.34 | 5:20.29 | 131434 | 155462
8 | 34:32.63 | 3:46.20 | 155463 | 172432
9 | 38:19.08 | 3:25.36 | 172433 | 187843
10 | 41:44.44 | 0:52.50 | 187844 | 191793
11 | 42:37.19 | 0:57.55 | 191794 | 196123
12 | 43:34.74 | 1:45.13 | 196124 | 204011
13 | 45:20.12 | 1:40.22 | 204012 | 211533
14 | 47:00.34 | 1:55.43 | 211534 | 220201
15 | 48:56.02 | 3:14.20 | 220202 | 234771
16 | 52:10.22 | 6:38.01 | 234772 | 264622
17 | 58:48.23 | 4:26.57 | 264623 | 284629


Track 1

Filename Y:\_orp\arrau\CD1\01. Piano Sonata No. 5 in G Major, K. 283 (K. 189h) I. Allegro.wav

Pre-gap length 0:00:02.00

Peak level 86.3 %
Extraction speed 2.6 X
Track quality 100.0 %
Test CRC 32C306EB
Copy CRC 32C306EB
Copy OK

Track 2

Filename Y:\_orp\arrau\CD1\02. Piano Sonata No. 5 in G Major, K. 283 (K. 189h) II. Andante - Attaca.wav

Peak level 79.3 %
Extraction speed 3.0 X
Track quality 100.0 %
Test CRC A66E7BD9
Copy CRC A66E7BD9
Copy OK

Track 3

Filename Y:\_orp\arrau\CD1\03. Piano Sonata No. 5 in G Major, K. 283 (K. 189h) III. Presto.wav

Peak level 98.2 %
Extraction speed 3.3 X
Track quality 100.0 %
Test CRC DA927024
Copy CRC DA927024
Copy OK

Track 4

Filename Y:\_orp\arrau\CD1\04. Piano Sonata No. 18 in D Major, K. 576 I. Allegro.wav

Pre-gap length 0:00:04.45

Peak level 63.1 %
Extraction speed 3.5 X
Track quality 100.0 %
Test CRC 78166B72
Copy CRC 78166B72
Copy OK

Track 5

Filename Y:\_orp\arrau\CD1\05. Piano Sonata No. 18 in D Major, K. 576 II. Adagio.wav

Peak level 41.8 %
Extraction speed 3.9 X
Track quality 100.0 %
Test CRC E16282D3
Copy CRC E16282D3
Copy OK

Track 6

Filename Y:\_orp\arrau\CD1\06. Piano Sonata No. 18 in D Major, K. 576 III. Allegretto.wav

Peak level 87.6 %
Extraction speed 3.4 X
Track quality 99.9 %
Test CRC 0E185F77
Copy CRC 0E185F77
Copy OK

Track 7

Filename Y:\_orp\arrau\CD1\07. Fantasia in C Minor, K. 475 I. Adagio.wav

Pre-gap length 0:00:04.60

Peak level 66.2 %
Extraction speed 3.8 X
Track quality 99.9 %
Test CRC 31C2F8F4
Copy CRC 31C2F8F4
Copy OK

Track 8

Filename Y:\_orp\arrau\CD1\08. Fantasia in C Minor, K. 475 II. Allegro - Andantino.wav

Peak level 89.3 %
Extraction speed 4.3 X
Track quality 100.0 %
Test CRC B0C49A57
Copy CRC B0C49A57
Copy OK

Track 9

Filename Y:\_orp\arrau\CD1\09. Fantasia in C Minor, K. 475 III. Allegro - Adagio.wav

Peak level 95.0 %
Extraction speed 3.7 X
Track quality 99.9 %
Test CRC 2E397119
Copy CRC 2E397119
Copy OK

Track 10

Filename Y:\_orp\arrau\CD1\10. Invention No. 8 in F Major, BWV 779 [Remastered].wav

Pre-gap length 0:00:04.74

Peak level 75.6 %
Extraction speed 3.1 X
Track quality 100.0 %
Test CRC C0E781EA
Copy CRC C0E781EA
Copy OK

Track 11

Filename Y:\_orp\arrau\CD1\11. Sinfonia No. 6 in E Major, BWV 792 [Remastered].wav

Peak level 69.0 %
Extraction speed 2.1 X
Track quality 99.8 %
Test CRC 033BD1FD
Copy CRC 033BD1FD
Copy OK

Track 12

Filename Y:\_orp\arrau\CD1\12. Sinfonia No. 15 in B Minor, BWV 801 [Remastered].wav

Peak level 62.3 %
Extraction speed 4.0 X
Track quality 100.0 %
Test CRC B6267C00
Copy CRC B6267C00
Copy OK

Track 13

Filename Y:\_orp\arrau\CD1\13. Invention No. 2 in C Minor, BWV 773 [Remastered].wav

Peak level 66.8 %
Extraction speed 3.9 X
Track quality 100.0 %
Test CRC 8EAF7F38
Copy CRC 8EAF7F38
Copy OK

Track 14

Filename Y:\_orp\arrau\CD1\14. Sinfonia No. 2 in C Minor, BWV 788 [Remastered].wav

Peak level 58.1 %
Extraction speed 4.2 X
Track quality 100.0 %
Test CRC 2EF14308
Copy CRC 2EF14308
Copy OK

Track 15

Filename Y:\_orp\arrau\CD1\15. Invention No. 6 in E Major, BWV 777 [Remastered].wav

Peak level 73.4 %
Extraction speed 4.7 X
Track quality 100.0 %
Test CRC 682BB75D
Copy CRC 682BB75D
Copy OK

Track 16

Filename Y:\_orp\arrau\CD1\16. Chromatic Fantasy and Fugue in D Minor, BWV 903 I. Chromatic Fantasy [Remastered].wav

Pre-gap length 0:00:02.42

Peak level 92.9 %
Extraction speed 5.3 X
Track quality 100.0 %
Test CRC 59C3E432
Copy CRC 59C3E432
Copy OK

Track 17

Filename Y:\_orp\arrau\CD1\17. Chromatic Fantasy and Fugue in D Minor, BWV 903 II. Fugue [Remastered].wav

Peak level 90.2 %
Extraction speed 5.2 X
Track quality 100.0 %
Test CRC A1AC79C6
Copy CRC A1AC79C6
Copy OK

No errors occurred

End of status report

–– CUETools DB Plugin V2.1.6

[CTDB TOCID: w4RzdhwaQlWvGmMJ5Ly.PiaXkZc-] found
Submit result: w4RzdhwaQlWvGmMJ5Ly.PiaXkZc- has been confirmed
Track | CTDB Status
1 | (35/35) Accurately ripped
2 | (35/35) Accurately ripped
3 | (35/35) Accurately ripped
4 | (35/35) Accurately ripped
5 | (35/35) Accurately ripped
6 | (35/35) Accurately ripped
7 | (35/35) Accurately ripped
8 | (35/35) Accurately ripped
9 | (35/35) Accurately ripped
10 | (35/35) Accurately ripped
11 | (35/35) Accurately ripped
12 | (35/35) Accurately ripped
13 | (35/35) Accurately ripped
14 | (35/35) Accurately ripped
15 | (35/35) Accurately ripped
16 | (35/35) Accurately ripped
17 | (35/35) Accurately ripped


==== Log checksum 58B4D21B739B686032BE420A0AA2EBB50812014A806EA23977717CD52DFBF0E1 ====
Exact Audio Copy V1.3 from 2. September 2016

EAC extraction logfile from 15. January 2020, 15:19

Claudio Arrau / Claudio Arrau - The Complete Victor and Columbia Album Collection

Used drive : SlimtypeeBAU108 6 L Adapter: 1 ID: 1

Read mode : Secure
Utilize accurate stream : Yes
Defeat audio cache : Yes
Make use of C2 pointers : No

Read offset correction : 6
Overread into Lead-In and Lead-Out : No
Fill up missing offset samples with silence : Yes
Delete leading and trailing silent blocks : No
Null samples used in CRC calculations : Yes
Used interface : Native Win32 interface for Win NT & 2000
Gap handling : Appended to previous track

Used output format : User Defined Encoder
Selected bitrate : 896 kBit/s
Quality : High
Add ID3 tag : No
Command line compressor : C:\Program Files (x86)\Exact Audio Copy\FLAC\FLAC.EXE
Additional command line options : -6 -V -T "ARTIST=%artist%" -T "TITLE=%title%" -T "ALBUM=%albumtitle%" -T "DATE=%year%" -T "TRACKNUMBER=%tracknr%" -T "GENRE=%genre%" -T "COMMENT=%comment%" -T "BAND=%albuminterpret%" -T "ALBUMARTIST=%albuminterpret%" -T "COMPOSER=%composer%" %haslyrics%–tag-from-file=LYRICS="%lyricsfile%"%haslyrics% -T "DISCNUMBER=%cdnumber%" -T "TOTALDISCS=%totalcds%" -T "TOTALTRACKS=%numtracks%" %hascover%–picture="%coverfile%"%hascover% %source% -o %dest%


TOC of the extracted CD

Track | Start | Length | Start sector | End sector
––––––––––––––––––––––––––––-
1 | 0:00.00 | 5:53.12 | 0 | 26486
2 | 5:53.12 | 6:07.56 | 26487 | 54067
3 | 12:00.68 | 5:04.30 | 54068 | 76897
4 | 17:05.23 | 3:44.28 | 76898 | 93725
5 | 20:49.51 | 1:40.28 | 93726 | 101253
6 | 22:30.04 | 1:34.35 | 101254 | 108338
7 | 24:04.39 | 0:59.47 | 108339 | 112810
8 | 25:04.11 | 1:18.04 | 112811 | 118664
9 | 26:22.15 | 1:45.25 | 118665 | 126564
10 | 28:07.40 | 1:44.73 | 126565 | 134437
11 | 29:52.38 | 4:15.09 | 134438 | 153571
12 | 34:07.47 | 3:15.49 | 153572 | 168245
13 | 37:23.21 | 0:32.40 | 168246 | 170685
14 | 37:55.61 | 0:45.30 | 170686 | 174090
15 | 38:41.16 | 0:41.41 | 174091 | 177206
16 | 39:22.57 | 0:32.08 | 177207 | 179614
17 | 39:54.65 | 1:02.02 | 179615 | 184266
18 | 40:56.67 | 0:33.23 | 184267 | 186764
19 | 41:30.15 | 0:36.18 | 186765 | 189482
20 | 42:06.33 | 1:08.05 | 189483 | 194587
21 | 43:14.38 | 0:39.23 | 194588 | 197535
22 | 43:53.61 | 0:37.72 | 197536 | 200382
23 | 44:31.58 | 0:47.16 | 200383 | 203923
24 | 45:18.74 | 0:42.21 | 203924 | 207094
25 | 46:01.20 | 0:41.52 | 207095 | 210221
26 | 46:42.72 | 1:27.44 | 210222 | 216790
27 | 48:10.41 | 4:51.03 | 216791 | 238618
28 | 53:01.44 | 4:42.63 | 238619 | 259831


Track 1

Filename Y:\_orp\arrau\CD2\01. Piano Sonata No. 1 in C Major, J. 138 I. Allegro.wav

Pre-gap length 0:00:02.00

Peak level 98.5 %
Extraction speed 2.7 X
Track quality 100.0 %
Test CRC 89927346
Copy CRC 89927346
Copy OK

Track 2

Filename Y:\_orp\arrau\CD2\02. Piano Sonata No. 1 in C Major, J. 138 II. Adagio.wav

Peak level 93.6 %
Extraction speed 3.2 X
Track quality 100.0 %
Test CRC C45865D2
Copy CRC C45865D2
Copy OK

Track 3

Filename Y:\_orp\arrau\CD2\03. Piano Sonata No. 1 in C Major, J. 138 III. Minuetto - Allegro.wav

Peak level 83.8 %
Extraction speed 3.4 X
Track quality 100.0 %
Test CRC 09182150
Copy CRC 09182150
Copy OK

Track 4

Filename Y:\_orp\arrau\CD2\04. Piano Sonata No. 1 in C Major, J. 138 IV. Rondo Presto ''Perpetuum Mobile''.wav

Peak level 89.7 %
Extraction speed 3.6 X
Track quality 100.0 %
Test CRC 62CAC7C4
Copy CRC 62CAC7C4
Copy OK

Track 5

Filename Y:\_orp\arrau\CD2\05. 6 Variations on an Original Theme in F Major, Op. 34 Theme - Adagio.wav

Pre-gap length 0:00:05.25

Peak level 31.3 %
Extraction speed 3.1 X
Track quality 100.0 %
Test CRC EEC71BA5
Copy CRC EEC71BA5
Copy OK

Track 6

Filename Y:\_orp\arrau\CD2\06. 6 Variations on an Original Theme in F Major, Op. 34 Variation I.wav

Peak level 68.0 %
Extraction speed 3.1 X
Track quality 100.0 %
Test CRC 15C1CE40
Copy CRC 15C1CE40
Copy OK

Track 7

Filename Y:\_orp\arrau\CD2\07. 6 Variations on an Original Theme in F Major, Op. 34 Variation II.wav

Peak level 53.7 %
Extraction speed 2.7 X
Track quality 100.0 %
Test CRC D0240B32
Copy CRC D0240B32
Copy OK

Track 8

Filename Y:\_orp\arrau\CD2\08. 6 Variations on an Original Theme in F Major, Op. 34 Variation III.wav

Peak level 52.5 %
Extraction speed 3.0 X
Track quality 100.0 %
Test CRC 2C632C3C
Copy CRC 2C632C3C
Copy OK

Track 9

Filename Y:\_orp\arrau\CD2\09. 6 Variations on an Original Theme in F Major, Op. 34 Variation IV.wav

Peak level 72.4 %
Extraction speed 3.4 X
Track quality 100.0 %
Test CRC 04476960
Copy CRC 04476960
Copy OK

Track 10

Filename Y:\_orp\arrau\CD2\10. 6 Variations on an Original Theme in F Major, Op. 34 Variation V.wav

Peak level 89.1 %
Extraction speed 3.5 X
Track quality 100.0 %
Test CRC F5A9A26B
Copy CRC F5A9A26B
Copy OK

Track 11

Filename Y:\_orp\arrau\CD2\11. 6 Variations on an Original Theme in F Major, Op. 34 Variation VI and Coda.wav

Peak level 82.1 %
Extraction speed 4.2 X
Track quality 100.0 %
Test CRC B1CC993E
Copy CRC B1CC993E
Copy OK

Track 12

Filename Y:\_orp\arrau\CD2\12. Variations and Fugue, Op. 35 Introduzione col basso del tema - Allegretto ….wav

Pre-gap length 0:00:06.33

Peak level 86.9 %
Extraction speed 4.2 X
Track quality 100.0 %
Test CRC 8171158E
Copy CRC 8171158E
Copy OK

Track 13

Filename Y:\_orp\arrau\CD2\13. Variations and Fugue in E-Flat Major, Op. 35 ''Eroica Variations'' Variation I.wav

Peak level 48.2 %
Extraction speed 1.4 X
Track quality 99.6 %
Test CRC AEC67275
Copy CRC AEC67275
Copy OK

Track 14

Filename Y:\_orp\arrau\CD2\14. Variations and Fugue, Op. 35 Variation II.wav

Peak level 63.9 %
Extraction speed 2.8 X
Track quality 100.0 %
Test CRC C02C0BCB
Copy CRC C02C0BCB
Copy OK

Track 15

Filename Y:\_orp\arrau\CD2\15. Variations and Fugue, Op. 35 Variation III.wav

Peak level 86.7 %
Extraction speed 2.7 X
Track quality 100.0 %
Test CRC 32DC9904
Copy CRC 32DC9904
Copy OK

Track 16

Filename Y:\_orp\arrau\CD2\16. Variations and Fugue, Op. 35 Variation IV.wav

Peak level 49.4 %
Extraction speed 2.4 X
Track quality 100.0 %
Test CRC 7831A72F
Copy CRC 7831A72F
Copy OK

Track 17

Filename Y:\_orp\arrau\CD2\17. Variations and Fugue, Op. 35 Variation V.wav

Peak level 20.8 %
Extraction speed 3.2 X
Track quality 100.0 %
Test CRC BDD4857C
Copy CRC BDD4857C
Copy OK

Track 18

Filename Y:\_orp\arrau\CD2\18. Variations and Fugue, Op. 35 Variation VI.wav

Peak level 69.4 %
Extraction speed 2.5 X
Track quality 100.0 %
Test CRC 4CBE841C
Copy CRC 4CBE841C
Copy OK

Track 19

Filename Y:\_orp\arrau\CD2\19. Variations and Fugue, Op. 35 Variation VII.wav

Peak level 72.6 %
Extraction speed 2.6 X
Track quality 100.0 %
Test CRC 3230C85C
Copy CRC 3230C85C
Copy OK

Track 20

Filename Y:\_orp\arrau\CD2\20. Variations and Fugue, Op. 35 Variation VIII.wav

Peak level 30.7 %
Extraction speed 2.3 X
Track quality 99.8 %
Test CRC 6F0C5342
Copy CRC 6F0C5342
Copy OK

Track 21

Filename Y:\_orp\arrau\CD2\21. Variations and Fugue, Op. 35 Variation IX.wav

Peak level 64.1 %
Extraction speed 2.8 X
Track quality 100.0 %
Test CRC CFF0C221
Copy CRC CFF0C221
Copy OK

Track 22

Filename Y:\_orp\arrau\CD2\22. Variations and Fugue, Op. 35 Variation X.wav

Peak level 69.5 %
Extraction speed 2.7 X
Track quality 100.0 %
Test CRC 4D4848CD
Copy CRC 4D4848CD
Copy OK

Track 23

Filename Y:\_orp\arrau\CD2\23. Variations and Fugue, Op. 35 Variation XI.wav

Peak level 41.6 %
Extraction speed 3.0 X
Track quality 100.0 %
Test CRC F73361D2
Copy CRC F73361D2
Copy OK

Track 24

Filename Y:\_orp\arrau\CD2\24. Variations and Fugue, Op. 35 Variation XII.wav

Peak level 56.4 %
Extraction speed 2.9 X
Track quality 100.0 %
Test CRC 5C3398EC
Copy CRC 5C3398EC
Copy OK

Track 25

Filename Y:\_orp\arrau\CD2\25. Variations and Fugue, Op. 35 Variation XIII.wav

Peak level 74.6 %
Extraction speed 2.9 X
Track quality 100.0 %
Test CRC 7C1FC6E7
Copy CRC 7C1FC6E7
Copy OK

Track 26

Filename Y:\_orp\arrau\CD2\26. Variations and Fugue, Op. 35 Variation XIV.wav

Peak level 20.2 %
Extraction speed 3.8 X
Track quality 100.0 %
Test CRC 5E3D2CD6
Copy CRC 5E3D2CD6
Copy OK

Track 27

Filename Y:\_orp\arrau\CD2\27. Variations and Fugue, Op. 35 Variation XV.wav

Peak level 69.4 %
Extraction speed 5.0 X
Track quality 100.0 %
Test CRC 5F129F31
Copy CRC 5F129F31
Copy OK

Track 28

Filename Y:\_orp\arrau\CD2\28. Variations and Fugue, Op. 35 Finale - Alla fuga - Con brio.wav

Peak level 89.2 %
Extraction speed 4.4 X
Track quality 99.9 %
Test CRC 96733708
Copy CRC 96733708
Copy OK

No errors occurred

End of status report

–– CUETools DB Plugin V2.1.6

[CTDB TOCID: DvrpsxHskYQi3wsugo3Nqn_IR4w-] found
Submit result: DvrpsxHskYQi3wsugo3Nqn_IR4w- has been confirmed
Track | CTDB Status
1 | (32/32) Accurately ripped
2 | (32/32) Accurately ripped
3 | (32/32) Accurately ripped
4 | (32/32) Accurately ripped
5 | (32/32) Accurately ripped
6 | (32/32) Accurately ripped
7 | (32/32) Accurately ripped
8 | (32/32) Accurately ripped
9 | (32/32) Accurately ripped
10 | (32/32) Accurately ripped
11 | (32/32) Accurately ripped
12 | (32/32) Accurately ripped
13 | (32/32) Accurately ripped
14 | (32/32) Accurately ripped
15 | (32/32) Accurately ripped
16 | (32/32) Accurately ripped
17 | (32/32) Accurately ripped
18 | (32/32) Accurately ripped
19 | (32/32) Accurately ripped
20 | (32/32) Accurately ripped
21 | (32/32) Accurately ripped
22 | (32/32) Accurately ripped
23 | (32/32) Accurately ripped
24 | (32/32) Accurately ripped
25 | (32/32) Accurately ripped
26 | (32/32) Accurately ripped
27 | (32/32) Accurately ripped
28 | (32/32) Accurately ripped


==== Log checksum 23D16A7CE3C6A1A875D718819E6A9B5E514CC80A9B4CDD003539169A3E1BB4EB ====
Exact Audio Copy V1.3 from 2. September 2016

EAC extraction logfile from 15. January 2020, 15:49

Claudio Arrau / Claudio Arrau - The Complete Victor and Columbia Album Collection

Used drive : SlimtypeeBAU108 6 L Adapter: 1 ID: 1

Read mode : Secure
Utilize accurate stream : Yes
Defeat audio cache : Yes
Make use of C2 pointers : No

Read offset correction : 6
Overread into Lead-In and Lead-Out : No
Fill up missing offset samples with silence : Yes
Delete leading and trailing silent blocks : No
Null samples used in CRC calculations : Yes
Used interface : Native Win32 interface for Win NT & 2000
Gap handling : Appended to previous track

Used output format : User Defined Encoder
Selected bitrate : 896 kBit/s
Quality : High
Add ID3 tag : No
Command line compressor : C:\Program Files (x86)\Exact Audio Copy\FLAC\FLAC.EXE
Additional command line options : -6 -V -T "ARTIST=%artist%" -T "TITLE=%title%" -T "ALBUM=%albumtitle%" -T "DATE=%year%" -T "TRACKNUMBER=%tracknr%" -T "GENRE=%genre%" -T "COMMENT=%comment%" -T "BAND=%albuminterpret%" -T "ALBUMARTIST=%albuminterpret%" -T "COMPOSER=%composer%" %haslyrics%–tag-from-file=LYRICS="%lyricsfile%"%haslyrics% -T "DISCNUMBER=%cdnumber%" -T "TOTALDISCS=%totalcds%" -T "TOTALTRACKS=%numtracks%" %hascover%–picture="%coverfile%"%hascover% %source% -o %dest%


TOC of the extracted CD

Track | Start | Length | Start sector | End sector
––––––––––––––––––––––––––––-
1 | 0:00.00 | 14:55.69 | 0 | 67193
2 | 14:55.69 | 5:09.17 | 67194 | 90385
3 | 20:05.11 | 10:10.45 | 90386 | 136180


Track 1

Filename Y:\_orp\arrau\CD3\01. Piano Concerto in A Minor, Op. 54 I. Allegro affettuoso.wav

Pre-gap length 0:00:02.00

Peak level 90.9 %
Extraction speed 3.2 X
Track quality 100.0 %
Test CRC 0E51568D
Copy CRC 0E51568D
Copy OK

Track 2

Filename Y:\_orp\arrau\CD3\02. Piano Concerto in A Minor, Op. 54 II. Intermezzo - Andantino grazioso.wav

Peak level 67.3 %
Extraction speed 3.6 X
Track quality 100.0 %
Test CRC 5BD051B8
Copy CRC 5BD051B8
Copy OK

Track 3

Filename Y:\_orp\arrau\CD3\03. Piano Concerto in A Minor, Op. 54 III. Allegro vivace.wav

Peak level 97.9 %
Extraction speed 4.2 X
Track quality 100.0 %
Test CRC 86BAAC65
Copy CRC 86BAAC65
Copy OK

No errors occurred

End of status report

–– CUETools DB Plugin V2.1.6

[CTDB TOCID: cXnd2wco8a0I9u8Qs9F46Yff.04-] found
Submit result: cXnd2wco8a0I9u8Qs9F46Yff.04- has been confirmed
Track | CTDB Status
1 | (35/35) Accurately ripped
2 | (35/35) Accurately ripped
3 | (35/35) Accurately ripped


==== Log checksum 8C230FD5F37D28B3642BD16202DB93A17FA6768CCF61653954AD9FF8743DD27D ====
Exact Audio Copy V1.3 from 2. September 2016

EAC extraction logfile from 15. January 2020, 16:19

Claudio Arrau / Claudio Arrau - The Complete Victor and Columbia Album Collection

Used drive : SlimtypeeBAU108 6 L Adapter: 1 ID: 1

Read mode : Secure
Utilize accurate stream : Yes
Defeat audio cache : Yes
Make use of C2 pointers : No

Read offset correction : 6
Overread into Lead-In and Lead-Out : No
Fill up missing offset samples with silence : Yes
Delete leading and trailing silent blocks : No
Null samples used in CRC calculations : Yes
Used interface : Native Win32 interface for Win NT & 2000
Gap handling : Appended to previous track

Used output format : User Defined Encoder
Selected bitrate : 896 kBit/s
Quality : High
Add ID3 tag : No
Command line compressor : C:\Program Files (x86)\Exact Audio Copy\FLAC\FLAC.EXE
Additional command line options : -6 -V -T "ARTIST=%artist%" -T "TITLE=%title%" -T "ALBUM=%albumtitle%" -T "DATE=%year%" -T "TRACKNUMBER=%tracknr%" -T "GENRE=%genre%" -T "COMMENT=%comment%" -T "BAND=%albuminterpret%" -T "ALBUMARTIST=%albuminterpret%" -T "COMPOSER=%composer%" %haslyrics%–tag-from-file=LYRICS="%lyricsfile%"%haslyrics% -T "DISCNUMBER=%cdnumber%" -T "TOTALDISCS=%totalcds%" -T "TOTALTRACKS=%numtracks%" %hascover%–picture="%coverfile%"%hascover% %source% -o %dest%


TOC of the extracted CD

Track | Start | Length | Start sector | End sector
––––––––––––––––––––––––––––-
1 | 0:00.00 | 18:28.36 | 0 | 83135
2 | 18:28.36 | 4:59.25 | 83136 | 105585
3 | 23:27.61 | 3:56.31 | 105586 | 123316
4 | 27:24.17 | 7:11.03 | 123317 | 155644


Track 1

Filename Y:\_orp\arrau\CD4\01. Burleske for Piano and Orchestra in D Minor, TrV 145 [Live].wav

Pre-gap length 0:00:02.00

Peak level 92.5 %
Extraction speed 3.3 X
Track quality 100.0 %
Test CRC 306CC14E
Copy CRC 306CC14E
Copy OK

Track 2

Filename Y:\_orp\arrau\CD4\02. Konzertstück for Piano and Orchestra in F Minor, Op. 79, I. Larghetto affettuoso.wav

Pre-gap length 0:00:06.30

Peak level 80.1 %
Extraction speed 3.8 X
Track quality 100.0 %
Test CRC C76DCE13
Copy CRC C76DCE13
Copy OK

Track 3

Filename Y:\_orp\arrau\CD4\03. Konzertstück for Piano and Orchestra in F Minor, Op. 79, II. Allegro passionato.wav

Peak level 98.0 %
Extraction speed 3.9 X
Track quality 100.0 %
Test CRC FFF4A790
Copy CRC FFF4A790
Copy OK

Track 4

Filename Y:\_orp\arrau\CD4\04. Konzertstück for Piano and Orchestra in F Minor, Op. 79, III. Adagio - Tempo di marcia.wav

Peak level 95.6 %
Extraction speed 4.4 X
Track quality 100.0 %
Test CRC 08FD07DA
Copy CRC 08FD07DA
Copy OK

No errors occurred

End of status report

–– CUETools DB Plugin V2.1.6

[CTDB TOCID: OosIYGwpzp_0QrOyXxlTPARvXnc-] found
Submit result: OosIYGwpzp_0QrOyXxlTPARvXnc- has been confirmed
Track | CTDB Status
1 | (31/31) Accurately ripped
2 | (31/31) Accurately ripped
3 | (31/31) Accurately ripped
4 | (31/31) Accurately ripped


==== Log checksum 4EF642A3DAC14D8EC856CFFF272AEFC545B00B652B92F5540D7ABAF8BB1B01E5 ====
Exact Audio Copy V1.3 from 2. September 2016

EAC extraction logfile from 15. January 2020, 17:39

Claudio Arrau / Claudio Arrau - The Complete Victor and Columbia Album Collection

Used drive : SlimtypeeBAU108 6 L Adapter: 1 ID: 1

Read mode : Secure
Utilize accurate stream : Yes
Defeat audio cache : Yes
Make use of C2 pointers : No

Read offset correction : 6
Overread into Lead-In and Lead-Out : No
Fill up missing offset samples with silence : Yes
Delete leading and trailing silent blocks : No
Null samples used in CRC calculations : Yes
Used interface : Native Win32 interface for Win NT & 2000
Gap handling : Appended to previous track

Used output format : User Defined Encoder
Selected bitrate : 896 kBit/s
Quality : High
Add ID3 tag : No
Command line compressor : C:\Program Files (x86)\Exact Audio Copy\FLAC\FLAC.EXE
Additional command line options : -6 -V -T "ARTIST=%artist%" -T "TITLE=%title%" -T "ALBUM=%albumtitle%" -T "DATE=%year%" -T "TRACKNUMBER=%tracknr%" -T "GENRE=%genre%" -T "COMMENT=%comment%" -T "BAND=%albuminterpret%" -T "ALBUMARTIST=%albuminterpret%" -T "COMPOSER=%composer%" %haslyrics%–tag-from-file=LYRICS="%lyricsfile%"%haslyrics% -T "DISCNUMBER=%cdnumber%" -T "TOTALDISCS=%totalcds%" -T "TOTALTRACKS=%numtracks%" %hascover%–picture="%coverfile%"%hascover% %source% -o %dest%


TOC of the extracted CD

Track | Start | Length | Start sector | End sector
––––––––––––––––––––––––––––-
1 | 0:00.00 | 5:51.09 | 0 | 26333
2 | 5:51.09 | 4:15.09 | 26334 | 45467
3 | 10:06.18 | 7:12.57 | 45468 | 77924
4 | 17:19.00 | 6:19.37 | 77925 | 106386
5 | 23:38.37 | 7:57.32 | 106387 | 142193
6 | 31:35.69 | 4:22.74 | 142194 | 161917


Track 1

Filename Y:\_orp\arrau\CD5\01. Iberia Book I I. Evocación.wav

Pre-gap length 0:00:02.00

Peak level 78.9 %
Extraction speed 2.7 X
Track quality 100.0 %
Test CRC 336C931A
Copy CRC 336C931A
Copy OK

Track 2

Filename Y:\_orp\arrau\CD5\02. Iberia Book I II. El puerto.wav

Peak level 73.0 %
Extraction speed 3.0 X
Track quality 100.0 %
Test CRC D76F70CC
Copy CRC D76F70CC
Copy OK

Track 3

Filename Y:\_orp\arrau\CD5\03. Iberia Book I III. El corpus Christi en Sevilla.wav

Peak level 93.0 %
Extraction speed 3.5 X
Track quality 100.0 %
Test CRC FD54B6E3
Copy CRC FD54B6E3
Copy OK

Track 4

Filename Y:\_orp\arrau\CD5\04. Iberia Book II I. Rondeña.wav

Peak level 78.7 %
Extraction speed 3.8 X
Track quality 100.0 %
Test CRC 0B0E28ED
Copy CRC 0B0E28ED
Copy OK

Track 5

Filename Y:\_orp\arrau\CD5\05. Iberia Book II II. Almería.wav

Peak level 89.7 %
Extraction speed 3.9 X
Track quality 99.9 %
Test CRC 4BB64EA2
Copy CRC 4BB64EA2
Copy OK

Track 6

Filename Y:\_orp\arrau\CD5\06. Iberia Book II III. Triana.wav

Peak level 98.7 %
Extraction speed 4.3 X
Track quality 100.0 %
Test CRC 6E97951C
Copy CRC 6E97951C
Copy OK

No errors occurred

End of status report

–– CUETools DB Plugin V2.1.6

[CTDB TOCID: EGA2oQqSA.A5fILRG0PVclWil8s-] found
Submit result: EGA2oQqSA.A5fILRG0PVclWil8s- has been confirmed
Track | CTDB Status
1 | (33/33) Accurately ripped
2 | (33/33) Accurately ripped
3 | (33/33) Accurately ripped
4 | (33/33) Accurately ripped
5 | (33/33) Accurately ripped
6 | (33/33) Accurately ripped


==== Log checksum 3BAAAABE7A05AE4C94B6AABD1F181D0BAF08453DD629E9ED0955BC277F69D351 ====
Exact Audio Copy V1.3 from 2. September 2016

EAC extraction logfile from 16. January 2020, 20:54

Claudio Arrau / Claudio Arrau - The Complete Victor and Columbia Album Collection

Used drive : TSSTcorpCDDVDW SH-224DB Adapter: 1 ID: 0

Read mode : Secure
Utilize accurate stream : Yes
Defeat audio cache : Yes
Make use of C2 pointers : No

Read offset correction : 6
Overread into Lead-In and Lead-Out : No
Fill up missing offset samples with silence : Yes
Delete leading and trailing silent blocks : No
Null samples used in CRC calculations : Yes
Used interface : Native Win32 interface for Win NT & 2000
Gap handling : Appended to previous track

Used output format : User Defined Encoder
Selected bitrate : 896 kBit/s
Quality : High
Add ID3 tag : No
Command line compressor : C:\Program Files\Exact Audio Copy\FLAC\FLAC.EXE
Additional command line options : -6 -V -T "ARTIST=%artist%" -T "TITLE=%title%" -T "ALBUM=%albumtitle%" -T "DATE=%year%" -T "TRACKNUMBER=%tracknr%" -T "GENRE=%genre%" -T "COMMENT=%comment%" -T "BAND=%albuminterpret%" -T "ALBUMARTIST=%albuminterpret%" -T "COMPOSER=%composer%" %haslyrics%–tag-from-file=LYRICS="%lyricsfile%"%haslyrics% -T "DISCNUMBER=%cdnumber%" -T "TOTALDISCS=%totalcds%" -T "TOTALTRACKS=%numtracks%" %hascover%–picture="%coverfile%"%hascover% %source% -o %dest%


TOC of the extracted CD

Track | Start | Length | Start sector | End sector
––––––––––––––––––––––––––––-
1 | 0:00.00 | 3:54.08 | 0 | 17557
2 | 3:54.08 | 4:47.74 | 17558 | 39156
3 | 8:42.07 | 3:49.26 | 39157 | 56357
4 | 12:31.33 | 4:30.02 | 56358 | 76609
5 | 17:01.35 | 4:21.32 | 76610 | 96216
6 | 21:22.67 | 3:37.44 | 96217 | 112535
7 | 25:00.36 | 4:29.46 | 112536 | 132756
8 | 29:30.07 | 7:08.22 | 132757 | 164878
9 | 36:38.29 | 3:10.71 | 164879 | 179199
10 | 39:49.25 | 5:33.66 | 179200 | 204240
11 | 45:23.16 | 5:25.65 | 204241 | 228680
12 | 50:49.06 | 4:00.06 | 228681 | 246686


Track 1

Filename E:\__RIP\arrau\CD6\01. Pour le piano, L. 95 I. Prélude - Assez animé et très rythmé.wav

Pre-gap length 0:00:02.00

Peak level 87.5 %
Extraction speed 1.6 X
Track quality 100.0 %
Test CRC 94B532C5
Copy CRC 94B532C5
Accurately ripped (confidence 13) [AD515CBF] (AR v2)
Copy OK

Track 2

Filename E:\__RIP\arrau\CD6\02. Pour le piano, L. 95 II. Sarabande - Avec une élégance grave et lente.wav

Peak level 80.9 %
Extraction speed 1.9 X
Track quality 100.0 %
Test CRC 744E5A44
Copy CRC 744E5A44
Accurately ripped (confidence 13) [074ECFA0] (AR v2)
Copy OK

Track 3

Filename E:\__RIP\arrau\CD6\03. Pour le piano, L. 95 III. Toccata - Vif.wav

Peak level 71.4 %
Extraction speed 2.0 X
Track quality 100.0 %
Test CRC 4F9D8F90
Copy CRC 4F9D8F90
Accurately ripped (confidence 13) [6DC7CD8E] (AR v2)
Copy OK

Track 4

Filename E:\__RIP\arrau\CD6\04. Estampes, L. 100 I. Pagodes - Moderement anime.wav

Peak level 85.1 %
Extraction speed 2.2 X
Track quality 100.0 %
Test CRC 3C519E31
Copy CRC 3C519E31
Accurately ripped (confidence 13) [74216522] (AR v2)
Copy OK

Track 5

Filename E:\__RIP\arrau\CD6\05. Estampes, L. 100 II. La soiree dans Grenade - Mouvement de Habanera.wav

Peak level 79.4 %
Extraction speed 2.4 X
Track quality 100.0 %
Test CRC 30E25CE1
Copy CRC 30E25CE1
Accurately ripped (confidence 13) [3DA0B8A2] (AR v2)
Copy OK

Track 6

Filename E:\__RIP\arrau\CD6\06. Estampes, L. 100 III. Jardins sous la pluie - Net et vif.wav

Peak level 91.5 %
Extraction speed 2.5 X
Track quality 100.0 %
Test CRC 92E6BA87
Copy CRC 92E6BA87
Accurately ripped (confidence 13) [E91C3BCC] (AR v2)
Copy OK

Track 7

Filename E:\__RIP\arrau\CD6\07. Images Book I, L. 110 I. Reflets dans l'eau.wav

Peak level 76.7 %
Extraction speed 2.6 X
Track quality 100.0 %
Test CRC EE3B1D10
Copy CRC EE3B1D10
Accurately ripped (confidence 13) [69266B1E] (AR v2)
Copy OK

Track 8

Filename E:\__RIP\arrau\CD6\08. Images Book I, L. 110 II. Hommage à Rameau.wav

Peak level 92.9 %
Extraction speed 2.6 X
Track quality 99.9 %
Test CRC 06690796
Copy CRC 06690796
Accurately ripped (confidence 13) [216363AC] (AR v2)
Copy OK

Track 9

Filename E:\__RIP\arrau\CD6\09. Images Book I, L. 110 III. Mouvement.wav

Peak level 79.1 %
Extraction speed 2.8 X
Track quality 100.0 %
Test CRC 8A10BAC0
Copy CRC 8A10BAC0
Accurately ripped (confidence 13) [1BF52C06] (AR v2)
Copy OK

Track 10

Filename E:\__RIP\arrau\CD6\10. Images Book II, L. 111 I. Cloches à travers les feuilles.wav

Peak level 52.0 %
Extraction speed 3.2 X
Track quality 100.0 %
Test CRC CA73028D
Copy CRC CA73028D
Accurately ripped (confidence 13) [F1418B47] (AR v2)
Copy OK

Track 11

Filename E:\__RIP\arrau\CD6\11. Images Book II, L. 111 II. Et la lune descend sur le temple qui fut.wav

Peak level 30.8 %
Extraction speed 3.3 X
Track quality 100.0 %
Test CRC A857CA79
Copy CRC A857CA79
Accurately ripped (confidence 13) [1C9A1C2E] (AR v2)
Copy OK

Track 12

Filename E:\__RIP\arrau\CD6\12. Images Book II, L. 111 III. Poissons d'or.wav

Peak level 71.8 %
Extraction speed 3.3 X
Track quality 100.0 %
Test CRC 18B70B77
Copy CRC 18B70B77
Accurately ripped (confidence 13) [4867CFAA] (AR v2)
Copy OK


All tracks accurately ripped

No errors occurred

End of status report

–– CUETools DB Plugin V2.1.6

[CTDB TOCID: fY9kDWas4wPSwRRL.zDdajuGm8A-] found
Submit result: already submitted
Track | CTDB Status
1 | (35/35) Accurately ripped
2 | (35/35) Accurately ripped
3 | (35/35) Accurately ripped
4 | (35/35) Accurately ripped
5 | (35/35) Accurately ripped
6 | (35/35) Accurately ripped
7 | (35/35) Accurately ripped
8 | (35/35) Accurately ripped
9 | (35/35) Accurately ripped
10 | (35/35) Accurately ripped
11 | (35/35) Accurately ripped
12 | (35/35) Accurately ripped


==== Log checksum C793FD18DE2C0FDBA7A8A01555893495C9C628924236C7F81A42F777F590D475 ====
Exact Audio Copy V1.3 from 2. September 2016

EAC extraction logfile from 17. January 2020, 0:23

Claudio Arrau / Claudio Arrau - The Complete Victor and Columbia Album Collection

Used drive : TSSTcorpCDDVDW SH-224DB Adapter: 1 ID: 0

Read mode : Secure
Utilize accurate stream : Yes
Defeat audio cache : Yes
Make use of C2 pointers : No

Read offset correction : 6
Overread into Lead-In and Lead-Out : No
Fill up missing offset samples with silence : Yes
Delete leading and trailing silent blocks : No
Null samples used in CRC calculations : Yes
Used interface : Native Win32 interface for Win NT & 2000
Gap handling : Appended to previous track

Used output format : User Defined Encoder
Selected bitrate : 896 kBit/s
Quality : High
Add ID3 tag : No
Command line compressor : C:\Program Files\Exact Audio Copy\FLAC\FLAC.EXE
Additional command line options : -6 -V -T "ARTIST=%artist%" -T "TITLE=%title%" -T "ALBUM=%albumtitle%" -T "DATE=%year%" -T "TRACKNUMBER=%tracknr%" -T "GENRE=%genre%" -T "COMMENT=%comment%" -T "BAND=%albuminterpret%" -T "ALBUMARTIST=%albuminterpret%" -T "COMPOSER=%composer%" %haslyrics%–tag-from-file=LYRICS="%lyricsfile%"%haslyrics% -T "DISCNUMBER=%cdnumber%" -T "TOTALDISCS=%totalcds%" -T "TOTALTRACKS=%numtracks%" %hascover%–picture="%coverfile%"%hascover% %source% -o %dest%


TOC of the extracted CD

Track | Start | Length | Start sector | End sector
––––––––––––––––––––––––––––-
1 | 0:00.00 | 15:50.63 | 0 | 71312
2 | 15:50.63 | 10:38.35 | 71313 | 119197
3 | 26:29.23 | 8:40.64 | 119198 | 158261
4 | 35:10.12 | 10:46.37 | 158262 | 206748
5 | 45:56.49 | 4:02.66 | 206749 | 224964
6 | 49:59.40 | 9:35.17 | 224965 | 268106


Track 1

Filename E:\__RIP\arrau\CD7\01. Piano Concerto No. 3 in C Minor, Op. 37 I. Allegro con brio.wav

Pre-gap length 0:00:02.00

Peak level 92.7 %
Extraction speed 2.0 X
Track quality 99.9 %
Test CRC C10B8AE8
Copy CRC C10B8AE8
Accurately ripped (confidence 13) [981DD040] (AR v2)
Copy OK

Track 2

Filename E:\__RIP\arrau\CD7\02. Piano Concerto No. 3 in C Minor, Op. 37 II. Largo.wav

Peak level 68.7 %
Extraction speed 2.7 X
Track quality 100.0 %
Test CRC 9E8D0B67
Copy CRC 9E8D0B67
Accurately ripped (confidence 13) [D616CFBB] (AR v2)
Copy OK

Track 3

Filename E:\__RIP\arrau\CD7\03. Piano Concerto No. 3 in C Minor, Op. 37 III. Rondo - Allegro.wav

Peak level 95.3 %
Extraction speed 2.9 X
Track quality 100.0 %
Test CRC F3E5F962
Copy CRC F3E5F962
Accurately ripped (confidence 13) [5C3FEB79] (AR v2)
Copy OK

Track 4

Filename E:\__RIP\arrau\CD7\04. Piano Sonata No. 21 in C Major, Op. 53 ''Waldstein'' I. Allegro con brio.wav

Pre-gap length 0:00:06.38

Peak level 83.4 %
Extraction speed 3.3 X
Track quality 100.0 %
Test CRC BC44C45D
Copy CRC BC44C45D
Accurately ripped (confidence 13) [EEE9A288] (AR v2)
Copy OK

Track 5

Filename E:\__RIP\arrau\CD7\05. Piano Sonata No. 21 in C Major, Op. 53 ''Waldstein'' II. Introduzione - Adagio molto.wav

Peak level 44.8 %
Extraction speed 3.2 X
Track quality 100.0 %
Test CRC 3ADF6F3A
Copy CRC 3ADF6F3A
Accurately ripped (confidence 13) [76794529] (AR v2)
Copy OK

Track 6

Filename E:\__RIP\arrau\CD7\06. Piano Sonata No. 21 in C Major, Op. 53 ''Waldstein'' III. Rondo - Allegretto moderato.wav

Peak level 94.3 %
Extraction speed 3.6 X
Track quality 100.0 %
Test CRC 1DDADA7A
Copy CRC 1DDADA7A
Accurately ripped (confidence 13) [937DFC76] (AR v2)
Copy OK


All tracks accurately ripped

No errors occurred

End of status report

–– CUETools DB Plugin V2.1.6

[CTDB TOCID: piqXuZ25uTTNOtij_sw.0p0nlIs-] found
Submit result: piqXuZ25uTTNOtij_sw.0p0nlIs- has been confirmed
Track | CTDB Status
1 | (32/32) Accurately ripped
2 | (32/32) Accurately ripped
3 | (32/32) Accurately ripped
4 | (32/32) Accurately ripped
5 | (32/32) Accurately ripped
6 | (31/32) Accurately ripped


==== Log checksum C2196020F27917C45E97EC33B6CA4DCE1AFF19795BA29704393C9E45F8E3A574 ====
Exact Audio Copy V1.3 from 2. September 2016

EAC extraction logfile from 15. January 2020, 23:09

Claudio Arrau / Claudio Arrau - The Complete Victor and Columbia Album Collection

Used drive : SlimtypeeBAU108 6 L Adapter: 1 ID: 1

Read mode : Secure
Utilize accurate stream : Yes
Defeat audio cache : Yes
Make use of C2 pointers : No

Read offset correction : 6
Overread into Lead-In and Lead-Out : No
Fill up missing offset samples with silence : Yes
Delete leading and trailing silent blocks : No
Null samples used in CRC calculations : Yes
Used interface : Native Win32 interface for Win NT & 2000
Gap handling : Appended to previous track

Used output format : User Defined Encoder
Selected bitrate : 896 kBit/s
Quality : High
Add ID3 tag : No
Command line compressor : C:\Program Files (x86)\Exact Audio Copy\FLAC\FLAC.EXE
Additional command line options : -6 -V -T "ARTIST=%artist%" -T "TITLE=%title%" -T "ALBUM=%albumtitle%" -T "DATE=%year%" -T "TRACKNUMBER=%tracknr%" -T "GENRE=%genre%" -T "COMMENT=%comment%" -T "BAND=%albuminterpret%" -T "ALBUMARTIST=%albuminterpret%" -T "COMPOSER=%composer%" %haslyrics%–tag-from-file=LYRICS="%lyricsfile%"%haslyrics% -T "DISCNUMBER=%cdnumber%" -T "TOTALDISCS=%totalcds%" -T "TOTALTRACKS=%numtracks%" %hascover%–picture="%coverfile%"%hascover% %source% -o %dest%


TOC of the extracted CD

Track | Start | Length | Start sector | End sector
––––––––––––––––––––––––––––-
1 | 0:00.00 | 0:39.47 | 0 | 2971
2 | 0:39.47 | 2:04.47 | 2972 | 12318
3 | 2:44.19 | 1:03.63 | 12319 | 17106
4 | 3:48.07 | 2:02.27 | 17107 | 26283
5 | 5:50.34 | 0:36.50 | 26284 | 29033
6 | 6:27.09 | 2:20.46 | 29034 | 39579
7 | 8:47.55 | 0:48.34 | 39580 | 43213
8 | 9:36.14 | 1:50.14 | 43214 | 51477
9 | 11:26.28 | 1:25.06 | 51478 | 57858
10 | 12:51.34 | 0:29.15 | 57859 | 60048
11 | 13:20.49 | 0:35.16 | 60049 | 62689
12 | 13:55.65 | 1:06.67 | 62690 | 67706
13 | 15:02.57 | 3:30.33 | 67707 | 83489
14 | 18:33.15 | 5:31.57 | 83490 | 108371
15 | 24:04.72 | 0:46.20 | 108372 | 111841
16 | 24:51.17 | 1:03.61 | 111842 | 116627
17 | 25:55.03 | 3:27.71 | 116628 | 132223
18 | 29:22.74 | 0:49.51 | 132224 | 135949
19 | 30:12.50 | 1:17.43 | 135950 | 141767
20 | 31:30.18 | 1:37.14 | 141768 | 149056
21 | 33:07.32 | 2:06.03 | 149057 | 158509
22 | 35:13.35 | 0:50.08 | 158510 | 162267
23 | 36:03.43 | 0:54.41 | 162268 | 166358
24 | 36:58.09 | 2:18.70 | 166359 | 176778


Track 1

Filename Y:\_orp\arrau\CD8\01. 24 Préludes, Op. 28 Prélude No. 1 in C Major.wav

Pre-gap length 0:00:02.00

Peak level 58.7 %
Extraction speed 1.4 X
Track quality 100.0 %
Test CRC 8D441400
Copy CRC 8D441400
Copy OK

Track 2

Filename Y:\_orp\arrau\CD8\02. 24 Préludes, Op. 28 Prélude No. 2 in A Minor.wav

Peak level 49.0 %
Extraction speed 2.3 X
Track quality 100.0 %
Test CRC 66AD6325
Copy CRC 66AD6325
Copy OK

Track 3

Filename Y:\_orp\arrau\CD8\03. 24 Préludes, Op. 28 Prélude No. 3 in G Major.wav

Peak level 48.8 %
Extraction speed 1.9 X
Track quality 100.0 %
Test CRC 2FB6A420
Copy CRC 2FB6A420
Copy OK

Track 4

Filename Y:\_orp\arrau\CD8\04. 24 Préludes, Op. 28 Prélude No. 4 in E Minor.wav

Peak level 59.6 %
Extraction speed 2.4 X
Track quality 100.0 %
Test CRC 49BB29AE
Copy CRC 49BB29AE
Copy OK

Track 5

Filename Y:\_orp\arrau\CD8\05. 24 Préludes, Op. 28 Prélude No. 5 in D Major.wav

Peak level 55.0 %
Extraction speed 1.6 X
Track quality 100.0 %
Test CRC E4C780B7
Copy CRC E4C780B7
Copy OK

Track 6

Filename Y:\_orp\arrau\CD8\06. 24 Préludes, Op. 28 Prélude No. 6 in B Minor.wav

Peak level 46.1 %
Extraction speed 2.7 X
Track quality 100.0 %
Test CRC 5C7E8952
Copy CRC 5C7E8952
Copy OK

Track 7

Filename Y:\_orp\arrau\CD8\07. 24 Préludes, Op. 28 Prélude No. 7 in A Major.wav

Peak level 43.4 %
Extraction speed 1.2 X
Track quality 99.7 %
Test CRC 1515D4EA
Copy CRC 1515D4EA
Copy OK

Track 8

Filename Y:\_orp\arrau\CD8\08. 24 Préludes, Op. 28 Prélude No. 8 in F-Sharp Minor.wav

Peak level 63.3 %
Extraction speed 2.0 X
Track quality 99.9 %
Test CRC 0B4C7101
Copy CRC 0B4C7101
Copy OK

Track 9

Filename Y:\_orp\arrau\CD8\09. 24 Préludes, Op. 28 Prélude No. 9 in E Major.wav

Peak level 82.7 %
Extraction speed 2.6 X
Track quality 100.0 %
Test CRC CEBE231C
Copy CRC CEBE231C
Copy OK

Track 10

Filename Y:\_orp\arrau\CD8\10. 24 Préludes, Op. 28 Prélude No. 10 in C-Sharp Minor.wav

Peak level 44.0 %
Extraction speed 0.9 X
Track quality 99.6 %
Test CRC 5ACDD406
Copy CRC 5ACDD406
Copy OK

Track 11

Filename Y:\_orp\arrau\CD8\11. 24 Préludes, Op. 28 Prélude No. 11 in B Major.wav

Peak level 65.7 %
Extraction speed 1.8 X
Track quality 100.0 %
Test CRC 3CBC625E
Copy CRC 3CBC625E
Copy OK

Track 12

Filename Y:\_orp\arrau\CD8\12. 24 Préludes, Op. 28 Prélude No. 12 in G-Sharp Minor.wav

Peak level 73.7 %
Extraction speed 2.5 X
Track quality 100.0 %
Test CRC 24922A1D
Copy CRC 24922A1D
Copy OK

Track 13

Filename Y:\_orp\arrau\CD8\13. 24 Préludes, Op. 28 Prélude No. 13 in F-Sharp Major.wav

Peak level 51.5 %
Extraction speed 3.4 X
Track quality 100.0 %
Test CRC CC3C4473
Copy CRC CC3C4473
Copy OK

Track 14

Filename Y:\_orp\arrau\CD8\14. 24 Préludes, Op. 28 Prélude No. 15 in D-Flat Major.wav

Peak level 94.6 %
Extraction speed 3.8 X
Track quality 100.0 %
Test CRC AA2F4D95
Copy CRC AA2F4D95
Copy OK

Track 15

Filename Y:\_orp\arrau\CD8\15. 24 Préludes, Op. 28 Prélude No. 14 in E-Flat Minor.wav

Peak level 70.6 %
Extraction speed 2.5 X
Track quality 100.0 %
Test CRC 73A439B6
Copy CRC 73A439B6
Copy OK

Track 16

Filename Y:\_orp\arrau\CD8\16. 24 Préludes, Op. 28 Prélude No. 16 in B-Flat Minor.wav

Peak level 81.7 %
Extraction speed 2.7 X
Track quality 100.0 %
Test CRC E69A543B
Copy CRC E69A543B
Copy OK

Track 17

Filename Y:\_orp\arrau\CD8\17. 24 Préludes, Op. 28 Prélude No. 17 in A-Flat Major.wav

Peak level 82.4 %
Extraction speed 3.8 X
Track quality 100.0 %
Test CRC 010FD307
Copy CRC 010FD307
Copy OK

Track 18

Filename Y:\_orp\arrau\CD8\18. 24 Préludes, Op. 28 Prélude No. 18 in F Minor.wav

Peak level 77.5 %
Extraction speed 2.7 X
Track quality 100.0 %
Test CRC E9550115
Copy CRC E9550115
Copy OK

Track 19

Filename Y:\_orp\arrau\CD8\19. 24 Préludes, Op. 28 Prélude No. 19 in E-Flat Major.wav

Peak level 64.2 %
Extraction speed 3.2 X
Track quality 100.0 %
Test CRC 42EB0B45
Copy CRC 42EB0B45
Copy OK

Track 20

Filename Y:\_orp\arrau\CD8\20. 24 Préludes, Op. 28 Prélude No. 20 in C Minor.wav

Peak level 75.2 %
Extraction speed 3.4 X
Track quality 100.0 %
Test CRC 01E8D1A8
Copy CRC 01E8D1A8
Copy OK

Track 21

Filename Y:\_orp\arrau\CD8\21. 24 Préludes, Op. 28 Prélude No. 21 in B-Flat Major.wav

Peak level 79.5 %
Extraction speed 3.8 X
Track quality 100.0 %
Test CRC 2A918BD6
Copy CRC 2A918BD6
Copy OK

Track 22

Filename Y:\_orp\arrau\CD8\22. 24 Préludes, Op. 28 Prélude No. 22 in G Minor.wav

Peak level 76.1 %
Extraction speed 1.8 X
Track quality 99.7 %
Test CRC 8DF29EE1
Copy CRC 8DF29EE1
Copy OK

Track 23

Filename Y:\_orp\arrau\CD8\23. 24 Préludes, Op. 28 Prélude No. 23 in F Major.wav

Peak level 59.4 %
Extraction speed 2.9 X
Track quality 100.0 %
Test CRC 54BC68C4
Copy CRC 54BC68C4
Copy OK

Track 24

Filename Y:\_orp\arrau\CD8\24. 24 Préludes, Op. 28 Prélude No. 24 in D Minor.wav

Peak level 85.7 %
Extraction speed 3.9 X
Track quality 100.0 %
Test CRC 24599A56
Copy CRC 24599A56
Copy OK

No errors occurred

End of status report

–– CUETools DB Plugin V2.1.6

[CTDB TOCID: 7Y3L4S6IOAZGgrNrADgeWX3z..M-] found
Submit result: 7Y3L4S6IOAZGgrNrADgeWX3z..M- has been confirmed
Track | CTDB Status
1 | (35/35) Accurately ripped
2 | (35/35) Accurately ripped
3 | (35/35) Accurately ripped
4 | (35/35) Accurately ripped
5 | (35/35) Accurately ripped
6 | (35/35) Accurately ripped
7 | (35/35) Accurately ripped
8 | (35/35) Accurately ripped
9 | (35/35) Accurately ripped
10 | (35/35) Accurately ripped
11 | (35/35) Accurately ripped
12 | (35/35) Accurately ripped
13 | (35/35) Accurately ripped
14 | (35/35) Accurately ripped
15 | (35/35) Accurately ripped
16 | (35/35) Accurately ripped
17 | (35/35) Accurately ripped
18 | (35/35) Accurately ripped
19 | (35/35) Accurately ripped
20 | (35/35) Accurately ripped
21 | (35/35) Accurately ripped
22 | (35/35) Accurately ripped
23 | (35/35) Accurately ripped
24 | (35/35) Accurately ripped


==== Log checksum CFA0319FFC27E06AFCDB8D4A6CF96BC1D1774349681997E4883A0805515A5AEE ====
Exact Audio Copy V1.3 from 2. September 2016

EAC extraction logfile from 17. January 2020, 1:14

Claudio Arrau / Claudio Arrau - The Complete Victor and Columbia Album Collection

Used drive : TSSTcorpCDDVDW SH-224DB Adapter: 1 ID: 0

Read mode : Secure
Utilize accurate stream : Yes
Defeat audio cache : Yes
Make use of C2 pointers : No

Read offset correction : 6
Overread into Lead-In and Lead-Out : No
Fill up missing offset samples with silence : Yes
Delete leading and trailing silent blocks : No
Null samples used in CRC calculations : Yes
Used interface : Native Win32 interface for Win NT & 2000
Gap handling : Appended to previous track

Used output format : User Defined Encoder
Selected bitrate : 896 kBit/s
Quality : High
Add ID3 tag : No
Command line compressor : C:\Program Files\Exact Audio Copy\FLAC\FLAC.EXE
Additional command line options : -6 -V -T "ARTIST=%artist%" -T "TITLE=%title%" -T "ALBUM=%albumtitle%" -T "DATE=%year%" -T "TRACKNUMBER=%tracknr%" -T "GENRE=%genre%" -T "COMMENT=%comment%" -T "BAND=%albuminterpret%" -T "ALBUMARTIST=%albuminterpret%" -T "COMPOSER=%composer%" %haslyrics%–tag-from-file=LYRICS="%lyricsfile%"%haslyrics% -T "DISCNUMBER=%cdnumber%" -T "TOTALDISCS=%totalcds%" -T "TOTALTRACKS=%numtracks%" %hascover%–picture="%coverfile%"%hascover% %source% -o %dest%


TOC of the extracted CD

Track | Start | Length | Start sector | End sector
––––––––––––––––––––––––––––-
1 | 0:00.00 | 5:39.67 | 0 | 25491
2 | 5:39.67 | 5:23.28 | 25492 | 49744
3 | 11:03.20 | 4:12.65 | 49745 | 68709
4 | 15:16.10 | 4:09.59 | 68710 | 87443
5 | 19:25.69 | 3:33.43 | 87444 | 103461
6 | 22:59.37 | 2:48.28 | 103462 | 116089
7 | 25:47.65 | 5:50.65 | 116090 | 142404
8 | 31:38.55 | 3:27.22 | 142405 | 157951


Track 1

Filename E:\__RIP\arrau\CD9\01. Piano Concerto No. 1 in E-Flat Major, S. 124 I. Allegro maestoso.wav

Pre-gap length 0:00:02.00

Peak level 93.7 %
Extraction speed 1.8 X
Track quality 100.0 %
Test CRC 9D08290C
Copy CRC 9D08290C
Accurately ripped (confidence 12) [0D6070C2] (AR v2)
Copy OK

Track 2

Filename E:\__RIP\arrau\CD9\02. Piano Concerto No. 1 in E-Flat Major, S. 124 II. Quasi Adagio.wav

Peak level 69.5 %
Extraction speed 1.8 X
Track quality 99.9 %
Test CRC C6314230
Copy CRC C6314230
Accurately ripped (confidence 12) [EDC523E8] (AR v2)
Copy OK

Track 3

Filename E:\__RIP\arrau\CD9\03. Piano Concerto No. 1 in E-Flat Major, S. 124 III. Allegretto vivace - Allegro animato.wav

Peak level 92.5 %
Extraction speed 2.2 X
Track quality 100.0 %
Test CRC 307F8E1D
Copy CRC 307F8E1D
Accurately ripped (confidence 12) [88BC55AC] (AR v2)
Copy OK

Track 4

Filename E:\__RIP\arrau\CD9\04. Piano Concerto No. 1 in E-Flat Major, S. 124 IV. Allegro marziale animato.wav

Peak level 96.7 %
Extraction speed 2.3 X
Track quality 100.0 %
Test CRC 1B4C3933
Copy CRC 1B4C3933
Accurately ripped (confidence 12) [43AACBB6] (AR v2)
Copy OK

Track 5

Filename E:\__RIP\arrau\CD9\05. Fantasy on Hungarian Themes , S. 123 Andante mesto.wav

Pre-gap length 0:00:05.72

Peak level 62.6 %
Extraction speed 2.4 X
Track quality 100.0 %
Test CRC D92EE951
Copy CRC D92EE951
Accurately ripped (confidence 12) [7F1AE034] (AR v2)
Copy OK

Track 6

Filename E:\__RIP\arrau\CD9\06. Fantasy on Hungarian Themes , S. 123 Allegro eroico - Piú animato.wav

Peak level 80.8 %
Extraction speed 2.4 X
Track quality 100.0 %
Test CRC 49EB87F6
Copy CRC 49EB87F6
Accurately ripped (confidence 12) [461488CD] (AR v2)
Copy OK

Track 7

Filename E:\__RIP\arrau\CD9\07. Fantasy on Hungarian Themes , S. 123 Molto adagio - Quasi fantasia - Allegretto ….wav

Peak level 63.0 %
Extraction speed 2.8 X
Track quality 100.0 %
Test CRC 3907731D
Copy CRC 3907731D
Accurately ripped (confidence 12) [D3B0068E] (AR v2)
Copy OK

Track 8

Filename E:\__RIP\arrau\CD9\08. Fantasy on Hungarian Themes , S. 123 Vivace assai - Prestissimo.wav

Peak level 92.8 %
Extraction speed 2.7 X
Track quality 100.0 %
Test CRC 440274DE
Copy CRC 440274DE
Accurately ripped (confidence 12) [2E1E3814] (AR v2)
Copy OK


All tracks accurately ripped

No errors occurred

End of status report

–– CUETools DB Plugin V2.1.6

[CTDB TOCID: 9lE4NwsiNCS.VRk3CAdEF.ud_U4-] found
Submit result: 9lE4NwsiNCS.VRk3CAdEF.ud_U4- has been confirmed
Track | CTDB Status
1 | (29/29) Accurately ripped
2 | (29/29) Accurately ripped
3 | (29/29) Accurately ripped
4 | (29/29) Accurately ripped
5 | (29/29) Accurately ripped
6 | (29/29) Accurately ripped
7 | (29/29) Accurately ripped
8 | (29/29) Accurately ripped


==== Log checksum C94E7B1F12603D9FDB2CB012B99467BA34C23C96A3DAC83A0449EDEB6E5732CB ====
Exact Audio Copy V1.3 from 2. September 2016

EAC extraction logfile from 16. January 2020, 1:12

Claudio Arrau / Claudio Arrau - The Complete Victor and Columbia Album Collection

Used drive : SlimtypeeBAU108 6 L Adapter: 1 ID: 1

Read mode : Secure
Utilize accurate stream : Yes
Defeat audio cache : Yes
Make use of C2 pointers : No

Read offset correction : 6
Overread into Lead-In and Lead-Out : No
Fill up missing offset samples with silence : Yes
Delete leading and trailing silent blocks : No
Null samples used in CRC calculations : Yes
Used interface : Native Win32 interface for Win NT & 2000
Gap handling : Appended to previous track

Used output format : User Defined Encoder
Selected bitrate : 896 kBit/s
Quality : High
Add ID3 tag : No
Command line compressor : C:\Program Files (x86)\Exact Audio Copy\FLAC\FLAC.EXE
Additional command line options : -6 -V -T "ARTIST=%artist%" -T "TITLE=%title%" -T "ALBUM=%albumtitle%" -T "DATE=%year%" -T "TRACKNUMBER=%tracknr%" -T "GENRE=%genre%" -T "COMMENT=%comment%" -T "BAND=%albuminterpret%" -T "ALBUMARTIST=%albuminterpret%" -T "COMPOSER=%composer%" %haslyrics%–tag-from-file=LYRICS="%lyricsfile%"%haslyrics% -T "DISCNUMBER=%cdnumber%" -T "TOTALDISCS=%totalcds%" -T "TOTALTRACKS=%numtracks%" %hascover%–picture="%coverfile%"%hascover% %source% -o %dest%


TOC of the extracted CD

Track | Start | Length | Start sector | End sector
––––––––––––––––––––––––––––-
1 | 0:00.00 | 2:17.27 | 0 | 10301
2 | 2:17.27 | 9:41.29 | 10302 | 53905
3 | 11:58.56 | 4:25.74 | 53906 | 73854
4 | 16:24.55 | 3:27.12 | 73855 | 89391
5 | 19:51.67 | 2:53.29 | 89392 | 102395
6 | 22:45.21 | 4:03.66 | 102396 | 120686
7 | 26:49.12 | 2:21.39 | 120687 | 131300
8 | 29:10.51 | 3:25.45 | 131301 | 146720
9 | 32:36.21 | 4:30.52 | 146721 | 167022


Track 1

Filename Y:\_orp\arrau\CD10\01. Kreisleriana, Op. 16 I. Äußerst bewegt.wav

Pre-gap length 0:00:02.00

Peak level 93.8 %
Extraction speed 2.2 X
Track quality 100.0 %
Test CRC 49D053BC
Copy CRC 49D053BC
Copy OK

Track 2

Filename Y:\_orp\arrau\CD10\02. Kreisleriana, Op. 16 II. Sehr innig und nicht zu rasch.wav

Peak level 90.5 %
Extraction speed 3.1 X
Track quality 100.0 %
Test CRC DF52A65B
Copy CRC DF52A65B
Copy OK

Track 3

Filename Y:\_orp\arrau\CD10\03. Kreisleriana, Op. 16 III. Sehr aufgeregt.wav

Peak level 82.1 %
Extraction speed 3.3 X
Track quality 100.0 %
Test CRC EB3C8927
Copy CRC EB3C8927
Copy OK

Track 4

Filename Y:\_orp\arrau\CD10\04. Kreisleriana, Op. 16 IV. Sehr langsam.wav

Peak level 44.7 %
Extraction speed 2.9 X
Track quality 99.9 %
Test CRC BFBF9647
Copy CRC BFBF9647
Copy OK

Track 5

Filename Y:\_orp\arrau\CD10\05. Kreisleriana, Op. 16 V. Sehr lebhaft.wav

Peak level 90.8 %
Extraction speed 3.5 X
Track quality 100.0 %
Test CRC 36D8ACD6
Copy CRC 36D8ACD6
Copy OK

Track 6

Filename Y:\_orp\arrau\CD10\06. Kreisleriana, Op. 16 VI. Sehr langsam.wav

Peak level 93.1 %
Extraction speed 3.9 X
Track quality 100.0 %
Test CRC 95E6E289
Copy CRC 95E6E289
Copy OK

Track 7

Filename Y:\_orp\arrau\CD10\07. Kreisleriana, Op. 16 VII. Sehr rasch.wav

Peak level 92.2 %
Extraction speed 3.6 X
Track quality 100.0 %
Test CRC 2D3A427E
Copy CRC 2D3A427E
Copy OK

Track 8

Filename Y:\_orp\arrau\CD10\08. Kreisleriana, Op. 16 VIII. Schnell und spielend.wav

Peak level 91.5 %
Extraction speed 4.1 X
Track quality 100.0 %
Test CRC 8CC4782A
Copy CRC 8CC4782A
Copy OK

Track 9

Filename Y:\_orp\arrau\CD10\09. Arabeske, Op. 18.wav

Pre-gap length 0:00:05.49

Peak level 92.2 %
Extraction speed 4.3 X
Track quality 100.0 %
Test CRC 6B25948F
Copy CRC 6B25948F
Copy OK

No errors occurred

End of status report

–– CUETools DB Plugin V2.1.6

[CTDB TOCID: 1DXIFlI1TAXXw6PEZCT6.OM4F.M-] found
Submit result: 1DXIFlI1TAXXw6PEZCT6.OM4F.M- has been confirmed
Track | CTDB Status
1 | (32/32) Accurately ripped
2 | (32/32) Accurately ripped
3 | (32/32) Accurately ripped
4 | (32/32) Accurately ripped
5 | (32/32) Accurately ripped
6 | (32/32) Accurately ripped
7 | (32/32) Accurately ripped
8 | (32/32) Accurately ripped
9 | (32/32) Accurately ripped


==== Log checksum F6733E52B535A4B4843D1F07C180F9FA3B5EDC0FFE28EF8CD5F215CD24A8DAA9 ====
Exact Audio Copy V1.3 from 2. September 2016

EAC extraction logfile from 17. January 2020, 2:36

Claudio Arrau / Claudio Arrau - The Complete Victor and Columbia Album Collection

Used drive : TSSTcorpCDDVDW SH-224DB Adapter: 1 ID: 0

Read mode : Secure
Utilize accurate stream : Yes
Defeat audio cache : Yes
Make use of C2 pointers : No

Read offset correction : 6
Overread into Lead-In and Lead-Out : No
Fill up missing offset samples with silence : Yes
Delete leading and trailing silent blocks : No
Null samples used in CRC calculations : Yes
Used interface : Native Win32 interface for Win NT & 2000
Gap handling : Appended to previous track

Used output format : User Defined Encoder
Selected bitrate : 896 kBit/s
Quality : High
Add ID3 tag : No
Command line compressor : C:\Program Files\Exact Audio Copy\FLAC\FLAC.EXE
Additional command line options : -6 -V -T "ARTIST=%artist%" -T "TITLE=%title%" -T "ALBUM=%albumtitle%" -T "DATE=%year%" -T "TRACKNUMBER=%tracknr%" -T "GENRE=%genre%" -T "COMMENT=%comment%" -T "BAND=%albuminterpret%" -T "ALBUMARTIST=%albuminterpret%" -T "COMPOSER=%composer%" %haslyrics%–tag-from-file=LYRICS="%lyricsfile%"%haslyrics% -T "DISCNUMBER=%cdnumber%" -T "TOTALDISCS=%totalcds%" -T "TOTALTRACKS=%numtracks%" %hascover%–picture="%coverfile%"%hascover% %source% -o %dest%


TOC of the extracted CD

Track | Start | Length | Start sector | End sector
––––––––––––––––––––––––––––-
1 | 0:00.00 | 13:10.20 | 0 | 59269
2 | 13:10.20 | 4:22.36 | 59270 | 78955
3 | 17:32.56 | 3:29.59 | 78956 | 94689
4 | 21:02.40 | 4:19.45 | 94690 | 114159
5 | 25:22.10 | 6:59.48 | 114160 | 145632
6 | 32:21.58 | 6:01.45 | 145633 | 172752
7 | 38:23.28 | 6:19.60 | 172753 | 201237
8 | 44:43.13 | 10:55.57 | 201238 | 250419
9 | 55:38.70 | 5:31.45 | 250420 | 275289
10 | 61:10.40 | 6:38.25 | 275290 | 305164
11 | 67:48.65 | 9:03.22 | 305165 | 345911


Track 1

Filename E:\__RIP\arrau\CD11\01. Andante spianato et grande polonaise brillante in E-Flat Major, Op. 22.wav

Pre-gap length 0:00:02.00

Peak level 96.0 %
Extraction speed 2.3 X
Track quality 100.0 %
Test CRC 9A7FA949
Copy CRC 9A7FA949
Accurately ripped (confidence 12) [A2B64E91] (AR v2)
Copy OK

Track 2

Filename E:\__RIP\arrau\CD11\02. Waltz No. 1 in E-Flat Major, Op. 18 ''Grande valse brillante''.wav

Pre-gap length 0:00:02.65

Peak level 89.3 %
Extraction speed 2.4 X
Track quality 100.0 %
Test CRC BC7305D6
Copy CRC BC7305D6
Accurately ripped (confidence 12) [FFCCFA30] (AR v2)
Copy OK

Track 3

Filename E:\__RIP\arrau\CD11\03. Bagatelle in A Minor, WoO 59 ''Für Elise''.wav

Pre-gap length 0:00:03.69

Peak level 41.0 %
Extraction speed 2.0 X
Track quality 99.9 %
Test CRC 9F2700A5
Copy CRC 9F2700A5
Accurately ripped (confidence 12) [7D4FED3C] (AR v2)
Copy OK

Track 4

Filename E:\__RIP\arrau\CD11\04. Allegretto in C Minor, D. 915.wav

Pre-gap length 0:00:04.56

Peak level 55.1 %
Extraction speed 2.2 X
Track quality 99.9 %
Test CRC BC26A26C
Copy CRC BC26A26C
Accurately ripped (confidence 12) [D983AC5D] (AR v2)
Copy OK

Track 5

Filename E:\__RIP\arrau\CD11\05. Gaspard de la nuit, M. 55 I. Ondine.wav

Pre-gap length 0:00:05.33

Peak level 93.6 %
Extraction speed 2.6 X
Track quality 99.9 %
Test CRC 35C9C1CE
Copy CRC 35C9C1CE
Accurately ripped (confidence 12) [E36E0F65] (AR v2)
Copy OK

Track 6

Filename E:\__RIP\arrau\CD11\06. Gaspard de la nuit, M. 55 II. Le gibet.wav

Peak level 61.0 %
Extraction speed 3.2 X
Track quality 100.0 %
Test CRC 2CF6CDA4
Copy CRC 2CF6CDA4
Accurately ripped (confidence 12) [A8C07583] (AR v2)
Copy OK

Track 7

Filename E:\__RIP\arrau\CD11\07. Hungarian Rhapsodies, S. 244 No. 8 in F-Sharp Minor - Capriccio.wav

Pre-gap length 0:00:02.18

Peak level 48.2 %
Extraction speed 2.9 X
Track quality 99.9 %
Test CRC 7CBC4615
Copy CRC 7CBC4615
Accurately ripped (confidence 12) [9EC4627A] (AR v2)
Copy OK

Track 8

Filename E:\__RIP\arrau\CD11\08. Hungarian Rhapsodies, S. 244 No. 9 in E-Flat Major - The Carnival of Pest.wav

Peak level 46.8 %
Extraction speed 3.7 X
Track quality 100.0 %
Test CRC 755C362D
Copy CRC 755C362D
Accurately ripped (confidence 12) [5E1452D6] (AR v2)
Copy OK

Track 9

Filename E:\__RIP\arrau\CD11\09. Hungarian Rhapsodies, S. 244 No. 10 in E Major.wav

Peak level 51.5 %
Extraction speed 3.7 X
Track quality 100.0 %
Test CRC 9A733FA8
Copy CRC 9A733FA8
Accurately ripped (confidence 12) [6445D39B] (AR v2)
Copy OK

Track 10

Filename E:\__RIP\arrau\CD11\10. Hungarian Rhapsodies, S. 244 No. 11 in A Minor.wav

Peak level 49.4 %
Extraction speed 3.9 X
Track quality 100.0 %
Test CRC 70B51350
Copy CRC 70B51350
Accurately ripped (confidence 12) [3CDEBE59] (AR v2)
Copy OK

Track 11

Filename E:\__RIP\arrau\CD11\11. Hungarian Rhapsodies, S. 244 No. 13 in A Minor.wav

Peak level 53.3 %
Extraction speed 4.2 X
Track quality 100.0 %
Test CRC F487F9DC
Copy CRC F487F9DC
Accurately ripped (confidence 12) [C0F84F8B] (AR v2)
Copy OK


All tracks accurately ripped

No errors occurred

End of status report

–– CUETools DB Plugin V2.1.6

[CTDB TOCID: NVEr0_yS87EgFgLS36jaXYnUpK4-] found
Submit result: NVEr0_yS87EgFgLS36jaXYnUpK4- has been confirmed
Track | CTDB Status
1 | (30/30) Accurately ripped
2 | (30/30) Accurately ripped
3 | (30/30) Accurately ripped
4 | (30/30) Accurately ripped
5 | (30/30) Accurately ripped
6 | (30/30) Accurately ripped
7 | (30/30) Accurately ripped
8 | (29/30) Accurately ripped
9 | (30/30) Accurately ripped
10 | (30/30) Accurately ripped
11 | (30/30) Accurately ripped


==== Log checksum 6D7ED53CA4BBC23C0279C81E5AC10BB1E99E8D45842487C76B146976D136A5A7 ====
Exact Audio Copy V1.3 from 2. September 2016

EAC extraction logfile from 17. January 2020, 14:11

Claudio Arrau / Claudio Arrau - The Complete Victor and Columbia Album Collection

Used drive : TSSTcorpCDDVDW SH-224DB Adapter: 1 ID: 0

Read mode : Secure
Utilize accurate stream : Yes
Defeat audio cache : Yes
Make use of C2 pointers : No

Read offset correction : 6
Overread into Lead-In and Lead-Out : No
Fill up missing offset samples with silence : Yes
Delete leading and trailing silent blocks : No
Null samples used in CRC calculations : Yes
Used interface : Native Win32 interface for Win NT & 2000
Gap handling : Appended to previous track

Used output format : User Defined Encoder
Selected bitrate : 896 kBit/s
Quality : High
Add ID3 tag : No
Command line compressor : C:\Program Files\Exact Audio Copy\FLAC\FLAC.EXE
Additional command line options : -6 -V -T "ARTIST=%artist%" -T "TITLE=%title%" -T "ALBUM=%albumtitle%" -T "DATE=%year%" -T "TRACKNUMBER=%tracknr%" -T "GENRE=%genre%" -T "COMMENT=%comment%" -T "BAND=%albuminterpret%" -T "ALBUMARTIST=%albuminterpret%" -T "COMPOSER=%composer%" %haslyrics%–tag-from-file=LYRICS="%lyricsfile%"%haslyrics% -T "DISCNUMBER=%cdnumber%" -T "TOTALDISCS=%totalcds%" -T "TOTALTRACKS=%numtracks%" %hascover%–picture="%coverfile%"%hascover% %source% -o %dest%


TOC of the extracted CD

Track | Start | Length | Start sector | End sector
––––––––––––––––––––––––––––-
1 | 0:00.00 | 4:59.10 | 0 | 22434
2 | 4:59.10 | 1:46.31 | 22435 | 30415
3 | 6:45.41 | 1:27.41 | 30416 | 36981
4 | 8:13.07 | 1:53.29 | 36982 | 45485
5 | 10:06.36 | 1:05.65 | 45486 | 50425
6 | 11:12.26 | 1:33.00 | 50426 | 57400
7 | 12:45.26 | 1:37.65 | 57401 | 64740
8 | 14:23.16 | 1:37.45 | 64741 | 72060
9 | 16:00.61 | 1:48.73 | 72061 | 80233
10 | 17:49.59 | 2:13.65 | 80234 | 90273
11 | 20:03.49 | 1:20.28 | 90274 | 96301
12 | 21:24.02 | 1:44.09 | 96302 | 104110
13 | 23:08.11 | 3:52.59 | 104111 | 121569
14 | 27:00.70 | 5:18.65 | 121570 | 145484
15 | 32:19.60 | 2:09.14 | 145485 | 155173
16 | 34:28.74 | 4:13.00 | 155174 | 174148
17 | 38:41.74 | 2:52.52 | 174149 | 187100
18 | 41:34.51 | 1:58.57 | 187101 | 196007
19 | 43:33.33 | 1:10.53 | 196008 | 201310
20 | 44:44.11 | 1:03.04 | 201311 | 206039
21 | 45:47.15 | 1:59.64 | 206040 | 215028
22 | 47:47.04 | 3:05.06 | 215029 | 228909
23 | 50:52.10 | 1:22.19 | 228910 | 235078
24 | 52:14.29 | 2:01.59 | 235079 | 244212
25 | 54:16.13 | 3:20.06 | 244213 | 259218
26 | 57:36.19 | 8:29.08 | 259219 | 297401
27 | 66:05.27 | 2:08.02 | 297402 | 307003
28 | 68:13.29 | 1:55.15 | 307004 | 315643
29 | 70:08.44 | 2:25.17 | 315644 | 326535
30 | 72:33.61 | 2:09.01 | 326536 | 336211
31 | 74:42.62 | 1:40.64 | 336212 | 343775
32 | 76:23.51 | 2:24.25 | 343776 | 354600


Track 1

Filename E:\__RIP\arrau\CD12\01. Goldberg Variations, BWV 988 Aria.wav

Pre-gap length 0:00:02.00

Peak level 44.7 %
Extraction speed 1.8 X
Track quality 99.9 %
Test CRC 86811A0D
Copy CRC 86811A0D
Accurately ripped (confidence 13) [818A3B53] (AR v2)
Copy OK

Track 2

Filename E:\__RIP\arrau\CD12\02. Goldberg Variations, BWV 988 Variation I.wav

Peak level 88.5 %
Extraction speed 1.8 X
Track quality 100.0 %
Test CRC 88741F53
Copy CRC 88741F53
Accurately ripped (confidence 13) [270909AE] (AR v2)
Copy OK

Track 3

Filename E:\__RIP\arrau\CD12\03. Goldberg Variations, BWV 988 Variation II.wav

Peak level 59.8 %
Extraction speed 1.7 X
Track quality 100.0 %
Test CRC 5707DCCE
Copy CRC 5707DCCE
Accurately ripped (confidence 14) [29270C55] (AR v2)
Copy OK

Track 4

Filename E:\__RIP\arrau\CD12\04. Goldberg Variations, BWV 988 Variation III - Canon at the Unison.wav

Peak level 66.5 %
Extraction speed 1.9 X
Track quality 100.0 %
Test CRC 5D4844DC
Copy CRC 5D4844DC
Accurately ripped (confidence 14) [E074AEAB] (AR v2)
Copy OK

Track 5

Filename E:\__RIP\arrau\CD12\05. Goldberg Variations, BWV 988 Variation IV.wav

Peak level 92.0 %
Extraction speed 1.7 X
Track quality 100.0 %
Test CRC 68D2899C
Copy CRC 68D2899C
Accurately ripped (confidence 14) [B0C325D9] (AR v2)
Copy OK

Track 6

Filename E:\__RIP\arrau\CD12\06. Goldberg Variations, BWV 988 Variation V.wav

Peak level 84.3 %
Extraction speed 1.9 X
Track quality 100.0 %
Test CRC 651660A0
Copy CRC 651660A0
Accurately ripped (confidence 14) [4A0AE9A3] (AR v2)
Copy OK

Track 7

Filename E:\__RIP\arrau\CD12\07. Goldberg Variations, BWV 988 Variation VI - Canon at the Second.wav

Peak level 48.2 %
Extraction speed 2.0 X
Track quality 100.0 %
Test CRC 46179A39
Copy CRC 46179A39
Accurately ripped (confidence 14) [7A7B32C5] (AR v2)
Copy OK

Track 8

Filename E:\__RIP\arrau\CD12\08. Goldberg Variations, BWV 988 Variation VII.wav

Peak level 68.8 %
Extraction speed 1.4 X
Track quality 99.8 %
Test CRC 8AEE8A3D
Copy CRC 8AEE8A3D
Accurately ripped (confidence 14) [26ACF2AC] (AR v2)
Copy OK

Track 9

Filename E:\__RIP\arrau\CD12\09. Goldberg Variations, BWV 988 Variation VIII.wav

Peak level 73.7 %
Extraction speed 2.1 X
Track quality 100.0 %
Test CRC 6070DD70
Copy CRC 6070DD70
Accurately ripped (confidence 14) [06745441] (AR v2)
Copy OK

Track 10

Filename E:\__RIP\arrau\CD12\10. Goldberg Variations, BWV 988 Variation IX - Canon at the Third.wav

Peak level 41.1 %
Extraction speed 2.3 X
Track quality 100.0 %
Test CRC 95896DCE
Copy CRC 95896DCE
Accurately ripped (confidence 14) [F6803385] (AR v2)
Copy OK

Track 11

Filename E:\__RIP\arrau\CD12\11. Goldberg Variations, BWV 988 Variation X.wav

Peak level 68.0 %
Extraction speed 2.0 X
Track quality 100.0 %
Test CRC 7E74C1A9
Copy CRC 7E74C1A9
Accurately ripped (confidence 14) [1D649B79] (AR v2)
Copy OK

Track 12

Filename E:\__RIP\arrau\CD12\12. Goldberg Variations, BWV 988 Variation XI.wav

Peak level 49.2 %
Extraction speed 2.3 X
Track quality 100.0 %
Test CRC 998BF0FA
Copy CRC 998BF0FA
Accurately ripped (confidence 14) [5E4C5E49] (AR v2)
Copy OK

Track 13

Filename E:\__RIP\arrau\CD12\13. Goldberg Variations, BWV 988 Variation XII - Canon at the Fourth.wav

Peak level 44.7 %
Extraction speed 2.7 X
Track quality 100.0 %
Test CRC CB2FC7EE
Copy CRC CB2FC7EE
Accurately ripped (confidence 14) [8624D61B] (AR v2)
Copy OK

Track 14

Filename E:\__RIP\arrau\CD12\14. Goldberg Variations, BWV 988 Variation XIII.wav

Peak level 37.5 %
Extraction speed 3.0 X
Track quality 100.0 %
Test CRC E82A1D8A
Copy CRC E82A1D8A
Accurately ripped (confidence 14) [03F649B8] (AR v2)
Copy OK

Track 15

Filename E:\__RIP\arrau\CD12\15. Goldberg Variations, BWV 988 Variation XIV.wav

Peak level 72.6 %
Extraction speed 2.7 X
Track quality 100.0 %
Test CRC ADA970E6
Copy CRC ADA970E6
Accurately ripped (confidence 14) [DFA604DD] (AR v2)
Copy OK

Track 16

Filename E:\__RIP\arrau\CD12\16. Goldberg Variations, BWV 988 Variation XV - Canon at the Fifth.wav

Peak level 37.2 %
Extraction speed 3.1 X
Track quality 100.0 %
Test CRC 92DE5ADF
Copy CRC 92DE5ADF
Accurately ripped (confidence 14) [86E89173] (AR v2)
Copy OK

Track 17

Filename E:\__RIP\arrau\CD12\17. Goldberg Variations, BWV 988 Variation XVI - Overture.wav

Peak level 77.7 %
Extraction speed 3.1 X
Track quality 100.0 %
Test CRC 2112B857
Copy CRC 2112B857
Accurately ripped (confidence 14) [86197F70] (AR v2)
Copy OK

Track 18

Filename E:\__RIP\arrau\CD12\18. Goldberg Variations, BWV 988 Variation XVII.wav

Peak level 70.4 %
Extraction speed 2.8 X
Track quality 100.0 %
Test CRC 313BC9BF
Copy CRC 313BC9BF
Accurately ripped (confidence 14) [FF1A5D3B] (AR v2)
Copy OK

Track 19

Filename E:\__RIP\arrau\CD12\19. Goldberg Variations, BWV 988 Variation XVIII - Canon at the Sixth.wav

Peak level 58.4 %
Extraction speed 1.4 X
Track quality 99.8 %
Test CRC 9931EDBE
Copy CRC 9931EDBE
Accurately ripped (confidence 14) [976F9C59] (AR v2)
Copy OK

Track 20

Filename E:\__RIP\arrau\CD12\20. Goldberg Variations, BWV 988 Variation XIX.wav

Peak level 50.1 %
Extraction speed 1.4 X
Track quality 99.8 %
Test CRC 31B05FB1
Copy CRC 31B05FB1
Accurately ripped (confidence 14) [C6749A36] (AR v2)
Copy OK

Track 21

Filename E:\__RIP\arrau\CD12\21. Goldberg Variations, BWV 988 Variation XX.wav

Peak level 82.2 %
Extraction speed 2.0 X
Track quality 99.9 %
Test CRC AD2D25DE
Copy CRC AD2D25DE
Accurately ripped (confidence 14) [3C8C1C5D] (AR v2)
Copy OK

Track 22

Filename E:\__RIP\arrau\CD12\22. Goldberg Variations, BWV 988 Variation XXI - Canon at the Seventh.wav

Peak level 64.8 %
Extraction speed 3.3 X
Track quality 100.0 %
Test CRC F99A1CC4
Copy CRC F99A1CC4
Accurately ripped (confidence 14) [BE38EC87] (AR v2)
Copy OK

Track 23

Filename E:\__RIP\arrau\CD12\23. Goldberg Variations, BWV 988 Variation XXII.wav

Peak level 75.3 %
Extraction speed 2.7 X
Track quality 100.0 %
Test CRC 81A7FA65
Copy CRC 81A7FA65
Accurately ripped (confidence 14) [CEAE9021] (AR v2)
Copy OK

Track 24

Filename E:\__RIP\arrau\CD12\24. Goldberg Variations, BWV 988 Variation XXIII.wav

Peak level 85.9 %
Extraction speed 3.1 X
Track quality 100.0 %
Test CRC A9C09C1D
Copy CRC A9C09C1D
Accurately ripped (confidence 14) [C97A58F3] (AR v2)
Copy OK

Track 25

Filename E:\__RIP\arrau\CD12\25. Goldberg Variations, BWV 988 Variation XXIV- Canon at the Octave.wav

Peak level 34.0 %
Extraction speed 3.5 X
Track quality 100.0 %
Test CRC 86898D4C
Copy CRC 86898D4C
Accurately ripped (confidence 14) [9FC5AE05] (AR v2)
Copy OK

Track 26

Filename E:\__RIP\arrau\CD12\26. Goldberg Variations, BWV 988 Variation XXV.wav

Peak level 51.8 %
Extraction speed 4.0 X
Track quality 100.0 %
Test CRC E6A378E0
Copy CRC E6A378E0
Accurately ripped (confidence 14) [B5751FC2] (AR v2)
Copy OK

Track 27

Filename E:\__RIP\arrau\CD12\27. Goldberg Variations, BWV 988 Variation XXVI.wav

Peak level 78.0 %
Extraction speed 3.4 X
Track quality 100.0 %
Test CRC B14609AD
Copy CRC B14609AD
Accurately ripped (confidence 14) [70EFDA12] (AR v2)
Copy OK

Track 28

Filename E:\__RIP\arrau\CD12\28. Goldberg Variations, BWV 988 Variation XXVII - Canon at the Ninth.wav

Peak level 52.6 %
Extraction speed 2.1 X
Track quality 99.9 %
Test CRC E14828E3
Copy CRC E14828E3
Accurately ripped (confidence 14) [8D293672] (AR v2)
Copy OK

Track 29

Filename E:\__RIP\arrau\CD12\29. Goldberg Variations, BWV 988 Variation XXVIII.wav

Peak level 43.2 %
Extraction speed 3.6 X
Track quality 100.0 %
Test CRC 79A4E54C
Copy CRC 79A4E54C
Accurately ripped (confidence 14) [8F5137F7] (AR v2)
Copy OK

Track 30

Filename E:\__RIP\arrau\CD12\30. Goldberg Variations, BWV 988 Variation XXIX.wav

Peak level 95.6 %
Extraction speed 3.5 X
Track quality 100.0 %
Test CRC 6AC2B47A
Copy CRC 6AC2B47A
Accurately ripped (confidence 14) [99B1D023] (AR v2)
Copy OK

Track 31

Filename E:\__RIP\arrau\CD12\31. Goldberg Variations, BWV 988 Variation XXX - Quodlibet.wav

Peak level 78.5 %
Extraction speed 3.3 X
Track quality 100.0 %
Test CRC 488DE85D
Copy CRC 488DE85D
Accurately ripped (confidence 14) [69CC9AEC] (AR v2)
Copy OK

Track 32

Filename E:\__RIP\arrau\CD12\32. Goldberg Variations, BWV 988 Aria.wav

Peak level 26.6 %
Extraction speed 3.7 X
Track quality 100.0 %
Test CRC 19998C73
Copy CRC 19998C73
Accurately ripped (confidence 14) [2754E6BD] (AR v2)
Copy OK


All tracks accurately ripped

No errors occurred

End of status report

–– CUETools DB Plugin V2.1.6

[CTDB TOCID: h5IIwSCQLV_e01wAYcNtu6q20mw-] found
Submit result: h5IIwSCQLV_e01wAYcNtu6q20mw- has been confirmed
Track | CTDB Status
1 | (35/36) Accurately ripped
2 | (36/36) Accurately ripped
3 | (36/36) Accurately ripped
4 | (36/36) Accurately ripped
5 | (36/36) Accurately ripped
6 | (36/36) Accurately ripped
7 | (36/36) Accurately ripped
8 | (36/36) Accurately ripped
9 | (36/36) Accurately ripped
10 | (36/36) Accurately ripped
11 | (36/36) Accurately ripped
12 | (36/36) Accurately ripped
13 | (36/36) Accurately ripped
14 | (36/36) Accurately ripped
15 | (36/36) Accurately ripped
16 | (36/36) Accurately ripped
17 | (36/36) Accurately ripped
18 | (34/36) Accurately ripped
19 | (36/36) Accurately ripped
20 | (36/36) Accurately ripped
21 | (36/36) Accurately ripped
22 | (35/36) Accurately ripped
23 | (36/36) Accurately ripped
24 | (36/36) Accurately ripped
25 | (36/36) Accurately ripped
26 | (36/36) Accurately ripped
27 | (36/36) Accurately ripped
28 | (36/36) Accurately ripped
29 | (36/36) Accurately ripped
30 | (36/36) Accurately ripped
31 | (36/36) Accurately ripped
32 | (36/36) Accurately ripped


==== Log checksum 05522620442DF9A3A492581567240A0100C46419882BB48948252360B90F7765 ====

Thanks to the Original ripper !