Subcategories

Cliff Richard - The Rock 'N' Roll Years 1958 ~ 1963 (1997) [4CD Box Set]

Posted By: Justin
Cliff Richard - The Rock 'N' Roll Years 1958 ~ 1963 (1997) [4CD Box Set]

Сliff Richаrd - The Rоck 'N' Rоll Yеаrs 1958 ~ 1963 (1997) [4CD Box Set]
EAC | FLAC(tracks)+CUEs+LOGs - 1,56 GB | Scans - 525 MB | MP3 CBR 320 Kbps - 560 MB
British Rock & Roll / Early Pop-Rock | TT - 246:33 minutes | All tracks were digitally remastered in 1997

Before the Beatles, Cliff Richard was the biggest star of British pop. Sir Cliff Richard is a British institution, one of the biggest-selling pop stars ever in the UK with a popularity that has endured since the 1950s. John Lennon once said that "before Cliff and the Shadows, there had been nothing worth listening to in British music." His good nature has made him a figure of fun for some, but after more than half-a-century in the public eye, Sir Cliff is an English icon to be proud of. This UK only four CD box set, an all-encompassing study of Cliff's early career and arguably his most important period.

Such an unimaginative title for such a imaginative boxful. Across four discs and 105 songs, Cliff Richard's earliest catalog comes in for precisely the kind of treatment every rock & roll star should have: an all-encompassing study of his most important period. Even more impressively, though the song titles all sound familiar, the performances rarely are. Thirty-seven tracks are bona fide unreleased (South African 78s notwithstanding), but several dozen more are culled from scarce EP-only mixes, rarely resurfacing B-sides, and unusual mixes. One cut, an undubbed take of "Willie and the Hand Jive," was hitherto available only on a mid-'80s budget-priced single disc, covering much the same period as this. It wasn't aimed at collectors, it wasn't heavily advertised, and it probably didn't sell many copies. Of such things do completists dream, but when you have a beakful of hen's teeth to sort through, do such things really matter? Discs one through three are the conventional ones. Running in strict chronology through Richard's first eight albums, 20-plus EPs, and 23 singles, highlights are sorted, then sorted again. Where a rare version exists, that's what is offered here, be it an alternate version of "It's All in the Game," an unreleased rehearsal of "Do You Wanna Dance," or the original stereo mix for the album take of "Twenty Flight Rock." Disc one is the hottest. The swagger of "Move It," the dynamics of "Dynamite," all the things that sent the New Musical Express running home to hide in 1958/1959 (screaming, "must we fling this filth at our pop kids?") are here. From this side of the ocean, the best-known tracks are the American covers, and there's a fair swathe of them to be sure. But the killers, the stompers, the real bees' knees, are the homegrown monsters that simply ripped up the form book and rewrote rocking basics. Just like the guy who sang them, in fact. Disc two, covering 1959-1961, keeps up the pace for as long as it can, but rock & roll itself was starting to flag, and Richard's energy level flags with it. By disc three, 1962-1963, Richard's post-Beatles role of mainstream pop balladeer was already in his grasp, and though he could still kick out the jams when he wanted (a soulful "Blueberry Hill," a raunchy "Reelin' and Rockin'"), it's the ballads that stick out the most – "It's All in the Game" and "I'm Looking Out the Window." And then there's "The Next Time," stripped down to its unorchestrated basics, and still one of Richard's most impressive performances. Until you reach disc four, of course. Subtitled "Rare'n'Rockin' 1958-63," this is the album that completely rewrites history. It opens with the first recording Richard (then still laboring under his distinctly nondescript given name of Harry Webb) ever made: He rips through raucous, raw renderings of "Lawdy Miss Clawdy" and "Breathless," cuts to a 1958 live show, and hacks through broadcast tapes and unreleased acetates. And every one is a gem. His Elvis Presley covers are especially remarkable. America's rock & roll revolution, of course, was matched blow for blow by skiffle in the U.K. – even Richard's Shadows cut their teeth in that movement, as members of Wally Whyton's Vipers. Where Richard triumphed over the rest of the pack was in the way he blended the two forms together; where "Rare'n'Rockin'" triumphs is by revealing just how seamless that blending could be. And "Jailhouse Rock" and "Heartbreak Hotel" are the apogee of his art. Suddenly it's no surprise that, for every new British band from the Beatles on down, it was Richard and the Shadows who pointed the way, not Elvis, Buddy Holly, Eddie Cochran, or Gene Pitney, and certainly none of the names who sprang up in Britain in Richard's wake. Richard did more than create a hybrid. He invented a truly British way of rocking. And from the Beatles to Blur, the Rolling Stones to the Stone Roses, that method remains fundamental to British rock.

– Review by Dave Thompson, allmusic.com

Disc 1 - The Rock 'N' Roll Years 1958 ~ 1959:

01. Schoolboy Crush
02. High Class Baby
03. My Feet Hit The Ground
04. Don't Bug Me Baby
05. King Creole
06. TV Hop
07. Rockin' Robin
08. I'll Try
09. High School Confidential
10. Early In The Morning
11. Somebody Touched Me
12. Livin' Lovin' Doll
13. Mean Streak
14. Never Mind
15. Steady With You
16. My Babe
17. Move It
18. That'll Be The Day
19. Danny
20. Whole Lotta Shakin' Goin' On
21. One Night
22. Apron Strings
23. Dynamite
24. I Gotta Know
25. The Snake And The Bookworm
26. Here Comes Summer
27. Twenty Flight Rock
28. Blue Suede Shoes

Exact Audio Copy V1.0 beta 1 from 15. November 2010

EAC extraction logfile from 9. June 2011, 18:13

Cliff Richard / The Rock 'N' Roll Years 1958-1959

Used drive : PLEXTOR CD-R PREMIUM Adapter: 0 ID: 1

Read mode : Secure
Utilize accurate stream : Yes
Defeat audio cache : Yes
Make use of C2 pointers : No

Read offset correction : 30
Overread into Lead-In and Lead-Out : Yes
Fill up missing offset samples with silence : Yes
Delete leading and trailing silent blocks : No
Null samples used in CRC calculations : Yes
Used interface : Installed external ASPI interface
Gap handling : Appended to previous track

Used output format : User Defined Encoder
Selected bitrate : 256 kBit/s
Quality : High
Add ID3 tag : No
Command line compressor : D:\Program Files\Exact Audio Copy\FLAC\FLAC.EXE
Additional command line options : -8 -V -T "ARTIST=%a" -T "TITLE=%t" -T "ALBUM=%g" -T "DATE=%y" -T "TRACKNUMBER=%n" -T "TOTALTRACKS=%x" -T "GENRE=%m" -T "ALBUMARTIST=%v" -T "ALBUM ARTIST=%v" -T "COMMENT=EAC Secure Mode, Test & Copy, AccurateRip, FLAC -8" %s


TOC of the extracted CD

Track | Start | Length | Start sector | End sector
––––––––––––––––––––––––––––-
1 | 0:00.00 | 2:32.42 | 0 | 11441
2 | 2:32.42 | 2:09.73 | 11442 | 21189
3 | 4:42.40 | 1:59.40 | 21190 | 30154
4 | 6:42.05 | 2:14.15 | 30155 | 40219
5 | 8:56.20 | 0:52.25 | 40220 | 44144
6 | 9:48.45 | 0:47.02 | 44145 | 47671
7 | 10:35.47 | 1:01.13 | 47672 | 52259
8 | 11:36.60 | 1:59.35 | 52260 | 61219
9 | 13:36.20 | 1:52.22 | 61220 | 69641
10 | 15:28.42 | 1:48.35 | 69642 | 77776
11 | 17:17.02 | 1:37.65 | 77777 | 85116
12 | 18:54.67 | 2:08.45 | 85117 | 94761
13 | 21:03.37 | 2:00.03 | 94762 | 103764
14 | 23:03.40 | 2:01.32 | 103765 | 112871
15 | 25:04.72 | 2:21.65 | 112872 | 123511
16 | 27:26.62 | 2:25.35 | 123512 | 134421
17 | 29:52.22 | 2:07.30 | 134422 | 143976
18 | 31:59.52 | 2:10.45 | 143977 | 153771
19 | 34:10.22 | 2:53.10 | 153772 | 166756
20 | 37:03.32 | 3:00.15 | 166757 | 180271
21 | 40:03.47 | 2:32.43 | 180272 | 191714
22 | 42:36.15 | 2:48.00 | 191715 | 204314
23 | 45:24.15 | 1:56.22 | 204315 | 213036
24 | 47:20.37 | 2:27.65 | 213037 | 224126
25 | 49:48.27 | 2:11.70 | 224127 | 234021
26 | 52:00.22 | 2:18.13 | 234022 | 244384
27 | 54:18.35 | 1:44.25 | 244385 | 252209
28 | 56:02.60 | 1:44.65 | 252210 | 260074


Track 1

Filename I:\Cliff Richard - The Rock 'N' Roll Years 1958 ~ 1963 (1997) [FLAC] {EMI UK 4 CD box}\Disc 1of4\01 - Schoolboy Crush.wav

Pre-gap length 0:00:02.00

Peak level 98.8 %
Extraction speed 4.6 X
Track quality 100.0 %
Test CRC 36DE3F9E
Copy CRC 36DE3F9E
Accurately ripped (confidence 5) [24E46B10]
Copy OK

Track 2

Filename I:\Cliff Richard - The Rock 'N' Roll Years 1958 ~ 1963 (1997) [FLAC] {EMI UK 4 CD box}\Disc 1of4\02 - High Class Baby.wav

Pre-gap length 0:00:00.62

Peak level 98.8 %
Extraction speed 4.6 X
Track quality 100.0 %
Test CRC D0799DBC
Copy CRC D0799DBC
Accurately ripped (confidence 5) [9B480287]
Copy OK

Track 3

Filename I:\Cliff Richard - The Rock 'N' Roll Years 1958 ~ 1963 (1997) [FLAC] {EMI UK 4 CD box}\Disc 1of4\03 - My Feet Hit The Ground.wav

Pre-gap length 0:00:00.58

Peak level 98.8 %
Extraction speed 3.3 X
Track quality 99.9 %
Test CRC C17AE44E
Copy CRC C17AE44E
Accurately ripped (confidence 5) [C2E85A60]
Copy OK

Track 4

Filename I:\Cliff Richard - The Rock 'N' Roll Years 1958 ~ 1963 (1997) [FLAC] {EMI UK 4 CD box}\Disc 1of4\04 - Don't Bug Me Baby.wav

Pre-gap length 0:00:00.53

Peak level 98.8 %
Extraction speed 5.1 X
Track quality 100.0 %
Test CRC AB73BA7E
Copy CRC AB73BA7E
Accurately ripped (confidence 5) [BBF2F775]
Copy OK

Track 5

Filename I:\Cliff Richard - The Rock 'N' Roll Years 1958 ~ 1963 (1997) [FLAC] {EMI UK 4 CD box}\Disc 1of4\05 - King Creole.wav

Pre-gap length 0:00:01.53

Peak level 98.8 %
Extraction speed 4.0 X
Track quality 100.0 %
Test CRC 1A286E0C
Copy CRC 1A286E0C
Accurately ripped (confidence 5) [95454A2F]
Copy OK

Track 6

Filename I:\Cliff Richard - The Rock 'N' Roll Years 1958 ~ 1963 (1997) [FLAC] {EMI UK 4 CD box}\Disc 1of4\06 - TV Hop.wav

Peak level 98.8 %
Extraction speed 4.0 X
Track quality 100.0 %
Test CRC CFB1B4D6
Copy CRC CFB1B4D6
Accurately ripped (confidence 5) [8317B13D]
Copy OK

Track 7

Filename I:\Cliff Richard - The Rock 'N' Roll Years 1958 ~ 1963 (1997) [FLAC] {EMI UK 4 CD box}\Disc 1of4\07 - Rockin' Robin.wav

Peak level 98.8 %
Extraction speed 4.5 X
Track quality 100.0 %
Test CRC B61662D8
Copy CRC B61662D8
Accurately ripped (confidence 5) [6A0A2A88]
Copy OK

Track 8

Filename I:\Cliff Richard - The Rock 'N' Roll Years 1958 ~ 1963 (1997) [FLAC] {EMI UK 4 CD box}\Disc 1of4\08 - I'll Try.wav

Peak level 98.8 %
Extraction speed 5.4 X
Track quality 100.0 %
Test CRC 1B833AFA
Copy CRC 1B833AFA
Accurately ripped (confidence 5) [B16E2DEE]
Copy OK

Track 9

Filename I:\Cliff Richard - The Rock 'N' Roll Years 1958 ~ 1963 (1997) [FLAC] {EMI UK 4 CD box}\Disc 1of4\09 - High School Confidential.wav

Peak level 98.8 %
Extraction speed 5.5 X
Track quality 100.0 %
Test CRC A8D9FF76
Copy CRC A8D9FF76
Accurately ripped (confidence 5) [79EA7A7D]
Copy OK

Track 10

Filename I:\Cliff Richard - The Rock 'N' Roll Years 1958 ~ 1963 (1997) [FLAC] {EMI UK 4 CD box}\Disc 1of4\10 - Early In The Morning.wav

Peak level 98.8 %
Extraction speed 5.8 X
Track quality 100.0 %
Test CRC 0153B17D
Copy CRC 0153B17D
Accurately ripped (confidence 5) [AE587CD7]
Copy OK

Track 11

Filename I:\Cliff Richard - The Rock 'N' Roll Years 1958 ~ 1963 (1997) [FLAC] {EMI UK 4 CD box}\Disc 1of4\11 - Somebody Touched Me.wav

Peak level 98.8 %
Extraction speed 5.7 X
Track quality 100.0 %
Test CRC E62D65BA
Copy CRC E62D65BA
Accurately ripped (confidence 5) [DCA3685D]
Copy OK

Track 12

Filename I:\Cliff Richard - The Rock 'N' Roll Years 1958 ~ 1963 (1997) [FLAC] {EMI UK 4 CD box}\Disc 1of4\12 - Livin' Lovin' Doll.wav

Pre-gap length 0:00:01.57

Peak level 98.8 %
Extraction speed 6.2 X
Track quality 100.0 %
Test CRC 76898A56
Copy CRC 76898A56
Accurately ripped (confidence 5) [B8412974]
Copy OK

Track 13

Filename I:\Cliff Richard - The Rock 'N' Roll Years 1958 ~ 1963 (1997) [FLAC] {EMI UK 4 CD box}\Disc 1of4\13 - Mean Streak.wav

Pre-gap length 0:00:01.52

Peak level 98.8 %
Extraction speed 6.3 X
Track quality 100.0 %
Test CRC 36F6694C
Copy CRC 36F6694C
Accurately ripped (confidence 5) [5FB3D45C]
Copy OK

Track 14

Filename I:\Cliff Richard - The Rock 'N' Roll Years 1958 ~ 1963 (1997) [FLAC] {EMI UK 4 CD box}\Disc 1of4\14 - Never Mind.wav

Pre-gap length 0:00:01.18

Peak level 91.2 %
Extraction speed 6.4 X
Track quality 100.0 %
Test CRC ED184711
Copy CRC ED184711
Accurately ripped (confidence 5) [4129A4DB]
Copy OK

Track 15

Filename I:\Cliff Richard - The Rock 'N' Roll Years 1958 ~ 1963 (1997) [FLAC] {EMI UK 4 CD box}\Disc 1of4\15 - Steady With You.wav

Pre-gap length 0:00:01.15

Peak level 96.6 %
Extraction speed 6.9 X
Track quality 100.0 %
Test CRC C4320CEF
Copy CRC C4320CEF
Accurately ripped (confidence 5) [A97B3032]
Copy OK

Track 16

Filename I:\Cliff Richard - The Rock 'N' Roll Years 1958 ~ 1963 (1997) [FLAC] {EMI UK 4 CD box}\Disc 1of4\16 - My Babe.wav

Pre-gap length 0:00:01.27

Peak level 98.8 %
Extraction speed 5.0 X
Track quality 99.9 %
Test CRC 36F6BAFC
Copy CRC 36F6BAFC
Accurately ripped (confidence 5) [27E8BAAD]
Copy OK

Track 17

Filename I:\Cliff Richard - The Rock 'N' Roll Years 1958 ~ 1963 (1997) [FLAC] {EMI UK 4 CD box}\Disc 1of4\17 - Move It.wav

Peak level 98.8 %
Extraction speed 7.0 X
Track quality 100.0 %
Test CRC 09BA4233
Copy CRC 09BA4233
Accurately ripped (confidence 5) [8CDCE86D]
Copy OK

Track 18

Filename I:\Cliff Richard - The Rock 'N' Roll Years 1958 ~ 1963 (1997) [FLAC] {EMI UK 4 CD box}\Disc 1of4\18 - That'll Be The Day.wav

Peak level 98.8 %
Extraction speed 7.4 X
Track quality 100.0 %
Test CRC 8D2F882B
Copy CRC 8D2F882B
Accurately ripped (confidence 5) [59E69FBD]
Copy OK

Track 19

Filename I:\Cliff Richard - The Rock 'N' Roll Years 1958 ~ 1963 (1997) [FLAC] {EMI UK 4 CD box}\Disc 1of4\19 - Danny.wav

Peak level 98.8 %
Extraction speed 8.0 X
Track quality 100.0 %
Test CRC 50918AC0
Copy CRC 50918AC0
Accurately ripped (confidence 5) [7309FC40]
Copy OK

Track 20

Filename I:\Cliff Richard - The Rock 'N' Roll Years 1958 ~ 1963 (1997) [FLAC] {EMI UK 4 CD box}\Disc 1of4\20 - Whole Lotta Shakin' Goin' On.wav

Peak level 98.8 %
Extraction speed 8.2 X
Track quality 100.0 %
Test CRC A7CF2998
Copy CRC A7CF2998
Accurately ripped (confidence 5) [427E76DF]
Copy OK

Track 21

Filename I:\Cliff Richard - The Rock 'N' Roll Years 1958 ~ 1963 (1997) [FLAC] {EMI UK 4 CD box}\Disc 1of4\21 - One Night.wav

Pre-gap length 0:00:00.02

Peak level 98.8 %
Extraction speed 8.3 X
Track quality 100.0 %
Test CRC B6BC2D22
Copy CRC B6BC2D22
Accurately ripped (confidence 5) [553631C4]
Copy OK

Track 22

Filename I:\Cliff Richard - The Rock 'N' Roll Years 1958 ~ 1963 (1997) [FLAC] {EMI UK 4 CD box}\Disc 1of4\22 - Apron Strings.wav

Pre-gap length 0:00:01.50

Peak level 98.8 %
Extraction speed 6.0 X
Track quality 99.9 %
Test CRC E31DC3D2
Copy CRC E31DC3D2
Accurately ripped (confidence 5) [4AC6FE47]
Copy OK

Track 23

Filename I:\Cliff Richard - The Rock 'N' Roll Years 1958 ~ 1963 (1997) [FLAC] {EMI UK 4 CD box}\Disc 1of4\23 - Dynamite.wav

Pre-gap length 0:00:01.23

Peak level 98.8 %
Extraction speed 8.1 X
Track quality 100.0 %
Test CRC 39135FAD
Copy CRC 39135FAD
Accurately ripped (confidence 5) [F73BDC7A]
Copy OK

Track 24

Filename I:\Cliff Richard - The Rock 'N' Roll Years 1958 ~ 1963 (1997) [FLAC] {EMI UK 4 CD box}\Disc 1of4\24 - I Gotta Know.wav

Pre-gap length 0:00:01.40

Peak level 96.6 %
Extraction speed 8.4 X
Track quality 100.0 %
Test CRC 9114127A
Copy CRC 9114127A
Accurately ripped (confidence 5) [D557D9B8]
Copy OK

Track 25

Filename I:\Cliff Richard - The Rock 'N' Roll Years 1958 ~ 1963 (1997) [FLAC] {EMI UK 4 CD box}\Disc 1of4\25 - The Snake And The Bookworm.wav

Pre-gap length 0:00:01.32

Peak level 96.6 %
Extraction speed 8.5 X
Track quality 100.0 %
Test CRC 05CA1F87
Copy CRC 05CA1F87
Accurately ripped (confidence 5) [A06FE6C3]
Copy OK

Track 26

Filename I:\Cliff Richard - The Rock 'N' Roll Years 1958 ~ 1963 (1997) [FLAC] {EMI UK 4 CD box}\Disc 1of4\26 - Here Comes Summer.wav

Pre-gap length 0:00:01.37

Peak level 96.5 %
Extraction speed 8.7 X
Track quality 100.0 %
Test CRC 16473E11
Copy CRC 16473E11
Accurately ripped (confidence 5) [DCF6BC88]
Copy OK

Track 27

Filename I:\Cliff Richard - The Rock 'N' Roll Years 1958 ~ 1963 (1997) [FLAC] {EMI UK 4 CD box}\Disc 1of4\27 - Twenty Flight Rock.wav

Pre-gap length 0:00:01.58

Peak level 96.6 %
Extraction speed 8.3 X
Track quality 100.0 %
Test CRC 4CE189BF
Copy CRC 4CE189BF
Accurately ripped (confidence 4) [A495EFEE]
Copy OK

Track 28

Filename I:\Cliff Richard - The Rock 'N' Roll Years 1958 ~ 1963 (1997) [FLAC] {EMI UK 4 CD box}\Disc 1of4\28 - Blue Suede Shoes.wav

Pre-gap length 0:00:00.23

Peak level 98.8 %
Extraction speed 10.5 X
Track quality 100.0 %
Test CRC 29199C19
Copy CRC 29199C19
Accurately ripped (confidence 5) [61ACBD93]
Copy OK


All tracks accurately ripped

No errors occurred

End of status report

==== Log checksum 33867817502FF0EF18F10E2AC26F977EE7C789BF98DF1F6F466DBBCA9204D263 ====



Disc 2 - The Rock 'N' Roll Years 1959 ~ 1961:

01. Mean Woman Blues
02. Pointed Toe Shoes
03. I'm Walkin'
04. Don't Be Mad At Me
05. Willie And The Hand Jive
06. Nine Times Out Of Ten
07. Thinking Of Our Love
08. Evergreen Tree
09. She's Gone
10. Tell Me
11. Where Is My Heart
12. Lamp Of Love
13. I'm Gonna Get You
14. I Cannot Find A True Love
15. Working After School
16. You And I
17. I'm Willing To Learn
18. We Have It Made
19. Choppin' 'n' Changin'
20. It's You
21. I Love You
22. 'D' In Love
23. Catch Me
24. Now's The Time To Fall In Love
25. True Love Will Come To You
26. First Lessons In Love
27. I Want You To Know
28. Blue Moon

Exact Audio Copy V1.0 beta 1 from 15. November 2010

EAC extraction logfile from 9. June 2011, 18:43

Cliff Richard / The Rock 'N' Roll Years 1959-1961

Used drive : PLEXTOR CD-R PREMIUM Adapter: 0 ID: 1

Read mode : Secure
Utilize accurate stream : Yes
Defeat audio cache : Yes
Make use of C2 pointers : No

Read offset correction : 30
Overread into Lead-In and Lead-Out : Yes
Fill up missing offset samples with silence : Yes
Delete leading and trailing silent blocks : No
Null samples used in CRC calculations : Yes
Used interface : Installed external ASPI interface
Gap handling : Appended to previous track

Used output format : User Defined Encoder
Selected bitrate : 256 kBit/s
Quality : High
Add ID3 tag : No
Command line compressor : D:\Program Files\Exact Audio Copy\FLAC\FLAC.EXE
Additional command line options : -8 -V -T "ARTIST=%a" -T "TITLE=%t" -T "ALBUM=%g" -T "DATE=%y" -T "TRACKNUMBER=%n" -T "TOTALTRACKS=%x" -T "GENRE=%m" -T "ALBUMARTIST=%v" -T "ALBUM ARTIST=%v" -T "COMMENT=EAC Secure Mode, Test & Copy, AccurateRip, FLAC -8" %s


TOC of the extracted CD

Track | Start | Length | Start sector | End sector
––––––––––––––––––––––––––––-
1 | 0:00.00 | 2:29.25 | 0 | 11199
2 | 2:29.25 | 1:52.60 | 11200 | 19659
3 | 4:22.10 | 1:50.60 | 19660 | 27969
4 | 6:12.70 | 2:08.10 | 27970 | 37579
5 | 8:21.05 | 2:59.55 | 37580 | 51059
6 | 11:20.60 | 2:53.52 | 51060 | 64086
7 | 14:14.37 | 2:43.73 | 64087 | 76384
8 | 16:58.35 | 2:41.05 | 76385 | 88464
9 | 19:39.40 | 2:34.32 | 88465 | 100046
10 | 22:13.72 | 2:46.13 | 100047 | 112509
11 | 25:00.10 | 2:12.27 | 112510 | 122436
12 | 27:12.37 | 1:49.35 | 122437 | 130646
13 | 29:01.72 | 1:53.20 | 130647 | 139141
14 | 30:55.17 | 2:38.28 | 139142 | 151019
15 | 33:33.45 | 2:07.22 | 151020 | 160566
16 | 35:40.67 | 1:56.05 | 160567 | 169271
17 | 37:36.72 | 1:58.30 | 169272 | 178151
18 | 39:35.27 | 2:12.18 | 178152 | 188069
19 | 41:47.45 | 2:29.02 | 188070 | 199246
20 | 44:16.47 | 3:23.25 | 199247 | 214496
21 | 47:39.72 | 2:29.18 | 214497 | 225689
22 | 50:09.15 | 2:37.10 | 225690 | 237474
23 | 52:46.25 | 2:32.27 | 237475 | 248901
24 | 55:18.52 | 2:31.03 | 248902 | 260229
25 | 57:49.55 | 2:58.22 | 260230 | 273601
26 | 60:48.02 | 1:56.28 | 273602 | 282329
27 | 62:44.30 | 2:25.47 | 282330 | 293251
28 | 65:10.02 | 3:31.23 | 293252 | 309099


Track 1

Filename I:\Cliff Richard - The Rock 'N' Roll Years 1958 ~ 1963 (1997) [FLAC] {EMI UK 4 CD box}\Disc 2of4\01 - Mean Woman Blues.wav

Pre-gap length 0:00:02.00

Peak level 98.8 %
Extraction speed 4.6 X
Track quality 100.0 %
Test CRC C9E67CC5
Copy CRC C9E67CC5
Accurately ripped (confidence 2) [2E44BF3C]
Copy OK

Track 2

Filename I:\Cliff Richard - The Rock 'N' Roll Years 1958 ~ 1963 (1997) [FLAC] {EMI UK 4 CD box}\Disc 2of4\02 - Pointed Toe Shoes.wav

Pre-gap length 0:00:01.53

Peak level 98.8 %
Extraction speed 4.6 X
Track quality 100.0 %
Test CRC 3068DC8D
Copy CRC 3068DC8D
Accurately ripped (confidence 2) [30AFE013]
Copy OK

Track 3

Filename I:\Cliff Richard - The Rock 'N' Roll Years 1958 ~ 1963 (1997) [FLAC] {EMI UK 4 CD box}\Disc 2of4\03 - I'm Walkin'.wav

Pre-gap length 0:00:01.58

Peak level 98.8 %
Extraction speed 4.9 X
Track quality 100.0 %
Test CRC C34DFBB4
Copy CRC C34DFBB4
Accurately ripped (confidence 2) [03946CDC]
Copy OK

Track 4

Filename I:\Cliff Richard - The Rock 'N' Roll Years 1958 ~ 1963 (1997) [FLAC] {EMI UK 4 CD box}\Disc 2of4\04 - Don't Be Mad At Me.wav

Pre-gap length 0:00:01.53

Peak level 96.6 %
Extraction speed 5.1 X
Track quality 100.0 %
Test CRC 511294F7
Copy CRC 511294F7
Accurately ripped (confidence 2) [E1D66E35]
Copy OK

Track 5

Filename I:\Cliff Richard - The Rock 'N' Roll Years 1958 ~ 1963 (1997) [FLAC] {EMI UK 4 CD box}\Disc 2of4\05 - Willie And The Hand Jive.wav

Pre-gap length 0:00:01.25

Peak level 98.8 %
Extraction speed 5.8 X
Track quality 100.0 %
Test CRC 249B7A34
Copy CRC 249B7A34
Accurately ripped (confidence 2) [56C887E7]
Copy OK

Track 6

Filename I:\Cliff Richard - The Rock 'N' Roll Years 1958 ~ 1963 (1997) [FLAC] {EMI UK 4 CD box}\Disc 2of4\06 - Nine Times Out Of Ten.wav

Pre-gap length 0:00:01.53

Peak level 98.8 %
Extraction speed 4.5 X
Track quality 99.9 %
Test CRC F1EB804D
Copy CRC F1EB804D
Accurately ripped (confidence 2) [CA0D452C]
Copy OK

Track 7

Filename I:\Cliff Richard - The Rock 'N' Roll Years 1958 ~ 1963 (1997) [FLAC] {EMI UK 4 CD box}\Disc 2of4\07 - Thinking Of Our Love.wav

Pre-gap length 0:00:01.52

Peak level 98.8 %
Extraction speed 6.2 X
Track quality 100.0 %
Test CRC 259125FC
Copy CRC 259125FC
Accurately ripped (confidence 2) [825242B4]
Copy OK

Track 8

Filename I:\Cliff Richard - The Rock 'N' Roll Years 1958 ~ 1963 (1997) [FLAC] {EMI UK 4 CD box}\Disc 2of4\08 - Evergreen Tree.wav

Pre-gap length 0:00:01.55

Peak level 98.8 %
Extraction speed 6.3 X
Track quality 100.0 %
Test CRC 2C45AA94
Copy CRC 2C45AA94
Accurately ripped (confidence 2) [00E5139D]
Copy OK

Track 9

Filename I:\Cliff Richard - The Rock 'N' Roll Years 1958 ~ 1963 (1997) [FLAC] {EMI UK 4 CD box}\Disc 2of4\09 - She's Gone.wav

Pre-gap length 0:00:01.13

Peak level 98.8 %
Extraction speed 6.5 X
Track quality 100.0 %
Test CRC 258E5746
Copy CRC 258E5746
Accurately ripped (confidence 2) [C112A38A]
Copy OK

Track 10

Filename I:\Cliff Richard - The Rock 'N' Roll Years 1958 ~ 1963 (1997) [FLAC] {EMI UK 4 CD box}\Disc 2of4\10 - Tell Me.wav

Pre-gap length 0:00:00.47

Peak level 98.8 %
Extraction speed 7.1 X
Track quality 100.0 %
Test CRC 58297E68
Copy CRC 58297E68
Accurately ripped (confidence 2) [FB670434]
Copy OK

Track 11

Filename I:\Cliff Richard - The Rock 'N' Roll Years 1958 ~ 1963 (1997) [FLAC] {EMI UK 4 CD box}\Disc 2of4\11 - Where Is My Heart.wav

Pre-gap length 0:00:01.58

Peak level 96.6 %
Extraction speed 6.9 X
Track quality 100.0 %
Test CRC 0B6FE16D
Copy CRC 0B6FE16D
Accurately ripped (confidence 2) [DDA9FFED]
Copy OK

Track 12

Filename I:\Cliff Richard - The Rock 'N' Roll Years 1958 ~ 1963 (1997) [FLAC] {EMI UK 4 CD box}\Disc 2of4\12 - Lamp Of Love.wav

Pre-gap length 0:00:01.52

Peak level 98.8 %
Extraction speed 6.8 X
Track quality 100.0 %
Test CRC AADD331C
Copy CRC AADD331C
Accurately ripped (confidence 2) [056C78EF]
Copy OK

Track 13

Filename I:\Cliff Richard - The Rock 'N' Roll Years 1958 ~ 1963 (1997) [FLAC] {EMI UK 4 CD box}\Disc 2of4\13 - I'm Gonna Get You.wav

Pre-gap length 0:00:01.25

Peak level 98.8 %
Extraction speed 6.8 X
Track quality 100.0 %
Test CRC B8E0FD71
Copy CRC B8E0FD71
Accurately ripped (confidence 2) [7D4BF211]
Copy OK

Track 14

Filename I:\Cliff Richard - The Rock 'N' Roll Years 1958 ~ 1963 (1997) [FLAC] {EMI UK 4 CD box}\Disc 2of4\14 - I Cannot Find A True Love.wav

Pre-gap length 0:00:02.10

Peak level 98.8 %
Extraction speed 5.5 X
Track quality 99.9 %
Test CRC 207823B9
Copy CRC 207823B9
Accurately ripped (confidence 2) [F17D189B]
Copy OK

Track 15

Filename I:\Cliff Richard - The Rock 'N' Roll Years 1958 ~ 1963 (1997) [FLAC] {EMI UK 4 CD box}\Disc 2of4\15 - Working After School.wav

Pre-gap length 0:00:01.53

Peak level 98.8 %
Extraction speed 7.3 X
Track quality 100.0 %
Test CRC 4DE466BC
Copy CRC 4DE466BC
Accurately ripped (confidence 2) [80FFA7DC]
Copy OK

Track 16

Filename I:\Cliff Richard - The Rock 'N' Roll Years 1958 ~ 1963 (1997) [FLAC] {EMI UK 4 CD box}\Disc 2of4\16 - You And I.wav

Pre-gap length 0:00:01.52

Peak level 98.8 %
Extraction speed 7.4 X
Track quality 100.0 %
Test CRC 1DDA7B82
Copy CRC 1DDA7B82
Accurately ripped (confidence 2) [82BF03D3]
Copy OK

Track 17

Filename I:\Cliff Richard - The Rock 'N' Roll Years 1958 ~ 1963 (1997) [FLAC] {EMI UK 4 CD box}\Disc 2of4\17 - I'm Willing To Learn.wav

Pre-gap length 0:00:01.55

Peak level 98.8 %
Extraction speed 7.6 X
Track quality 100.0 %
Test CRC B3090232
Copy CRC B3090232
Accurately ripped (confidence 2) [4C5137EB]
Copy OK

Track 18

Filename I:\Cliff Richard - The Rock 'N' Roll Years 1958 ~ 1963 (1997) [FLAC] {EMI UK 4 CD box}\Disc 2of4\18 - We Have It Made.wav

Pre-gap length 0:00:01.57

Peak level 94.4 %
Extraction speed 7.9 X
Track quality 100.0 %
Test CRC 93773C24
Copy CRC 93773C24
Accurately ripped (confidence 2) [0F6C1E7E]
Copy OK

Track 19

Filename I:\Cliff Richard - The Rock 'N' Roll Years 1958 ~ 1963 (1997) [FLAC] {EMI UK 4 CD box}\Disc 2of4\19 - Choppin' 'n' Changin'.wav

Pre-gap length 0:00:01.13

Peak level 98.8 %
Extraction speed 8.1 X
Track quality 100.0 %
Test CRC 13181206
Copy CRC 13181206
Accurately ripped (confidence 2) [0A06FC61]
Copy OK

Track 20

Filename I:\Cliff Richard - The Rock 'N' Roll Years 1958 ~ 1963 (1997) [FLAC] {EMI UK 4 CD box}\Disc 2of4\20 - It's You.wav

Pre-gap length 0:00:01.57

Peak level 98.8 %
Extraction speed 8.7 X
Track quality 100.0 %
Test CRC D7F0AB48
Copy CRC D7F0AB48
Accurately ripped (confidence 2) [046A5895]
Copy OK

Track 21

Filename I:\Cliff Richard - The Rock 'N' Roll Years 1958 ~ 1963 (1997) [FLAC] {EMI UK 4 CD box}\Disc 2of4\21 - I Love You.wav

Pre-gap length 0:00:01.55

Peak level 98.8 %
Extraction speed 8.4 X
Track quality 100.0 %
Test CRC 85337A63
Copy CRC 85337A63
Accurately ripped (confidence 2) [293CAE3B]
Copy OK

Track 22

Filename I:\Cliff Richard - The Rock 'N' Roll Years 1958 ~ 1963 (1997) [FLAC] {EMI UK 4 CD box}\Disc 2of4\22 - 'D' In Love.wav

Pre-gap length 0:00:01.58

Peak level 98.8 %
Extraction speed 8.8 X
Track quality 100.0 %
Test CRC 5ABBB99A
Copy CRC 5ABBB99A
Accurately ripped (confidence 2) [B55FFB03]
Copy OK

Track 23

Filename I:\Cliff Richard - The Rock 'N' Roll Years 1958 ~ 1963 (1997) [FLAC] {EMI UK 4 CD box}\Disc 2of4\23 - Catch Me.wav

Pre-gap length 0:00:01.53

Peak level 98.8 %
Extraction speed 9.0 X
Track quality 100.0 %
Test CRC 430B36F4
Copy CRC 430B36F4
Accurately ripped (confidence 2) [41143283]
Copy OK

Track 24

Filename I:\Cliff Richard - The Rock 'N' Roll Years 1958 ~ 1963 (1997) [FLAC] {EMI UK 4 CD box}\Disc 2of4\24 - Now's The Time To Fall In Love.wav

Pre-gap length 0:00:01.55

Peak level 95.5 %
Extraction speed 9.1 X
Track quality 100.0 %
Test CRC 4D7847C9
Copy CRC 4D7847C9
Accurately ripped (confidence 2) [47F8C53B]
Copy OK

Track 25

Filename I:\Cliff Richard - The Rock 'N' Roll Years 1958 ~ 1963 (1997) [FLAC] {EMI UK 4 CD box}\Disc 2of4\25 - True Love Will Come To You.wav

Pre-gap length 0:00:01.55

Peak level 94.4 %
Extraction speed 6.9 X
Track quality 99.9 %
Test CRC 40A6DFB9
Copy CRC 40A6DFB9
Accurately ripped (confidence 2) [E2A62B66]
Copy OK

Track 26

Filename I:\Cliff Richard - The Rock 'N' Roll Years 1958 ~ 1963 (1997) [FLAC] {EMI UK 4 CD box}\Disc 2of4\26 - First Lessons In Love.wav

Pre-gap length 0:00:01.52

Peak level 97.7 %
Extraction speed 8.8 X
Track quality 100.0 %
Test CRC FE3F952A
Copy CRC FE3F952A
Cannot be verified as accurate (confidence 4) [B28A22B2], AccurateRip returned [064EB6B5]
Copy OK

Track 27

Filename I:\Cliff Richard - The Rock 'N' Roll Years 1958 ~ 1963 (1997) [FLAC] {EMI UK 4 CD box}\Disc 2of4\27 - I Want You To Know.wav

Pre-gap length 0:00:01.53

Peak level 98.8 %
Extraction speed 9.3 X
Track quality 100.0 %
Test CRC 47410489
Copy CRC 47410489
Cannot be verified as accurate (confidence 3) [99C0906D], AccurateRip returned [A0416B7C]
Copy OK

Track 28

Filename I:\Cliff Richard - The Rock 'N' Roll Years 1958 ~ 1963 (1997) [FLAC] {EMI UK 4 CD box}\Disc 2of4\28 - Blue Moon.wav

Pre-gap length 0:00:01.55

Peak level 98.8 %
Extraction speed 11.4 X
Track quality 100.0 %
Test CRC 99F8F991
Copy CRC 99F8F991
Accurately ripped (confidence 2) [73B71FE5]
Copy OK


26 track(s) accurately ripped
2 track(s) could not be verified as accurate

Some tracks could not be verified as accurate

No errors occurred

End of status report

==== Log checksum 88BB752C5D2A8889CE878E4CB3FD106A89D09B873C168F59299294FC943760A3 ====



Disc 3 - The Rock 'N' Roll Years 1961 ~ 1962:

01. Tough Enough
02. Mumblin' Mosie
03. Fifty Tears For Every Kiss
04. Unchained Melody
05. What'd I Say
06. Forty Days
07. Without You
08. Shame On You
09. Spanish Harlem
10. Do You Remember
11. I'm Looking Out The Window
12. You Don't Know
13. Take Special Care
14. Do You Wanna Dance
15. Do You Wanna Dance
16. Do You Wanna Dance
17. Do You Wanna Dance
18. Since I Lost You
19. Dim, Dim The Lights
20. Sava My Soul
21. I'm Walkin' The Blues
22. Summer Holiday
23. The Next Time
24. Blueberry Hill
25. A Forever Kind Of Love
26. Razzle Dazzle
27. Reelin' And Rockin'
28. It's All In The Game

Exact Audio Copy V1.0 beta 1 from 15. November 2010

EAC extraction logfile from 9. June 2011, 19:09

Cliff Richard / The Rock 'N' Roll Years 1961-1962

Used drive : PLEXTOR CD-R PREMIUM Adapter: 0 ID: 1

Read mode : Secure
Utilize accurate stream : Yes
Defeat audio cache : Yes
Make use of C2 pointers : No

Read offset correction : 30
Overread into Lead-In and Lead-Out : Yes
Fill up missing offset samples with silence : Yes
Delete leading and trailing silent blocks : No
Null samples used in CRC calculations : Yes
Used interface : Installed external ASPI interface
Gap handling : Appended to previous track

Used output format : User Defined Encoder
Selected bitrate : 256 kBit/s
Quality : High
Add ID3 tag : No
Command line compressor : D:\Program Files\Exact Audio Copy\FLAC\FLAC.EXE
Additional command line options : -8 -V -T "ARTIST=%a" -T "TITLE=%t" -T "ALBUM=%g" -T "DATE=%y" -T "TRACKNUMBER=%n" -T "TOTALTRACKS=%x" -T "GENRE=%m" -T "ALBUMARTIST=%v" -T "ALBUM ARTIST=%v" -T "COMMENT=EAC Secure Mode, Test & Copy, AccurateRip, FLAC -8" %s


TOC of the extracted CD

Track | Start | Length | Start sector | End sector
––––––––––––––––––––––––––––-
1 | 0:00.00 | 2:16.05 | 0 | 10204
2 | 2:16.05 | 2:17.70 | 10205 | 20549
3 | 4:34.00 | 2:31.22 | 20550 | 31896
4 | 7:05.22 | 3:30.45 | 31897 | 47691
5 | 10:35.67 | 3:02.15 | 47692 | 61356
6 | 13:38.07 | 2:46.38 | 61357 | 73844
7 | 16:24.45 | 2:07.12 | 73845 | 83381
8 | 18:31.57 | 2:10.65 | 83382 | 93196
9 | 20:42.47 | 3:04.23 | 93197 | 107019
10 | 23:46.70 | 2:55.42 | 107020 | 120186
11 | 26:42.37 | 2:46.15 | 120187 | 132651
12 | 29:28.52 | 2:48.45 | 132652 | 145296
13 | 32:17.22 | 2:10.60 | 145297 | 155106
14 | 34:28.07 | 2:22.10 | 155107 | 165766
15 | 36:50.17 | 2:31.20 | 165767 | 177111
16 | 39:21.37 | 2:40.13 | 177112 | 189124
17 | 42:01.50 | 2:16.30 | 189125 | 199354
18 | 44:18.05 | 3:11.40 | 199355 | 213719
19 | 47:29.45 | 1:40.65 | 213720 | 221284
20 | 49:10.35 | 2:18.32 | 221285 | 231666
21 | 51:28.67 | 2:03.73 | 231667 | 240964
22 | 53:32.65 | 2:29.12 | 240965 | 252151
23 | 56:02.02 | 3:03.28 | 252152 | 265904
24 | 59:05.30 | 2:44.62 | 265905 | 278266
25 | 61:50.17 | 2:30.53 | 278267 | 289569
26 | 64:20.70 | 2:06.37 | 289570 | 299056
27 | 66:27.32 | 2:10.23 | 299057 | 308829
28 | 68:37.55 | 3:29.20 | 308830 | 324524


Track 1

Filename I:\Cliff Richard - The Rock 'N' Roll Years 1958 ~ 1963 (1997) [FLAC] {EMI UK 4 CD box}\Disc 3of4\01 - Tough Enough.wav

Pre-gap length 0:00:02.00

Peak level 98.8 %
Extraction speed 4.5 X
Track quality 100.0 %
Test CRC 724B02AB
Copy CRC 724B02AB
Accurately ripped (confidence 5) [D43CE117]
Copy OK

Track 2

Filename I:\Cliff Richard - The Rock 'N' Roll Years 1958 ~ 1963 (1997) [FLAC] {EMI UK 4 CD box}\Disc 3of4\02 - Mumblin' Mosie.wav

Pre-gap length 0:00:00.38

Peak level 98.8 %
Extraction speed 4.8 X
Track quality 100.0 %
Test CRC 9AF0759B
Copy CRC 9AF0759B
Accurately ripped (confidence 5) [E07EC1E5]
Copy OK

Track 3

Filename I:\Cliff Richard - The Rock 'N' Roll Years 1958 ~ 1963 (1997) [FLAC] {EMI UK 4 CD box}\Disc 3of4\03 - Fifty Tears For Every Kiss.wav

Pre-gap length 0:00:01.33

Peak level 98.8 %
Extraction speed 5.2 X
Track quality 100.0 %
Test CRC 04BDF428
Copy CRC 04BDF428
Accurately ripped (confidence 6) [B16AA17F]
Copy OK

Track 4

Filename I:\Cliff Richard - The Rock 'N' Roll Years 1958 ~ 1963 (1997) [FLAC] {EMI UK 4 CD box}\Disc 3of4\04 - Unchained Melody.wav

Pre-gap length 0:00:01.60

Peak level 98.8 %
Extraction speed 5.7 X
Track quality 100.0 %
Test CRC 24EDC114
Copy CRC 24EDC114
Accurately ripped (confidence 5) [E01FFEB5]
Copy OK

Track 5

Filename I:\Cliff Richard - The Rock 'N' Roll Years 1958 ~ 1963 (1997) [FLAC] {EMI UK 4 CD box}\Disc 3of4\05 - What'd I Say.wav

Pre-gap length 0:00:01.55

Peak level 98.8 %
Extraction speed 5.9 X
Track quality 100.0 %
Test CRC 75F8B875
Copy CRC 75F8B875
Accurately ripped (confidence 5) [0D3BD35D]
Copy OK

Track 6

Filename I:\Cliff Richard - The Rock 'N' Roll Years 1958 ~ 1963 (1997) [FLAC] {EMI UK 4 CD box}\Disc 3of4\06 - Forty Days.wav

Pre-gap length 0:00:01.15

Peak level 98.9 %
Extraction speed 6.2 X
Track quality 100.0 %
Test CRC 3A3650E4
Copy CRC 3A3650E4
Accurately ripped (confidence 5) [A3C7EE69]
Copy OK

Track 7

Filename I:\Cliff Richard - The Rock 'N' Roll Years 1958 ~ 1963 (1997) [FLAC] {EMI UK 4 CD box}\Disc 3of4\07 - Without You.wav

Pre-gap length 0:00:01.53

Peak level 98.8 %
Extraction speed 4.2 X
Track quality 99.9 %
Test CRC 5882E398
Copy CRC 5882E398
Accurately ripped (confidence 5) [93BEE500]
Copy OK

Track 8

Filename I:\Cliff Richard - The Rock 'N' Roll Years 1958 ~ 1963 (1997) [FLAC] {EMI UK 4 CD box}\Disc 3of4\08 - Shame On You.wav

Pre-gap length 0:00:01.35

Peak level 98.9 %
Extraction speed 6.2 X
Track quality 100.0 %
Test CRC 96513BD3
Copy CRC 96513BD3
Accurately ripped (confidence 5) [039FEB02]
Copy OK

Track 9

Filename I:\Cliff Richard - The Rock 'N' Roll Years 1958 ~ 1963 (1997) [FLAC] {EMI UK 4 CD box}\Disc 3of4\09 - Spanish Harlem.wav

Pre-gap length 0:00:01.55

Peak level 98.8 %
Extraction speed 5.2 X
Track quality 99.9 %
Test CRC CFC050B7
Copy CRC CFC050B7
Accurately ripped (confidence 5) [FA659E0B]
Copy OK

Track 10

Filename I:\Cliff Richard - The Rock 'N' Roll Years 1958 ~ 1963 (1997) [FLAC] {EMI UK 4 CD box}\Disc 3of4\10 - Do You Remember.wav

Pre-gap length 0:00:00.33

Peak level 98.8 %
Extraction speed 7.0 X
Track quality 100.0 %
Test CRC 3A915780
Copy CRC 3A915780
Accurately ripped (confidence 6) [1FCF0789]
Copy OK

Track 11

Filename I:\Cliff Richard - The Rock 'N' Roll Years 1958 ~ 1963 (1997) [FLAC] {EMI UK 4 CD box}\Disc 3of4\11 - I'm Looking Out The Window.wav

Pre-gap length 0:00:01.52

Peak level 98.8 %
Extraction speed 7.3 X
Track quality 100.0 %
Test CRC A63A363D
Copy CRC A63A363D
Accurately ripped (confidence 6) [786D2E66]
Copy OK

Track 12

Filename I:\Cliff Richard - The Rock 'N' Roll Years 1958 ~ 1963 (1997) [FLAC] {EMI UK 4 CD box}\Disc 3of4\12 - You Don't Know.wav

Pre-gap length 0:00:01.45

Peak level 98.8 %
Extraction speed 7.4 X
Track quality 100.0 %
Test CRC 77C29670
Copy CRC 77C29670
Accurately ripped (confidence 6) [1D6A2ECD]
Copy OK

Track 13

Filename I:\Cliff Richard - The Rock 'N' Roll Years 1958 ~ 1963 (1997) [FLAC] {EMI UK 4 CD box}\Disc 3of4\13 - Take Special Care.wav

Pre-gap length 0:00:01.52

Peak level 96.6 %
Extraction speed 7.5 X
Track quality 100.0 %
Test CRC 32702169
Copy CRC 32702169
Accurately ripped (confidence 6) [678DBBF2]
Copy OK

Track 14

Filename I:\Cliff Richard - The Rock 'N' Roll Years 1958 ~ 1963 (1997) [FLAC] {EMI UK 4 CD box}\Disc 3of4\14 - Do You Wanna Dance.wav

Pre-gap length 0:00:01.32

Peak level 98.8 %
Extraction speed 5.4 X
Track quality 99.9 %
Test CRC 7A34B77A
Copy CRC 7A34B77A
Accurately ripped (confidence 5) [F815C1A9]
Copy OK

Track 15

Filename I:\Cliff Richard - The Rock 'N' Roll Years 1958 ~ 1963 (1997) [FLAC] {EMI UK 4 CD box}\Disc 3of4\15 - Do You Wanna Dance.wav

Peak level 98.8 %
Extraction speed 8.0 X
Track quality 100.0 %
Test CRC 9CF025A5
Copy CRC 9CF025A5
Accurately ripped (confidence 5) [404F7441]
Copy OK

Track 16

Filename I:\Cliff Richard - The Rock 'N' Roll Years 1958 ~ 1963 (1997) [FLAC] {EMI UK 4 CD box}\Disc 3of4\16 - Do You Wanna Dance.wav

Peak level 98.8 %
Extraction speed 8.3 X
Track quality 100.0 %
Test CRC B293F535
Copy CRC B293F535
Accurately ripped (confidence 5) [42876D8A]
Copy OK

Track 17

Filename I:\Cliff Richard - The Rock 'N' Roll Years 1958 ~ 1963 (1997) [FLAC] {EMI UK 4 CD box}\Disc 3of4\17 - Do You Wanna Dance.wav

Pre-gap length 0:00:01.50

Peak level 98.8 %
Extraction speed 8.2 X
Track quality 100.0 %
Test CRC 47D82952
Copy CRC 47D82952
Accurately ripped (confidence 5) [AEA2A446]
Copy OK

Track 18

Filename I:\Cliff Richard - The Rock 'N' Roll Years 1958 ~ 1963 (1997) [FLAC] {EMI UK 4 CD box}\Disc 3of4\18 - Since I Lost You.wav

Pre-gap length 0:00:01.53

Peak level 96.6 %
Extraction speed 8.8 X
Track quality 100.0 %
Test CRC 07A38861
Copy CRC 07A38861
Accurately ripped (confidence 5) [E22D6E38]
Copy OK

Track 19

Filename I:\Cliff Richard - The Rock 'N' Roll Years 1958 ~ 1963 (1997) [FLAC] {EMI UK 4 CD box}\Disc 3of4\19 - Dim, Dim The Lights.wav

Pre-gap length 0:00:01.63

Peak level 98.8 %
Extraction speed 7.8 X
Track quality 100.0 %
Test CRC 72B8915C
Copy CRC 72B8915C
Accurately ripped (confidence 5) [0C3D1995]
Copy OK

Track 20

Filename I:\Cliff Richard - The Rock 'N' Roll Years 1958 ~ 1963 (1997) [FLAC] {EMI UK 4 CD box}\Disc 3of4\20 - Sava My Soul.wav

Peak level 98.8 %
Extraction speed 8.7 X
Track quality 100.0 %
Test CRC A90ADCE5
Copy CRC A90ADCE5
Accurately ripped (confidence 5) [1E4B2140]
Copy OK

Track 21

Filename I:\Cliff Richard - The Rock 'N' Roll Years 1958 ~ 1963 (1997) [FLAC] {EMI UK 4 CD box}\Disc 3of4\21 - I'm Walkin' The Blues.wav

Pre-gap length 0:00:02.12

Peak level 97.7 %
Extraction speed 8.6 X
Track quality 100.0 %
Test CRC B440D603
Copy CRC B440D603
Accurately ripped (confidence 5) [FE6A3069]
Copy OK

Track 22

Filename I:\Cliff Richard - The Rock 'N' Roll Years 1958 ~ 1963 (1997) [FLAC] {EMI UK 4 CD box}\Disc 3of4\22 - Summer Holiday.wav

Pre-gap length 0:00:01.53

Peak level 98.8 %
Extraction speed 8.9 X
Track quality 100.0 %
Test CRC 3CDCA0E0
Copy CRC 3CDCA0E0
Accurately ripped (confidence 6) [59F802B3]
Copy OK

Track 23

Filename I:\Cliff Richard - The Rock 'N' Roll Years 1958 ~ 1963 (1997) [FLAC] {EMI UK 4 CD box}\Disc 3of4\23 - The Next Time.wav

Pre-gap length 0:00:01.50

Peak level 98.8 %
Extraction speed 9.4 X
Track quality 100.0 %
Test CRC D7218BD3
Copy CRC D7218BD3
Accurately ripped (confidence 6) [16E11407]
Copy OK

Track 24

Filename I:\Cliff Richard - The Rock 'N' Roll Years 1958 ~ 1963 (1997) [FLAC] {EMI UK 4 CD box}\Disc 3of4\24 - Blueberry Hill.wav

Pre-gap length 0:00:01.15

Peak level 98.8 %
Extraction speed 9.6 X
Track quality 100.0 %
Test CRC 0871E467
Copy CRC 0871E467
Accurately ripped (confidence 5) [0E611029]
Copy OK

Track 25

Filename I:\Cliff Richard - The Rock 'N' Roll Years 1958 ~ 1963 (1997) [FLAC] {EMI UK 4 CD box}\Disc 3of4\25 - A Forever Kind Of Love.wav

Pre-gap length 0:00:01.17

Peak level 98.8 %
Extraction speed 9.2 X
Track quality 100.0 %
Test CRC D9C5BA7A
Copy CRC D9C5BA7A
Accurately ripped (confidence 6) [BE46396D]
Copy OK

Track 26

Filename I:\Cliff Richard - The Rock 'N' Roll Years 1958 ~ 1963 (1997) [FLAC] {EMI UK 4 CD box}\Disc 3of4\26 - Razzle Dazzle.wav

Pre-gap length 0:00:01.25

Peak level 98.8 %
Extraction speed 6.1 X
Track quality 99.9 %
Test CRC 3C06B31A
Copy CRC 3C06B31A
Accurately ripped (confidence 4) [AE04F40B]
Copy OK

Track 27

Filename I:\Cliff Richard - The Rock 'N' Roll Years 1958 ~ 1963 (1997) [FLAC] {EMI UK 4 CD box}\Disc 3of4\27 - Reelin' And Rockin'.wav

Pre-gap length 0:00:01.60

Peak level 98.8 %
Extraction speed 8.7 X
Track quality 100.0 %
Test CRC 7E43B5E9
Copy CRC 7E43B5E9
Accurately ripped (confidence 5) [55DBD237]
Copy OK

Track 28

Filename I:\Cliff Richard - The Rock 'N' Roll Years 1958 ~ 1963 (1997) [FLAC] {EMI UK 4 CD box}\Disc 3of4\28 - It's All In The Game.wav

Pre-gap length 0:00:02.05

Peak level 98.8 %
Extraction speed 11.1 X
Track quality 100.0 %
Test CRC 53C70348
Copy CRC 53C70348
Accurately ripped (confidence 5) [D5E0086D]
Copy OK


All tracks accurately ripped

No errors occurred

End of status report

==== Log checksum D11A89DF6E72FA2865230ABEF53F43DBAAD79274D4F6ACB9411C605E4850BB80 ====



Disc 4 - Rare 'N' Rockin' 1958 ~ 1963:

01. Lawdy Miss Clawdy
02. Breathless
03. Twenty Flight Rock
04. Jailhouse Rock
05. Money Honey
06. Heartbreak Hotel
07. Turn Me Loose
08. Who's Gonna Take You Home
09. Let's Stick Together
10. What'd I Say
11. Forty Days
12. Got A Funny Feeling
13. Rosalie (Come Back To Me)
14. Me And My Shadows
15. Lessons In Love
16. We Say Yeah
17. Hang Up Your Rock And Roll Shoes
18. Dancing Shoes
19. It'll Be Me
20. Summer Holliday Advertising EP
21. Cliff's Personal Message To You

Exact Audio Copy V1.0 beta 1 from 15. November 2010

EAC extraction logfile from 9. June 2011, 19:32

Cliff Richard / Rare 'N' Rockin' 1958-1963

Used drive : PLEXTOR CD-R PREMIUM Adapter: 0 ID: 1

Read mode : Secure
Utilize accurate stream : Yes
Defeat audio cache : Yes
Make use of C2 pointers : No

Read offset correction : 30
Overread into Lead-In and Lead-Out : Yes
Fill up missing offset samples with silence : Yes
Delete leading and trailing silent blocks : No
Null samples used in CRC calculations : Yes
Used interface : Installed external ASPI interface
Gap handling : Appended to previous track

Used output format : User Defined Encoder
Selected bitrate : 256 kBit/s
Quality : High
Add ID3 tag : No
Command line compressor : D:\Program Files\Exact Audio Copy\FLAC\FLAC.EXE
Additional command line options : -8 -V -T "ARTIST=%a" -T "TITLE=%t" -T "ALBUM=%g" -T "DATE=%y" -T "TRACKNUMBER=%n" -T "TOTALTRACKS=%x" -T "GENRE=%m" -T "ALBUMARTIST=%v" -T "ALBUM ARTIST=%v" -T "COMMENT=EAC Secure Mode, Test & Copy, AccurateRip, FLAC -8" %s


TOC of the extracted CD

Track | Start | Length | Start sector | End sector
––––––––––––––––––––––––––––-
1 | 0:00.00 | 2:01.35 | 0 | 9109
2 | 2:01.35 | 2:09.55 | 9110 | 18839
3 | 4:11.15 | 1:58.02 | 18840 | 27691
4 | 6:09.17 | 2:31.55 | 27692 | 39071
5 | 8:40.72 | 2:20.63 | 39072 | 49634
6 | 11:01.60 | 2:40.35 | 49635 | 61669
7 | 13:42.20 | 1:17.07 | 61670 | 67451
8 | 14:59.27 | 1:49.18 | 67452 | 75644
9 | 16:48.45 | 1:29.70 | 75645 | 82389
10 | 18:18.40 | 3:03.02 | 82390 | 96116
11 | 21:21.42 | 2:46.28 | 96117 | 108594
12 | 24:07.70 | 2:55.12 | 108595 | 121731
13 | 27:03.07 | 1:49.53 | 121732 | 129959
14 | 28:52.60 | 1:09.55 | 129960 | 135189
15 | 30:02.40 | 1:59.27 | 135190 | 144141
16 | 32:01.67 | 1:42.50 | 144142 | 151841
17 | 33:44.42 | 2:39.00 | 151842 | 163766
18 | 36:23.42 | 2:04.18 | 163767 | 173084
19 | 38:27.60 | 2:05.15 | 173085 | 182474
20 | 40:33.00 | 4:41.55 | 182475 | 203604
21 | 45:14.55 | 2:42.45 | 203605 | 215799


Track 1

Filename I:\Cliff Richard - The Rock 'N' Roll Years 1958 ~ 1963 (1997) [FLAC] {EMI UK 4 CD box}\Disc 4of4\01 - Lawdy Miss Clawdy.wav

Pre-gap length 0:00:02.00

Peak level 98.8 %
Extraction speed 3.9 X
Track quality 100.0 %
Test CRC 754E57AD
Copy CRC 754E57AD
Accurately ripped (confidence 4) [4A3912A7]
Copy OK

Track 2

Filename I:\Cliff Richard - The Rock 'N' Roll Years 1958 ~ 1963 (1997) [FLAC] {EMI UK 4 CD box}\Disc 4of4\02 - Breathless.wav

Pre-gap length 0:00:01.50

Peak level 98.8 %
Extraction speed 4.3 X
Track quality 100.0 %
Test CRC 589E7E94
Copy CRC 589E7E94
Accurately ripped (confidence 4) [C4FA8A9F]
Copy OK

Track 3

Filename I:\Cliff Richard - The Rock 'N' Roll Years 1958 ~ 1963 (1997) [FLAC] {EMI UK 4 CD box}\Disc 4of4\03 - Twenty Flight Rock.wav

Pre-gap length 0:00:01.50

Peak level 98.8 %
Extraction speed 4.4 X
Track quality 100.0 %
Test CRC B203A68F
Copy CRC B203A68F
Accurately ripped (confidence 4) [D5369197]
Copy OK

Track 4

Filename I:\Cliff Richard - The Rock 'N' Roll Years 1958 ~ 1963 (1997) [FLAC] {EMI UK 4 CD box}\Disc 4of4\04 - Jailhouse Rock.wav

Pre-gap length 0:00:01.52

Peak level 98.8 %
Extraction speed 3.6 X
Track quality 99.9 %
Test CRC 54033649
Copy CRC 54033649
Accurately ripped (confidence 4) [9204D284]
Copy OK

Track 5

Filename I:\Cliff Richard - The Rock 'N' Roll Years 1958 ~ 1963 (1997) [FLAC] {EMI UK 4 CD box}\Disc 4of4\05 - Money Honey.wav

Pre-gap length 0:00:01.50

Peak level 98.8 %
Extraction speed 4.8 X
Track quality 100.0 %
Test CRC 5E16A497
Copy CRC 5E16A497
Accurately ripped (confidence 4) [B2CA33B6]
Copy OK

Track 6

Filename I:\Cliff Richard - The Rock 'N' Roll Years 1958 ~ 1963 (1997) [FLAC] {EMI UK 4 CD box}\Disc 4of4\06 - Heartbreak Hotel.wav

Pre-gap length 0:00:01.48

Peak level 99.9 %
Extraction speed 5.4 X
Track quality 100.0 %
Test CRC 461B5E26
Copy CRC 461B5E26
Accurately ripped (confidence 4) [9A47EEE3]
Copy OK

Track 7

Filename I:\Cliff Richard - The Rock 'N' Roll Years 1958 ~ 1963 (1997) [FLAC] {EMI UK 4 CD box}\Disc 4of4\07 - Turn Me Loose.wav

Pre-gap length 0:00:01.48

Peak level 98.8 %
Extraction speed 4.6 X
Track quality 100.0 %
Test CRC 86AA6B91
Copy CRC 86AA6B91
Accurately ripped (confidence 4) [6797ED3A]
Copy OK

Track 8

Filename I:\Cliff Richard - The Rock 'N' Roll Years 1958 ~ 1963 (1997) [FLAC] {EMI UK 4 CD box}\Disc 4of4\08 - Who's Gonna Take You Home.wav

Pre-gap length 0:00:01.52

Peak level 94.4 %
Extraction speed 3.6 X
Track quality 99.9 %
Test CRC 3866871D
Copy CRC 3866871D
Accurately ripped (confidence 4) [69AE6ABA]
Copy OK

Track 9

Filename I:\Cliff Richard - The Rock 'N' Roll Years 1958 ~ 1963 (1997) [FLAC] {EMI UK 4 CD box}\Disc 4of4\09 - Let's Stick Together.wav

Pre-gap length 0:00:01.58

Peak level 94.4 %
Extraction speed 5.2 X
Track quality 100.0 %
Test CRC B57004FC
Copy CRC B57004FC
Accurately ripped (confidence 4) [8FCC8FD1]
Copy OK

Track 10

Filename I:\Cliff Richard - The Rock 'N' Roll Years 1958 ~ 1963 (1997) [FLAC] {EMI UK 4 CD box}\Disc 4of4\10 - What'd I Say.wav

Pre-gap length 0:00:01.45

Peak level 88.1 %
Extraction speed 6.2 X
Track quality 100.0 %
Test CRC 24903563
Copy CRC 24903563
Accurately ripped (confidence 4) [FB582B6F]
Copy OK

Track 11

Filename I:\Cliff Richard - The Rock 'N' Roll Years 1958 ~ 1963 (1997) [FLAC] {EMI UK 4 CD box}\Disc 4of4\11 - Forty Days.wav

Pre-gap length 0:00:01.50

Peak level 98.8 %
Extraction speed 4.8 X
Track quality 99.9 %
Test CRC 298623E4
Copy CRC 298623E4
Accurately ripped (confidence 4) [D9DF35F5]
Copy OK

Track 12

Filename I:\Cliff Richard - The Rock 'N' Roll Years 1958 ~ 1963 (1997) [FLAC] {EMI UK 4 CD box}\Disc 4of4\12 - Got A Funny Feeling.wav

Peak level 98.8 %
Extraction speed 6.5 X
Track quality 100.0 %
Test CRC 7DAD51BD
Copy CRC 7DAD51BD
Accurately ripped (confidence 4) [69BC2BF4]
Copy OK

Track 13

Filename I:\Cliff Richard - The Rock 'N' Roll Years 1958 ~ 1963 (1997) [FLAC] {EMI UK 4 CD box}\Disc 4of4\13 - Rosalie (Come Back To Me).wav

Peak level 98.8 %
Extraction speed 6.3 X
Track quality 100.0 %
Test CRC 9FD25BF5
Copy CRC 9FD25BF5
Accurately ripped (confidence 4) [F32E3A8E]
Copy OK

Track 14

Filename I:\Cliff Richard - The Rock 'N' Roll Years 1958 ~ 1963 (1997) [FLAC] {EMI UK 4 CD box}\Disc 4of4\14 - Me And My Shadows.wav

Peak level 98.8 %
Extraction speed 3.4 X
Track quality 99.8 %
Test CRC 013C51F1
Copy CRC 013C51F1
Accurately ripped (confidence 4) [AF5B5D53]
Copy OK

Track 15

Filename I:\Cliff Richard - The Rock 'N' Roll Years 1958 ~ 1963 (1997) [FLAC] {EMI UK 4 CD box}\Disc 4of4\15 - Lessons In Love.wav

Pre-gap length 0:00:01.53

Peak level 94.4 %
Extraction speed 6.4 X
Track quality 100.0 %
Test CRC 76EC86BA
Copy CRC 76EC86BA
Accurately ripped (confidence 4) [9F99C946]
Copy OK

Track 16

Filename I:\Cliff Richard - The Rock 'N' Roll Years 1958 ~ 1963 (1997) [FLAC] {EMI UK 4 CD box}\Disc 4of4\16 - We Say Yeah.wav

Pre-gap length 0:00:01.52

Peak level 94.4 %
Extraction speed 6.5 X
Track quality 100.0 %
Test CRC 5CE79E00
Copy CRC 5CE79E00
Accurately ripped (confidence 4) [427726E8]
Copy OK

Track 17

Filename I:\Cliff Richard - The Rock 'N' Roll Years 1958 ~ 1963 (1997) [FLAC] {EMI UK 4 CD box}\Disc 4of4\17 - Hang Up Your Rock And Roll Shoes.wav

Pre-gap length 0:00:01.52

Peak level 94.4 %
Extraction speed 7.2 X
Track quality 100.0 %
Test CRC C5066695
Copy CRC C5066695
Accurately ripped (confidence 4) [DCDE1AC8]
Copy OK

Track 18

Filename I:\Cliff Richard - The Rock 'N' Roll Years 1958 ~ 1963 (1997) [FLAC] {EMI UK 4 CD box}\Disc 4of4\18 - Dancing Shoes.wav

Peak level 94.4 %
Extraction speed 7.3 X
Track quality 100.0 %
Test CRC FE4D0CE4
Copy CRC FE4D0CE4
Accurately ripped (confidence 4) [85906393]
Copy OK

Track 19

Filename I:\Cliff Richard - The Rock 'N' Roll Years 1958 ~ 1963 (1997) [FLAC] {EMI UK 4 CD box}\Disc 4of4\19 - It'll Be Me.wav

Peak level 94.4 %
Extraction speed 4.9 X
Track quality 99.9 %
Test CRC 2B6C610E
Copy CRC 2B6C610E
Accurately ripped (confidence 4) [4E27D37B]
Copy OK

Track 20

Filename I:\Cliff Richard - The Rock 'N' Roll Years 1958 ~ 1963 (1997) [FLAC] {EMI UK 4 CD box}\Disc 4of4\20 - Summer Holliday Advertising EP.wav

Pre-gap length 0:00:01.55

Peak level 96.6 %
Extraction speed 8.5 X
Track quality 100.0 %
Test CRC 15D2A55A
Copy CRC 15D2A55A
Accurately ripped (confidence 4) [A8D37E4C]
Copy OK

Track 21

Filename I:\Cliff Richard - The Rock 'N' Roll Years 1958 ~ 1963 (1997) [FLAC] {EMI UK 4 CD box}\Disc 4of4\21 - Cliff's Personal Message To You.wav

Pre-gap length 0:00:01.50

Peak level 98.8 %
Extraction speed 9.8 X
Track quality 100.0 %
Test CRC E5B610AC
Copy CRC E5B610AC
Accurately ripped (confidence 4) [CC20FCF1]
Copy OK


All tracks accurately ripped

No errors occurred

End of status report

==== Log checksum 5F34107CFB036ADF4B8716BC74D35646E9DD928541263C588E33A5FCC62FD8F3 ====



The material on "Rare 'N' Rockin'" originates from a variety sources including 1/4" tape, cassettes, and acetates.
All tracks were digitally remastered in 1997.

Many thanks to DJGarrik!

D O W N L O A D


Where "LOS" is lossless, "MP3" is MP3's, and "COV" is box, covers & some book's pages scans.