Tags
Language
Tags
June 2024
Su Mo Tu We Th Fr Sa
26 27 28 29 30 31 1
2 3 4 5 6 7 8
9 10 11 12 13 14 15
16 17 18 19 20 21 22
23 24 25 26 27 28 29
30 1 2 3 4 5 6

Stan Getz - The Complete Recordings of the Stan Getz Quintet with Jimmy Raney (1951-53) {3CD Set Mosaic Records rel 1990}

Posted By: ruskaval
Stan Getz - The Complete Recordings of the Stan Getz Quintet with Jimmy Raney (1951-53) {3CD Set Mosaic Records rel 1990}

Stan Getz - The Complete Recordings of the Stan Getz Quintet with Jimmy Raney (1951-53) {3CD Set Mosaic Records rel 1990}
EAC rip (secure mode) | FLAC (tracks)+CUE+LOG -> 558 Mb | MP3 @320 -> 375 Mb
Full Artwork @ 600 dpi (jpg) -> 90 Mb | 5% repair rar
© 1951-53, 1990 Mosaic Records | MD3-131
Jazz / Cool / Bop / Saxophone / Guitar

This limited-edition three-CD set will be hard to acquire but it is a gem. Tenor saxophonist Stan Getz and guitarist Jimmy Raney had very complementary cool-toned but hard-swinging styles. Their gig at Storyville in Boston resulted in some classic music that, along with five studio sessions, is included in this box. The supporting cast includes pianists Al Haig, Horace Silver, Duke Jordan, and Hall Overton; the music was originally recorded for Roost, Clef, Norgran, and Prestige. This essential set is filled with exciting performances from Stan Getz when he was first becoming a highly influential force in jazz.
Stan Getz - The Complete Recordings of the Stan Getz Quintet with Jimmy Raney (1951-53) {3CD Set Mosaic Records rel 1990}

Useless to say we are in front a true landmark document: for all hard -to die- fans of the genre Stan Getz was an emblematic personality. His silky phrasing became of him his own personal signature. This limited-edition three-CD set is a real gem. Tenor saxophonist Stan Getz and guitarist Jimmy Raney had a very special affinity a little bit cool-toned.

Their gig in Boston resulted in some classic music that, along with five studio sessions, is included in this box. The supporting cast is worthy to cite: pianists Al Haig, Horace Silver, Duke Jordan, and Hall Overton ;this essential set is filled with exciting performances from Stan Getz when he was becoming an emerging raising force in jazz.

Featuring Jimmy Raney, Stan Getz, Red Mitchell, Hall Overton, Frank Isola, Al Haig, Duke Jordan, Horace Silver, Teddy Kotick, Roy Haynes. Recorded between October 28, 1951 & April 23, 1953.
Stan Getz - The Complete Recordings of the Stan Getz Quintet with Jimmy Raney (1951-53) {3CD Set Mosaic Records rel 1990}


Personnel:
Stan Getz - tenor saxophone
Jimmy Raney - guitar
Al Haig - piano
Teddy Kotick - bass
Tiny Kahn - drums
Horace Silver - piano
Leonard Gaskin - bass
Roy Haynes - drums
Duke Jordan - piano
Bill Crow - bass
Frank Isola - drums
Hall Overton - piano
Red Mitchell - bass

Stan Getz - The Complete Recordings of the Stan Getz Quintet with Jimmy Raney (1951-53) {3CD Set Mosaic Records rel 1990}


tracklist:
CD1

01 - Thou Swell
02 - The Song Is You
03 - Mosquito Knees
04 - Pennies From Heaven
05 - Move
06 - Parker 51
07 - Hershey Bar
08 - Rubberneck
09 - Signal
10 - Everything Happens To Me
11 - Jumping With Symphony Sid
12 - Yesterdays
13 - Budo

Stan Getz - The Complete Recordings of the Stan Getz Quintet with Jimmy Raney (1951-53) {3CD Set Mosaic Records rel 1990}


CD2
01 - Melody Express
02 - Yvette
03 - Potter's Luck
04 - The Song Is You
05 - Wildwood
06 - Stella By Starlight
07 - Time On My Hands
08 - 'Tis Autumn
09 - The Way You Look Tonight
10 - Lover Come Back To Me
11 - Body And Soul
12 - Stars Fell On Alabama
13 - You Turned The Tables On Me

Stan Getz - The Complete Recordings of the Stan Getz Quintet with Jimmy Raney (1951-53) {3CD Set Mosaic Records rel 1990}


CD3
01 - Lullaby Of Birdland
02 - Autumn Leaves
03 - Autumn Leaves (alt tk)
04 - Fools Rush In
05 - Fools Rush In (alt tk)
06 - These Foolish Things
07 - Thanks For The Memory
08 - How Deep Is The Ocean
09 - Hymn Of The Orient
10 - These Foolish Things (alt tk)
11 - Signal
12 - Lee
13 - 'Round Midnight
14 - Motion

Stan Getz - The Complete Recordings of the Stan Getz Quintet with Jimmy Raney (1951-53) {3CD Set Mosaic Records rel 1990}


EAC extraction logfile from 9. February 2007, 23:27 for CD
Stan Getz / Complete Recordings of the Stan Getz Quintet with Jimmy Raney

Used drive : SONY CDRWDVD CRX310S Adapter: 0 ID: 1
Read mode : Secure with NO C2, accurate stream, disable cache
Read offset correction : 6
Overread into Lead-In and Lead-Out : No

Used output format : C:\Program Files\Exact Audio Copy\Compressors\FLAC\flac.exe (User Defined Encoder)
192 kBit/s
Additional command line options : -8 -V -T "artist=%a" -T "title=%t" -T "album=%g" -T "date=%y" -T "tracknumber=%n" -T "genre=%m" -T "comment=EAC 0.95 b4 secure / FLAC 1.1.3b q8" %s

Other options :
Fill up missing offset samples with silence : Yes
Delete leading and trailing silent blocks : No
Native Win32 interface for Win NT & 2000


Track 1
Filename K:\New Rips\Stan Getz - Complete Recordings of the Stan Getz Quintet with Jimmy Raney (1990) [FLAC]\disc 1\01 - Thou Swell.wav

Pre-gap length 0:00:02.00

Peak level 52.4 %
Track quality 100.0 %
Test CRC 9157F0A0
Copy CRC 9157F0A0
Copy OK

Track 2
Filename K:\New Rips\Stan Getz - Complete Recordings of the Stan Getz Quintet with Jimmy Raney (1990) [FLAC]\disc 1\02 - The Song Is You.wav

Pre-gap length 0:00:02.65

Peak level 72.5 %
Track quality 100.0 %
Test CRC F7B91F8E
Copy CRC F7B91F8E
Copy OK

Track 3
Filename K:\New Rips\Stan Getz - Complete Recordings of the Stan Getz Quintet with Jimmy Raney (1990) [FLAC]\disc 1\03 - Mosquito Knees.wav

Pre-gap length 0:00:02.22

Peak level 52.8 %
Track quality 100.0 %
Test CRC 63B04717
Copy CRC 63B04717
Copy OK

Track 4
Filename K:\New Rips\Stan Getz - Complete Recordings of the Stan Getz Quintet with Jimmy Raney (1990) [FLAC]\disc 1\04 - Pennies From Heaven.wav

Pre-gap length 0:00:02.24

Peak level 46.3 %
Track quality 100.0 %
Test CRC EF7401E4
Copy CRC EF7401E4
Copy OK

Track 5
Filename K:\New Rips\Stan Getz - Complete Recordings of the Stan Getz Quintet with Jimmy Raney (1990) [FLAC]\disc 1\05 - Move.wav

Pre-gap length 0:00:02.56

Peak level 59.7 %
Track quality 100.0 %
Test CRC 1BA799FD
Copy CRC 1BA799FD
Copy OK

Track 6
Filename K:\New Rips\Stan Getz - Complete Recordings of the Stan Getz Quintet with Jimmy Raney (1990) [FLAC]\disc 1\06 - Parker 51.wav

Pre-gap length 0:00:03.09

Peak level 51.5 %
Track quality 99.9 %
Test CRC DD8CD896
Copy CRC DD8CD896
Copy OK

Track 7
Filename K:\New Rips\Stan Getz - Complete Recordings of the Stan Getz Quintet with Jimmy Raney (1990) [FLAC]\disc 1\07 - Hershey Bar.wav

Pre-gap length 0:00:02.77

Peak level 51.9 %
Track quality 100.0 %
Test CRC 5A2ADE77
Copy CRC 5A2ADE77
Copy OK

Track 8
Filename K:\New Rips\Stan Getz - Complete Recordings of the Stan Getz Quintet with Jimmy Raney (1990) [FLAC]\disc 1\08 - Rubberneck.wav

Pre-gap length 0:00:02.66

Peak level 57.3 %
Track quality 100.0 %
Test CRC 10EA78BE
Copy CRC 10EA78BE
Copy OK

Track 9
Filename K:\New Rips\Stan Getz - Complete Recordings of the Stan Getz Quintet with Jimmy Raney (1990) [FLAC]\disc 1\09 - Signal.wav

Pre-gap length 0:00:02.46

Peak level 59.5 %
Track quality 100.0 %
Test CRC F6D702B3
Copy CRC F6D702B3
Copy OK

Track 10
Filename K:\New Rips\Stan Getz - Complete Recordings of the Stan Getz Quintet with Jimmy Raney (1990) [FLAC]\disc 1\10 - Everything Happens To Me.wav

Pre-gap length 0:00:02.57

Peak level 58.1 %
Track quality 100.0 %
Test CRC C0319A87
Copy CRC C0319A87
Copy OK

Track 11
Filename K:\New Rips\Stan Getz - Complete Recordings of the Stan Getz Quintet with Jimmy Raney (1990) [FLAC]\disc 1\11 - Jumping With Symphony Sid.wav

Pre-gap length 0:00:02.36

Peak level 60.4 %
Track quality 100.0 %
Test CRC 9C1F2E13
Copy CRC 9C1F2E13
Copy OK

Track 12
Filename K:\New Rips\Stan Getz - Complete Recordings of the Stan Getz Quintet with Jimmy Raney (1990) [FLAC]\disc 1\12 - Yesterdays.wav

Pre-gap length 0:00:03.00

Peak level 46.1 %
Track quality 100.0 %
Test CRC 5905D080
Copy CRC 5905D080
Copy OK

Track 13
Filename K:\New Rips\Stan Getz - Complete Recordings of the Stan Getz Quintet with Jimmy Raney (1990) [FLAC]\disc 1\13 - Budo.wav

Pre-gap length 0:00:02.66

Peak level 59.2 %
Track quality 100.0 %
Test CRC A4C1A87B
Copy CRC A4C1A87B
Copy OK

No errors occured


End of status report

––––––––––––––––––––––––––––––

EAC extraction logfile from 9. February 2007, 23:27 for CD
Stan Getz / Complete Recordings of the Stan Getz Quintet with Jimmy Raney

Used drive : TSSTcorpDVD+-RW TS-H553A Adapter: 0 ID: 2
Read mode : Secure with NO C2, accurate stream, disable cache
Read offset correction : 6
Overread into Lead-In and Lead-Out : No

Used output format : C:\Program Files\Exact Audio Copy\Compressors\FLAC\flac.exe (User Defined Encoder)
192 kBit/s
Additional command line options : -8 -V -T "artist=%a" -T "title=%t" -T "album=%g" -T "date=%y" -T "tracknumber=%n" -T "genre=%m" -T "comment=EAC 0.95 b4 secure / FLAC 1.1.3b q8" %s

Other options :
Fill up missing offset samples with silence : Yes
Delete leading and trailing silent blocks : No
Native Win32 interface for Win NT & 2000


Track 1
Filename K:\New Rips\Stan Getz - Complete Recordings of the Stan Getz Quintet with Jimmy Raney (1990) [FLAC]\disc 2\01 - Melody Express.wav

Pre-gap length 0:00:02.00

Peak level 44.9 %
Track quality 99.9 %
Test CRC ED48C5BF
Copy CRC ED48C5BF
Copy OK

Track 2
Filename K:\New Rips\Stan Getz - Complete Recordings of the Stan Getz Quintet with Jimmy Raney (1990) [FLAC]\disc 2\02 - Yvette.wav

Pre-gap length 0:00:03.20

Peak level 45.4 %
Track quality 99.9 %
Test CRC D58875F8
Copy CRC D58875F8
Copy OK

Track 3
Filename K:\New Rips\Stan Getz - Complete Recordings of the Stan Getz Quintet with Jimmy Raney (1990) [FLAC]\disc 2\03 - Potter's Luck.wav

Pre-gap length 0:00:02.49

Peak level 51.2 %
Track quality 99.9 %
Test CRC 9B9FE7B5
Copy CRC 9B9FE7B5
Copy OK

Track 4
Filename K:\New Rips\Stan Getz - Complete Recordings of the Stan Getz Quintet with Jimmy Raney (1990) [FLAC]\disc 2\04 - The Song Is You.wav

Pre-gap length 0:00:03.04

Peak level 55.0 %
Track quality 99.9 %
Test CRC 90694957
Copy CRC 90694957
Copy OK

Track 5
Filename K:\New Rips\Stan Getz - Complete Recordings of the Stan Getz Quintet with Jimmy Raney (1990) [FLAC]\disc 2\05 - Wildwood.wav

Pre-gap length 0:00:03.40

Peak level 58.7 %
Track quality 100.0 %
Test CRC F2E34007
Copy CRC F2E34007
Copy OK

Track 6
Filename K:\New Rips\Stan Getz - Complete Recordings of the Stan Getz Quintet with Jimmy Raney (1990) [FLAC]\disc 2\06 - Stella By Starlight.wav

Pre-gap length 0:00:02.73

Peak level 62.8 %
Track quality 99.9 %
Test CRC 55394E4D
Copy CRC 55394E4D
Copy OK

Track 7
Filename K:\New Rips\Stan Getz - Complete Recordings of the Stan Getz Quintet with Jimmy Raney (1990) [FLAC]\disc 2\07 - Time On My Hands.wav

Pre-gap length 0:00:03.36

Peak level 61.1 %
Track quality 100.0 %
Test CRC 7EDAEA9B
Copy CRC 7EDAEA9B
Copy OK

Track 8
Filename K:\New Rips\Stan Getz - Complete Recordings of the Stan Getz Quintet with Jimmy Raney (1990) [FLAC]\disc 2\08 - 'Tis Autumn.wav

Pre-gap length 0:00:02.93

Peak level 67.9 %
Track quality 100.0 %
Test CRC CCDC1A6E
Copy CRC CCDC1A6E
Copy OK

Track 9
Filename K:\New Rips\Stan Getz - Complete Recordings of the Stan Getz Quintet with Jimmy Raney (1990) [FLAC]\disc 2\09 - The Way You Look Tonight.wav

Pre-gap length 0:00:03.24

Peak level 62.3 %
Track quality 100.0 %
Test CRC C5F7A1A6
Copy CRC C5F7A1A6
Copy OK

Track 10
Filename K:\New Rips\Stan Getz - Complete Recordings of the Stan Getz Quintet with Jimmy Raney (1990) [FLAC]\disc 2\10 - Lover Come Back To Me.wav

Pre-gap length 0:00:02.66

Peak level 62.0 %
Track quality 100.0 %
Test CRC BE19E0CF
Copy CRC BE19E0CF
Copy OK

Track 11
Filename K:\New Rips\Stan Getz - Complete Recordings of the Stan Getz Quintet with Jimmy Raney (1990) [FLAC]\disc 2\11 - Body And Soul.wav

Pre-gap length 0:00:03.46

Peak level 59.3 %
Track quality 99.9 %
Test CRC B5049C93
Copy CRC B5049C93
Copy OK

Track 12
Filename K:\New Rips\Stan Getz - Complete Recordings of the Stan Getz Quintet with Jimmy Raney (1990) [FLAC]\disc 2\12 - Stars Fell On Alabama.wav

Pre-gap length 0:00:03.49

Peak level 65.4 %
Track quality 99.9 %
Test CRC 80C03D9E
Copy CRC 80C03D9E
Copy OK

Track 13
Filename K:\New Rips\Stan Getz - Complete Recordings of the Stan Getz Quintet with Jimmy Raney (1990) [FLAC]\disc 2\13 - You Turned The Tables On Me.wav

Pre-gap length 0:00:02.86

Peak level 55.7 %
Track quality 100.0 %
Test CRC 36F8CB71
Copy CRC 36F8CB71
Copy OK

No errors occured


End of status report

––––––––––––––––––––––––––––––

EAC extraction logfile from 10. February 2007, 8:55 for CD
Stan Getz / Complete Recordings of the Stan Getz Quintet with Jimmy Raney

Used drive : SONY CDRWDVD CRX310S Adapter: 0 ID: 1
Read mode : Secure with NO C2, accurate stream, disable cache
Read offset correction : 6
Overread into Lead-In and Lead-Out : No

Used output format : C:\Program Files\Exact Audio Copy\Compressors\FLAC\flac.exe (User Defined Encoder)
192 kBit/s
Additional command line options : -8 -V -T "artist=%a" -T "title=%t" -T "album=%g" -T "date=%y" -T "tracknumber=%n" -T "genre=%m" -T "comment=EAC 0.95 b4 secure / FLAC 1.1.3b q8" %s

Other options :
Fill up missing offset samples with silence : Yes
Delete leading and trailing silent blocks : No
Native Win32 interface for Win NT & 2000


Track 1
Filename K:\New Rips\Stan Getz - Complete Recordings of the Stan Getz Quintet with Jimmy Raney (1990) [FLAC]\disc 3\01 - Lullaby Of Birdland.wav

Pre-gap length 0:00:02.00

Peak level 37.5 %
Track quality 100.0 %
Test CRC 2A4B91CF
Copy CRC 2A4B91CF
Copy OK

Track 2
Filename K:\New Rips\Stan Getz - Complete Recordings of the Stan Getz Quintet with Jimmy Raney (1990) [FLAC]\disc 3\02 - Autumn Leaves.wav

Pre-gap length 0:00:02.94

Peak level 31.8 %
Track quality 99.9 %
Test CRC B85DAE6E
Copy CRC B85DAE6E
Copy OK

Track 3
Filename K:\New Rips\Stan Getz - Complete Recordings of the Stan Getz Quintet with Jimmy Raney (1990) [FLAC]\disc 3\03 - Autumn Leaves (alt tk).wav

Pre-gap length 0:00:03.10

Peak level 36.2 %
Track quality 100.0 %
Test CRC 620BD34A
Copy CRC 620BD34A
Copy OK

Track 4
Filename K:\New Rips\Stan Getz - Complete Recordings of the Stan Getz Quintet with Jimmy Raney (1990) [FLAC]\disc 3\04 - Fools Rush In.wav

Pre-gap length 0:00:02.70

Peak level 37.9 %
Track quality 100.0 %
Test CRC 17B86A3A
Copy CRC 17B86A3A
Copy OK

Track 5
Filename K:\New Rips\Stan Getz - Complete Recordings of the Stan Getz Quintet with Jimmy Raney (1990) [FLAC]\disc 3\05 - Fools Rush In (alt tk).wav

Pre-gap length 0:00:03.42

Peak level 55.5 %
Track quality 100.0 %
Test CRC 586D9863
Copy CRC 586D9863
Copy OK

Track 6
Filename K:\New Rips\Stan Getz - Complete Recordings of the Stan Getz Quintet with Jimmy Raney (1990) [FLAC]\disc 3\06 - These Foolish Things.wav

Pre-gap length 0:00:03.38

Peak level 39.3 %
Track quality 100.0 %
Test CRC 8AE0ED5E
Copy CRC 8AE0ED5E
Copy OK

Track 7
Filename K:\New Rips\Stan Getz - Complete Recordings of the Stan Getz Quintet with Jimmy Raney (1990) [FLAC]\disc 3\07 - Thanks For The Memory.wav

Pre-gap length 0:00:03.38

Peak level 55.6 %
Track quality 100.0 %
Test CRC 9924D353
Copy CRC 9924D353
Copy OK

Track 8
Filename K:\New Rips\Stan Getz - Complete Recordings of the Stan Getz Quintet with Jimmy Raney (1990) [FLAC]\disc 3\08 - How Deep Is The Ocean.wav

Pre-gap length 0:00:03.29

Peak level 73.5 %
Track quality 100.0 %
Test CRC 19F0D2D5
Copy CRC 19F0D2D5
Copy OK

Track 9
Filename K:\New Rips\Stan Getz - Complete Recordings of the Stan Getz Quintet with Jimmy Raney (1990) [FLAC]\disc 3\09 - Hymn Of The Orient.wav

Pre-gap length 0:00:02.82

Peak level 70.2 %
Track quality 100.0 %
Test CRC E4B13862
Copy CRC E4B13862
Copy OK

Track 10
Filename K:\New Rips\Stan Getz - Complete Recordings of the Stan Getz Quintet with Jimmy Raney (1990) [FLAC]\disc 3\10 - These Foolish Things (alt tk).wav

Pre-gap length 0:00:03.24

Peak level 62.0 %
Track quality 100.0 %
Test CRC B6D625E1
Copy CRC B6D625E1
Copy OK

Track 11
Filename K:\New Rips\Stan Getz - Complete Recordings of the Stan Getz Quintet with Jimmy Raney (1990) [FLAC]\disc 3\11 - Signal.wav

Pre-gap length 0:00:03.52

Peak level 72.6 %
Track quality 100.0 %
Test CRC B7FFC99B
Copy CRC B7FFC99B
Copy OK

Track 12
Filename K:\New Rips\Stan Getz - Complete Recordings of the Stan Getz Quintet with Jimmy Raney (1990) [FLAC]\disc 3\12 - Lee.wav

Pre-gap length 0:00:02.64

Peak level 67.2 %
Track quality 100.0 %
Test CRC 9E1CE908
Copy CRC 9E1CE908
Copy OK

Track 13
Filename K:\New Rips\Stan Getz - Complete Recordings of the Stan Getz Quintet with Jimmy Raney (1990) [FLAC]\disc 3\13 - 'Round Midnight.wav

Pre-gap length 0:00:02.88

Peak level 70.8 %
Track quality 100.0 %
Test CRC 93227375
Copy CRC 93227375
Copy OK

Track 14
Filename K:\New Rips\Stan Getz - Complete Recordings of the Stan Getz Quintet with Jimmy Raney (1990) [FLAC]\disc 3\14 - Motion.wav

Pre-gap length 0:00:02.72

Peak level 62.9 %
Track quality 100.0 %
Test CRC D2E2215C
Copy CRC D2E2215C
Copy OK

No errors occured


End of status report


Stan Getz - The Complete Recordings of the Stan Getz Quintet with Jimmy Raney (1951-53) {3CD Set Mosaic Records rel 1990}

Stan Getz - The Complete Recordings of the Stan Getz Quintet with Jimmy Raney (1951-53) {3CD Set Mosaic Records rel 1990}

Stan Getz - The Complete Recordings of the Stan Getz Quintet with Jimmy Raney (1951-53) {3CD Set Mosaic Records rel 1990}



===