Subcategories
Tags
Language
Tags

Lol Coxhill / Joe McPhee / Chris Corsano / Evan Parker - Tree Dancing (2019) [Re-up]

Posted By: delpotro
Lol Coxhill / Joe McPhee / Chris Corsano / Evan Parker - Tree Dancing (2019) [Re-up]

Lol Coxhill / Joe McPhee / Chris Corsano / Evan Parker - Tree Dancing (2019)
XLD Rip | FLAC (tracks+log+.cue) - 364 Mb | MP3 CBR 320 kbps - 166 Mb | 01:12:27
Free Jazz | Label: Otoroku

Various configurations of four jazz titans recorded live one evening during Cafe Oto’s early years.

“This recording from the earlier years of Cafe Oto documents the impossible pairing of four contemporary giants. Its one of those miraculous one off groupings that reminds us why the venue opened in the first place.’

“The magic of the first minutes – an alto solo by Joe McPhee of true purity – soft-spoken, masterful and accomplished – brought back to mind the blissful Coleman/Haden duet last year at the Royal Festival Hall. ‘Ornette gave me freedom to move in a certain way,’ said McPhee. He searched hesitantly and carefully for his words, all the more surprising from such an articulate musical (or, as he might say ‘muse-ical’) practitioner and campaigner. Coleman’s 80th birthday coincided with McPhee’s stint at Cafe Oto.

McPhee and his co-musicians delivered an intense performance which was both creative and restrained. With Evan Parker ‘s tenor in tow – a collaboration going back to the late 70s – and Lol Coxhill, sitting with head bowed intently, a soprano master – it could have gone anywhere, yet they worked off each other, often in the higher registers, building up almost bird-call like interactions and trills. Earlier, Chris Corsano‘s drumming presented a dense bedrock for McPhee to play against, and his solo spell was a crisp exercise in sonic curiosity.

McPhee picked up his soprano mid-way through the second set, heightening the lyricism of the three saxophones. Then, being a devotee of Don Cherry, he switched to pocket trumpet, allowing him to interject, and punctuate the concentrated sound layers built up by the quartet, and lead the music out through a different door”- Geoff Winston (londonjazznews.com)

Recorded 10th March 2010, this is also a document of the only time Lol Coxhill and Joe Mcphee shared the stage. The recording is a little rough, but hey, so was your birth!”
Tracklist:
1. First Dance
2. Second Dance
3. Third Dance
4. Fourth Dance
5. Fifth Dance
6. Sixth Dance
7. Last Dance

X Lossless Decoder version 20181019 (151.1)

XLD extraction logfile from 2019-08-31 11:26:03 +0100

Coxhill, Parker, Corsano & McPhee / Tree Dancing

Used drive : Optiarc CD-RW CRX880A (revision KX07)
Media type : Pressed CD

Ripper mode : XLD Secure Ripper
Disable audio cache : OK for the drive with a cache less than 1375KiB
Make use of C2 pointers : NO
Read offset correction : 6
Max retry count : 100
Gap status : Analyzed, Appended (except HTOA)

TOC of the extracted CD
Track | Start | Length | Start sector | End sector
––––––––––––––––––––––––––––-
1 | 00:00:00 | 13:19:53 | 0 | 59977
2 | 13:19:53 | 12:30:01 | 59978 | 116228
3 | 25:49:54 | 10:51:01 | 116229 | 165054
4 | 36:40:55 | 08:43:69 | 165055 | 204348
5 | 45:24:49 | 11:08:11 | 204349 | 254459
6 | 56:32:60 | 03:36:38 | 254460 | 270697
7 | 60:09:23 | 12:17:68 | 270698 | 326040

AccurateRip Summary
Disc not found in AccurateRip DB.

All Tracks
Album gain : -4.84 dB
Peak : 0.891174
Statistics
Read error : 0
Jitter error (maybe fixed) : 0
Retry sector count : 0
Damaged sector count : 0

Track 01
Filename : /Volumes/External/Rips/Coxhill, Parker, Corsano & McPhee - Tree Dancing (Unknown Year) [FLAC]/01 First Dance.flac
Pre-gap length : 00:02:00

Track gain : -5.50 dB
Peak : 0.891174
CRC32 hash (test run) : D7E4783D
CRC32 hash : D7E4783D
CRC32 hash (skip zero) : 463DE6CE
AccurateRip v1 signature : 8B8E7574
AccurateRip v2 signature : A862C17B
->Track not present in AccurateRip database.
Statistics
Read error : 0
Jitter error (maybe fixed) : 0
Retry sector count : 0
Damaged sector count : 0

Track 02
Filename : /Volumes/External/Rips/Coxhill, Parker, Corsano & McPhee - Tree Dancing (Unknown Year) [FLAC]/02 Second Dance.flac

Track gain : -5.35 dB
Peak : 0.891174
CRC32 hash (test run) : 022FBE21
CRC32 hash : 022FBE21
CRC32 hash (skip zero) : AD7F42BB
AccurateRip v1 signature : CD140C75
AccurateRip v2 signature : 0D34253E
->Track not present in AccurateRip database.
Statistics
Read error : 0
Jitter error (maybe fixed) : 0
Retry sector count : 0
Damaged sector count : 0

Track 03
Filename : /Volumes/External/Rips/Coxhill, Parker, Corsano & McPhee - Tree Dancing (Unknown Year) [FLAC]/03 Third Dance.flac

Track gain : -5.34 dB
Peak : 0.891174
CRC32 hash (test run) : ABCA8D5F
CRC32 hash : ABCA8D5F
CRC32 hash (skip zero) : 5BBCB0FA
AccurateRip v1 signature : 606E7984
AccurateRip v2 signature : AECB52AF
->Track not present in AccurateRip database.
Statistics
Read error : 0
Jitter error (maybe fixed) : 0
Retry sector count : 0
Damaged sector count : 0

Track 04
Filename : /Volumes/External/Rips/Coxhill, Parker, Corsano & McPhee - Tree Dancing (Unknown Year) [FLAC]/04 Fourth Dance.flac

Track gain : -5.37 dB
Peak : 0.891174
CRC32 hash (test run) : 52314C39
CRC32 hash : 52314C39
CRC32 hash (skip zero) : 4530689F
AccurateRip v1 signature : 0B461965
AccurateRip v2 signature : A8D8C1B6
->Track not present in AccurateRip database.
Statistics
Read error : 0
Jitter error (maybe fixed) : 0
Retry sector count : 0
Damaged sector count : 0

Track 05
Filename : /Volumes/External/Rips/Coxhill, Parker, Corsano & McPhee - Tree Dancing (Unknown Year) [FLAC]/05 Fifth Dance.flac

Track gain : -3.89 dB
Peak : 0.891174
CRC32 hash (test run) : D1FEE3A1
CRC32 hash : D1FEE3A1
CRC32 hash (skip zero) : DC0762E5
AccurateRip v1 signature : 5DFA0614
AccurateRip v2 signature : F45F7827
->Track not present in AccurateRip database.
Statistics
Read error : 0
Jitter error (maybe fixed) : 0
Retry sector count : 0
Damaged sector count : 0

Track 06
Filename : /Volumes/External/Rips/Coxhill, Parker, Corsano & McPhee - Tree Dancing (Unknown Year) [FLAC]/06 Sixth Dance.flac

Track gain : -4.42 dB
Peak : 0.891174
CRC32 hash (test run) : F556F03A
CRC32 hash : F556F03A
CRC32 hash (skip zero) : 9CDBE5D4
AccurateRip v1 signature : C377E880
AccurateRip v2 signature : 6126F3B9
->Track not present in AccurateRip database.
Statistics
Read error : 0
Jitter error (maybe fixed) : 0
Retry sector count : 0
Damaged sector count : 0

Track 07
Filename : /Volumes/External/Rips/Coxhill, Parker, Corsano & McPhee - Tree Dancing (Unknown Year) [FLAC]/07 Last Dance.flac

Track gain : -3.38 dB
Peak : 0.891174
CRC32 hash (test run) : 2503C504
CRC32 hash : 2503C504
CRC32 hash (skip zero) : F3AA072C
AccurateRip v1 signature : 1E17211D
AccurateRip v2 signature : 0DA423C4
->Track not present in AccurateRip database.
Statistics
Read error : 0
Jitter error (maybe fixed) : 0
Retry sector count : 0
Damaged sector count : 0

No errors occurred

End of status report

––-BEGIN XLD SIGNATURE––-
SlrkgLq98STyD1oxDgF0VwjYXrPczKJ1_ChchK4JWWYjDyzy4NcKo3fsEYbuUWHFvfHmgDUHGcRzrMoQFn.9MuTwpKk9VGM1Klx2mMy
––-END XLD SIGNATURE––-

Thanks to the Original ripper spindrifter !