Subcategories
Tags
Language
Tags

Curly Putman - Lonesome Country & World Of Country Music (2013) {Omni Recording OMNI-172 rec 1967-1969}

Posted By: ruskaval
Curly Putman - Lonesome Country & World Of Country Music (2013) {Omni Recording OMNI-172 rec 1967-1969}

Curly Putman - Lonesome Country & World Of Country Music (2013) {Omni Recording OMNI-172 rec 1967-1969}
EAC rip (secure mode) | FLAC (tracks)+CUE+LOG -> 347 Mb | MP3 @320 -> 139 Mb
Full Artwork @ 300 dpi (png) -> 61 Mb | 5% repair rar
© 1967-69, 2013 ABC Music / Omni Recording Corporation | OMNI - 172
Country / Country-Folk / Country-Pop / Progressive Country / Singer–Songwriter

Curly Putman was, by most accounts, a songwriter and by no means was he a pike. He wrote several songs that are acknowledged standards, chief among them "Green Green Grass of Home," "He Stopped Loving Her Today," "My Elusive Dreams," "D-I-V-O-R-C-E," plus "Dumb Blonde," "Blood Red and Going Down," and "It's a Cheating Situation," songs that were big and defined eras for their respective artists. With this track record, it's no surprise that he was given a shot at his own recording career, and Omni's 2013 compilation, World of Country Music/Lonesome Country, combines his 1969 and 1967 albums for ABC Records, adding the 1968 single "Little Bitty Soldiers" for good measure.
Curly Putman - Lonesome Country & World Of Country Music (2013) {Omni Recording OMNI-172 rec 1967-1969}

On these two records, Putman cut several of his well-known songs – "Green, Green Grass of Home," "My Elusive Dreams," and "D-I-V-O-R-C-E" – and relied on his originals, songs that were cut from the same progressive country cloth. Putman wasn't as compelling a singer as some of his peers – he wasn't a storyteller like Tom T. Hall or Kris Kristofferson, nor did he have the rugged elegance of Bobby Bare – but he had a full-bodied presence that tended to overshadow whatever Nashville sweetening was layered upon his recordings. Nevertheless, these two LPs do have the choirs and overblown studio productions that were common in the late '60s and while that sound is appealing, the best thing about this two-fer is hearing how Putman pushed against these confines, finding songs that skirted the conventions of the Music City while singing over arrangements that sounded just restless enough to not be conventional.
Curly Putman - Lonesome Country & World Of Country Music (2013) {Omni Recording OMNI-172 rec 1967-1969}


Track Listing

Lonesome Country (1967)

1. I'm Not The Boy I Used To Be
2. Hummin' A Heartache
3. Green, Green Grass Of Home
4. Hurtin' Like A Heartache
5. My Elusive Dreams
6. Right Straight In The Eye
7. Jailbirds Can't Fly
8. Untouchable You
9. Set Me Free
10. What I'd Give To Be The Wind

World Of Country Music (1969)
11. San Francisco Sun
12. Just For You
13. You Can Always Come Back
14. Talking To The Grass
15. Take It All Off
16. If I Ever Get That Close Again
17. Happy Shoes
18. Who Loves Who
19. Love Of The Common People
20. D-I-V-O-R-C-E
21. Big Silver Wings

Bonus Track
22. Little Bitty Soldier Boys

Exact Audio Copy V1.3 from 2. September 2016

EAC extraction logfile from 27. March 2020, 15:47

Curly Putman / Lonesome Country / World Of Country Music

Used drive : ASUS SDRW-08D2S-U Adapter: 1 ID: 0

Read mode : Secure
Utilize accurate stream : Yes
Defeat audio cache : Yes
Make use of C2 pointers : No

Read offset correction : 6
Overread into Lead-In and Lead-Out : No
Fill up missing offset samples with silence : Yes
Delete leading and trailing silent blocks : No
Null samples used in CRC calculations : Yes
Used interface : Native Win32 interface for Win NT & 2000
Gap handling : Appended to previous track

Used output format : User Defined Encoder
Selected bitrate : 1024 kBit/s
Quality : High
Add ID3 tag : No
Command line compressor : C:\Program Files (x86)\Exact Audio Copy\Flac\flac.exe
Additional command line options : -8 -V -T "ARTIST=%artist%" -T "TITLE=%title%" -T "ALBUM=%albumtitle%" -T "DATE=%year%" -T "TRACKNUMBER=%tracknr%" -T "GENRE=%genre%" -T "PERFORMER=%albuminterpret%" -T "COMPOSER=%composer%" %haslyrics%–tag-from-file=LYRICS="%lyricsfile%"%haslyrics% -T "ALBUMARTIST=%albumartist%" -T "DISCNUMBER=%cdnumber%" -T "TOTALDISCS=%totalcds%" -T "TOTALTRACKS=%numtracks%" -T "COMMENT=%comment%" %source% -o %dest%


TOC of the extracted CD

Track | Start | Length | Start sector | End sector
––––––––––––––––––––––––––––-
1 | 0:00.00 | 3:12.50 | 0 | 14449
2 | 3:12.50 | 2:17.43 | 14450 | 24767
3 | 5:30.18 | 2:56.50 | 24768 | 38017
4 | 8:26.68 | 2:05.23 | 38018 | 47415
5 | 10:32.16 | 2:54.17 | 47416 | 60482
6 | 13:26.33 | 2:35.36 | 60483 | 72143
7 | 16:01.69 | 2:54.36 | 72144 | 85229
8 | 18:56.30 | 2:55.50 | 85230 | 98404
9 | 21:52.05 | 2:17.27 | 98405 | 108706
10 | 24:09.32 | 2:42.49 | 108707 | 120905
11 | 26:52.06 | 2:15.00 | 120906 | 131030
12 | 29:07.06 | 2:25.73 | 131031 | 141978
13 | 31:33.04 | 2:07.44 | 141979 | 151547
14 | 33:40.48 | 2:54.45 | 151548 | 164642
15 | 36:35.18 | 2:30.16 | 164643 | 175908
16 | 39:05.34 | 2:49.20 | 175909 | 188603
17 | 41:54.54 | 2:22.24 | 188604 | 199277
18 | 44:17.03 | 3:14.05 | 199278 | 213832
19 | 47:31.08 | 3:25.69 | 213833 | 229276
20 | 50:57.02 | 2:47.01 | 229277 | 241802
21 | 53:44.03 | 2:46.00 | 241803 | 254252
22 | 56:30.03 | 2:26.57 | 254253 | 265259


Track 1

Filename C:\Rips\Curly Putman - Lonesome Country (1967) & World Of Country Music (1969) [FLAC] (2on1 2013)\01 - I'm Not The Boy I Used To Be.wav

Pre-gap length 0:00:02.00

Peak level 100.0 %
Extraction speed 2.6 X
Track quality 100.0 %
Test CRC 49B8D5BB
Copy CRC 49B8D5BB
Accurately ripped (confidence 1) [83B6B520] (AR v2)
Copy OK

Track 2

Filename C:\Rips\Curly Putman - Lonesome Country (1967) & World Of Country Music (1969) [FLAC] (2on1 2013)\02 - Hummin' A Heartache.wav

Pre-gap length 0:00:02.69

Peak level 100.0 %
Extraction speed 2.6 X
Track quality 100.0 %
Test CRC F2A0FBAE
Copy CRC F2A0FBAE
Accurately ripped (confidence 1) [E610E644] (AR v2)
Copy OK

Track 3

Filename C:\Rips\Curly Putman - Lonesome Country (1967) & World Of Country Music (1969) [FLAC] (2on1 2013)\03 - Green, Green Grass Of Home.wav

Pre-gap length 0:00:02.65

Peak level 100.0 %
Extraction speed 2.9 X
Track quality 100.0 %
Test CRC C7F704C7
Copy CRC C7F704C7
Accurately ripped (confidence 1) [5997FFEA] (AR v2)
Copy OK

Track 4

Filename C:\Rips\Curly Putman - Lonesome Country (1967) & World Of Country Music (1969) [FLAC] (2on1 2013)\04 - Hurtin' Like A Heartache.wav

Pre-gap length 0:00:02.77

Peak level 100.0 %
Extraction speed 2.9 X
Track quality 100.0 %
Test CRC 47129047
Copy CRC 47129047
Accurately ripped (confidence 1) [C7DB50F6] (AR v2)
Copy OK

Track 5

Filename C:\Rips\Curly Putman - Lonesome Country (1967) & World Of Country Music (1969) [FLAC] (2on1 2013)\05 - My Elusive Dreams.wav

Pre-gap length 0:00:02.88

Peak level 100.0 %
Extraction speed 3.2 X
Track quality 100.0 %
Test CRC 18397BB8
Copy CRC 18397BB8
Accurately ripped (confidence 1) [6BB5C6B9] (AR v2)
Copy OK

Track 6

Filename C:\Rips\Curly Putman - Lonesome Country (1967) & World Of Country Music (1969) [FLAC] (2on1 2013)\06 - Right Straight In The Eye.wav

Pre-gap length 0:00:02.65

Peak level 100.0 %
Extraction speed 3.3 X
Track quality 100.0 %
Test CRC 0278CA86
Copy CRC 0278CA86
Accurately ripped (confidence 1) [288291C9] (AR v2)
Copy OK

Track 7

Filename C:\Rips\Curly Putman - Lonesome Country (1967) & World Of Country Music (1969) [FLAC] (2on1 2013)\07 - Jailbirds Can't Fly.wav

Pre-gap length 0:00:02.20

Peak level 100.0 %
Extraction speed 3.5 X
Track quality 100.0 %
Test CRC 964228EA
Copy CRC 964228EA
Accurately ripped (confidence 1) [51C6F633] (AR v2)
Copy OK

Track 8

Filename C:\Rips\Curly Putman - Lonesome Country (1967) & World Of Country Music (1969) [FLAC] (2on1 2013)\08 - Untouchable You.wav

Pre-gap length 0:00:02.29

Peak level 100.0 %
Extraction speed 3.7 X
Track quality 100.0 %
Test CRC 88329F32
Copy CRC 88329F32
Accurately ripped (confidence 1) [8764658B] (AR v2)
Copy OK

Track 9

Filename C:\Rips\Curly Putman - Lonesome Country (1967) & World Of Country Music (1969) [FLAC] (2on1 2013)\09 - Set Me Free.wav

Pre-gap length 0:00:02.52

Peak level 100.0 %
Extraction speed 3.7 X
Track quality 100.0 %
Test CRC 431770E9
Copy CRC 431770E9
Accurately ripped (confidence 1) [BEC4682C] (AR v2)
Copy OK

Track 10

Filename C:\Rips\Curly Putman - Lonesome Country (1967) & World Of Country Music (1969) [FLAC] (2on1 2013)\10 - What I'd Give To Be The Wind.wav

Pre-gap length 0:00:02.69

Peak level 94.4 %
Extraction speed 3.1 X
Track quality 99.9 %
Test CRC 14412585
Copy CRC 14412585
Accurately ripped (confidence 1) [7B6106FF] (AR v2)
Copy OK

Track 11

Filename C:\Rips\Curly Putman - Lonesome Country (1967) & World Of Country Music (1969) [FLAC] (2on1 2013)\11 - San Francisco Sun.wav

Pre-gap length 0:00:03.36

Peak level 100.0 %
Extraction speed 3.8 X
Track quality 100.0 %
Test CRC 7E2580C2
Copy CRC 7E2580C2
Accurately ripped (confidence 1) [A41A08B6] (AR v2)
Copy OK

Track 12

Filename C:\Rips\Curly Putman - Lonesome Country (1967) & World Of Country Music (1969) [FLAC] (2on1 2013)\12 - Just For You.wav

Pre-gap length 0:00:02.21

Peak level 100.0 %
Extraction speed 4.1 X
Track quality 100.0 %
Test CRC 53E3E371
Copy CRC 53E3E371
Accurately ripped (confidence 1) [2CCAC796] (AR v2)
Copy OK

Track 13

Filename C:\Rips\Curly Putman - Lonesome Country (1967) & World Of Country Music (1969) [FLAC] (2on1 2013)\13 - You Can Always Come Back.wav

Pre-gap length 0:00:02.57

Peak level 93.3 %
Extraction speed 4.0 X
Track quality 100.0 %
Test CRC 08414A52
Copy CRC 08414A52
Accurately ripped (confidence 1) [6432809E] (AR v2)
Copy OK

Track 14

Filename C:\Rips\Curly Putman - Lonesome Country (1967) & World Of Country Music (1969) [FLAC] (2on1 2013)\14 - Talking To The Grass.wav

Pre-gap length 0:00:02.24

Peak level 100.0 %
Extraction speed 3.5 X
Track quality 99.9 %
Test CRC D2993CF5
Copy CRC D2993CF5
Accurately ripped (confidence 1) [DC62B8BA] (AR v2)
Copy OK

Track 15

Filename C:\Rips\Curly Putman - Lonesome Country (1967) & World Of Country Music (1969) [FLAC] (2on1 2013)\15 - Take It All Off.wav

Pre-gap length 0:00:01.84

Peak level 100.0 %
Extraction speed 4.4 X
Track quality 100.0 %
Test CRC 9000DA39
Copy CRC 9000DA39
Accurately ripped (confidence 1) [E7A78551] (AR v2)
Copy OK

Track 16

Filename C:\Rips\Curly Putman - Lonesome Country (1967) & World Of Country Music (1969) [FLAC] (2on1 2013)\16 - If I Ever Get That Close Again.wav

Pre-gap length 0:00:02.14

Peak level 91.2 %
Extraction speed 4.6 X
Track quality 100.0 %
Test CRC 75ED8944
Copy CRC 75ED8944
Accurately ripped (confidence 1) [09D0E667] (AR v2)
Copy OK

Track 17

Filename C:\Rips\Curly Putman - Lonesome Country (1967) & World Of Country Music (1969) [FLAC] (2on1 2013)\17 - Happy Shoes.wav

Pre-gap length 0:00:02.48

Peak level 94.4 %
Extraction speed 4.5 X
Track quality 100.0 %
Test CRC DAEFFC50
Copy CRC DAEFFC50
Accurately ripped (confidence 1) [60A2C143] (AR v2)
Copy OK

Track 18

Filename C:\Rips\Curly Putman - Lonesome Country (1967) & World Of Country Music (1969) [FLAC] (2on1 2013)\18 - Who Loves Who.wav

Pre-gap length 0:00:02.00

Peak level 100.0 %
Extraction speed 4.8 X
Track quality 100.0 %
Test CRC D5D6CEE9
Copy CRC D5D6CEE9
Accurately ripped (confidence 1) [84AB2071] (AR v2)
Copy OK

Track 19

Filename C:\Rips\Curly Putman - Lonesome Country (1967) & World Of Country Music (1969) [FLAC] (2on1 2013)\19 - Love Of The Common People.wav

Pre-gap length 0:00:02.28

Peak level 92.2 %
Extraction speed 5.0 X
Track quality 100.0 %
Test CRC D327FBE7
Copy CRC D327FBE7
Accurately ripped (confidence 1) [A216AFA3] (AR v2)
Copy OK

Track 20

Filename C:\Rips\Curly Putman - Lonesome Country (1967) & World Of Country Music (1969) [FLAC] (2on1 2013)\20 - D-I-V-O-R-C-E.wav

Pre-gap length 0:00:01.78

Peak level 92.2 %
Extraction speed 4.9 X
Track quality 100.0 %
Test CRC F1360608
Copy CRC F1360608
Accurately ripped (confidence 1) [F8F15954] (AR v2)
Copy OK

Track 21

Filename C:\Rips\Curly Putman - Lonesome Country (1967) & World Of Country Music (1969) [FLAC] (2on1 2013)\21 - Big Silver Wings.wav

Pre-gap length 0:00:02.45

Peak level 100.0 %
Extraction speed 4.0 X
Track quality 99.9 %
Test CRC 236102B1
Copy CRC 236102B1
Accurately ripped (confidence 1) [5654A191] (AR v2)
Copy OK

Track 22

Filename C:\Rips\Curly Putman - Lonesome Country (1967) & World Of Country Music (1969) [FLAC] (2on1 2013)\22 - Little Bitty Soldier Boys.wav

Pre-gap length 0:00:03.88

Peak level 100.0 %
Extraction speed 3.8 X
Track quality 99.9 %
Test CRC 5F3A2023
Copy CRC 5F3A2023
Accurately ripped (confidence 1) [8A6627B4] (AR v2)
Copy OK


All tracks accurately ripped

No errors occurred

End of status report

–– CUETools DB Plugin V2.1.6

[CTDB TOCID: DToucRyeDmd2xfX7p4d_TcltPsA-] found
Submit result: DToucRyeDmd2xfX7p4d_TcltPsA- has been confirmed
Track | CTDB Status
1 | (1/1) Accurately ripped
2 | (1/1) Accurately ripped
3 | (1/1) Accurately ripped
4 | (1/1) Accurately ripped
5 | (1/1) Accurately ripped
6 | (1/1) Accurately ripped
7 | (1/1) Accurately ripped
8 | (1/1) Accurately ripped
9 | (1/1) Accurately ripped
10 | (1/1) Accurately ripped
11 | (1/1) Accurately ripped
12 | (1/1) Accurately ripped
13 | (1/1) Accurately ripped
14 | (1/1) Accurately ripped
15 | (1/1) Accurately ripped
16 | (1/1) Accurately ripped
17 | (1/1) Accurately ripped
18 | (1/1) Accurately ripped
19 | (1/1) Accurately ripped
20 | (1/1) Accurately ripped
21 | (1/1) Accurately ripped
22 | (1/1) Accurately ripped


==== Log checksum 776F1965B6F234312502A7A47C3E98BEC7C5730149A8E0F480E49514FB7884BF ====


Curly Putman - Lonesome Country & World Of Country Music (2013) {Omni Recording OMNI-172 rec 1967-1969}

Curly Putman - Lonesome Country & World Of Country Music (2013) {Omni Recording OMNI-172 rec 1967-1969}



===