Tags
Language
Tags

Curtis Amy - Groovin' Blue & Way Down & Tippin' On Through (1961-1962) {2CD Fresh Sound Records FSRCD 768 rel 2013}

Posted By: ruskaval
Curtis Amy - Groovin' Blue & Way Down & Tippin' On Through (1961-1962) {2CD Fresh Sound Records FSRCD 768  rel 2013}

Curtis Amy - Groovin' Blue & Way Down & Tippin' On Through (1961-1962) {2CD Fresh Sound Records FSRCD 768 rel 2013}
EAC rip (secure mode) | FLAC (tracks)+CUE+LOG -> 762 Mb | MP3 @320 -> 285 Mb
Full Artwork @ 300 dpi (jpg) -> 42 Mb | 5% repair rar | 24-Bit Digitally Remastered
© 1961-62, 2013 Pacific Jazz / Fresh Sound Records | FSRCD 768
Jazz / Soul Jazz / Hard Bop / West Coast Jazz / Saxophone

Between 1960 and 1963 Texas tenor Curtis Amy (1927-2002) made six superb albums for Dick Bocks Pacific Jazz label, three of which, Groovin Blue, Way Down, and Tippin on Through, are included here. They were part of Bocks recognition of the emergence on the West Coast scene of a more groove-based, harder swinging approach than the cooler, considered style that preceded it. He chose well. Years of semi-obscurity in L.A. dance bands and organ combos had made Amy a thoroughly seasoned, assertive and inventive player in the mould of fellow tenor, Harold Land; these Pacific albums established him as a major exponent of the new music revitalizing West Coast jazz.
Curtis Amy - Groovin' Blue & Way Down & Tippin' On Through (1961-1962) {2CD Fresh Sound Records FSRCD 768  rel 2013}

For these recordings, which also showcased his considerable capacity as a writer and his sensitive way with ballads, Amy was surrounded by some of the finest young lions on the scene, creative soloists who combined soul and imagination with the ability to swing hard. Adding a timeless lustre to this consistently engaging music is the sterling work of trumpeters Carmell Jones and Marcus Belgrave, vibists Bobby Hutcherson and Roy Ayers, pianists Frank Strazzeri, Vic Feldman and John Houston, valve trombonist Roy Brewster and outstanding rhythm section men like Frank Butler, Lawrence Marable, Jimmy Bond and George Morrow.
Curtis Amy - Groovin' Blue & Way Down & Tippin' On Through (1961-1962) {2CD Fresh Sound Records FSRCD 768  rel 2013}


Personnel & Track Listing

CD 1

01. Groovin Blue (Amy) 8:13
02. Gone Into It (Amy) 6:13
03. Annsome (Amy) 8:36
04. Bobblin (Amy) 5:17
05. Beautiful You (Amy) 7:38
06. Very Frank (Amy) 1:49
07. Way Down (Matthews) 7:38
08. Liberia (Amy) 6:43
09. 24 Hours Blues (Amy) 5:20
10. Lisa (Amy) 2:33

Curtis Amy - Groovin' Blue & Way Down & Tippin' On Through (1961-1962) {2CD Fresh Sound Records FSRCD 768  rel 2013}


CD 2
01. A Soulful Bee, a Soulful Rose (Amy) 6:53
02. All My Life (Stept-Mitchell) 7:18
03. Bells and Horns (Jackson) 5:36
04. Tippin On Through (Golson) 8:47
05. Funk in the Evening (Amy) 9:47
06. For Ayers Only (Amy) 6:52
07. In Your Own Sweet Way (Brubeck) 6:34
08. Summertime (Gershwin-Heyward) 6:54
09. Set Call (Amy) 0:24

Curtis Amy - Groovin' Blue & Way Down & Tippin' On Through (1961-1962) {2CD Fresh Sound Records FSRCD 768  rel 2013}


Sources:
CD 1 - Tracks #1-6, from the Pacific Jazz album
"Curtis Amy & Frank Butler - Groovin Blue" (Stereo-19)
CD 1 - Tracks #7-10, and CD 2 #1-3, from the Pacific Jazz album
"Curtis Amy - Way Down" (Stereo-46)
CD 2 - Tracks #4-9, from the Pacific Jazz album
"Curtis Amy - Tippin on Through" (Stereo-62)


Curtis Amy - Groovin' Blue & Way Down & Tippin' On Through (1961-1962) {2CD Fresh Sound Records FSRCD 768  rel 2013}


Personnel on "Groovin' Blue":
Carmell Jones, trumpet; Curtis Amy, tenor sax; Bobby Hutcherson, vibes; Frank Strazzeri, piano; Jimmy Bond, bass; Frank Butler, drums.
Recorded at Pacific Enterprises Inc./Rex Studios, Los Angeles, December 10, 1960 (#1) and January 10, 1961

Personnel on "Way Down":
Marcus Belgrave, trumpet; Roy Brewster, trombone; Curtis Amy, tenor sax; Roy Ayers, vibes; John Houston or Victor Feldman, piano; George Morrow, bass; Tony Bazley, drums.
Recorded at Pacific Enterprises Inc./Rex Studios, Los Angeles, Jan. 29 & Feb. 5, 1962

Personnel on "Tippin' on Through":
Curtis Amy, tenor sax; Roy Brewster, trombone; Roy Ayers, vibes; John Houston, piano; Bob Whitlock, bass; Lawrence Marable, drums.
Recorded live at The Lighthouse, Hermosa Beach, California, on July 29, 1962

Exact Audio Copy V1.3 from 2. September 2016

EAC extraction logfile from 20. February 2018, 19:21

Curtis Amy Sextet & Septet / Groovin' Blue & Way Down & Tippin' On Through (CD1)

Used drive : ATAPI iHAS122 F Adapter: 1 ID: 2

Read mode : Secure
Utilize accurate stream : Yes
Defeat audio cache : Yes
Make use of C2 pointers : No

Read offset correction : 6
Overread into Lead-In and Lead-Out : No
Fill up missing offset samples with silence : Yes
Delete leading and trailing silent blocks : No
Null samples used in CRC calculations : Yes
Used interface : Native Win32 interface for Win NT & 2000
Gap handling : Appended to previous track

Used output format : User Defined Encoder
Selected bitrate : 1024 kBit/s
Quality : High
Add ID3 tag : No
Command line compressor : C:\Program Files (x86)\Exact Audio Copy_v1.3\Flac\flac.exe
Additional command line options : -8 -V -T "ARTIST=%artist%" -T "TITLE=%title%" -T "ALBUM=%albumtitle%" -T "DATE=%year%" -T "TRACKNUMBER=%tracknr%" -T "TOTALTRACKS=%numtracks%" -T "GENRE=%genre%" -T "ALBUMARTIST=%albumartist%" -T "ALBUM ARTIST=%albumartist%" -T "COMMENT=EAC Secure Mode, Test & Copy, AccurateRip, FLAC -8" %source%


TOC of the extracted CD

Track | Start | Length | Start sector | End sector
––––––––––––––––––––––––––––-
1 | 0:00.00 | 8:16.05 | 0 | 37204
2 | 8:16.05 | 6:14.36 | 37205 | 65290
3 | 14:30.41 | 8:38.41 | 65291 | 104181
4 | 23:09.07 | 5:19.67 | 104182 | 128173
5 | 28:28.74 | 7:40.15 | 128174 | 162688
6 | 36:09.14 | 1:49.52 | 162689 | 170915
7 | 37:58.66 | 7:40.71 | 170916 | 205486
8 | 45:39.62 | 6:45.15 | 205487 | 235876
9 | 52:25.02 | 5:23.40 | 235877 | 260141
10 | 57:48.42 | 2:34.28 | 260142 | 271719


Track 1

Filename D:\_EAC\Curtis Amy - Groovin' Blue & Way Down & Tippin' On Through (2013) [FLAC]\CD1\01 - Groovin' Blue.wav

Pre-gap length 0:00:02.00

Peak level 100.0 %
Extraction speed 5.3 X
Track quality 100.0 %
Test CRC DC0A5DEC
Copy CRC DC0A5DEC
Accurately ripped (confidence 1) [D3288714] (AR v2)
Copy OK

Track 2

Filename D:\_EAC\Curtis Amy - Groovin' Blue & Way Down & Tippin' On Through (2013) [FLAC]\CD1\02 - Gone Into It.wav

Peak level 88.2 %
Extraction speed 5.3 X
Track quality 99.9 %
Test CRC 0B01108D
Copy CRC 0B01108D
Accurately ripped (confidence 1) [5E6B9B2A] (AR v2)
Copy OK

Track 3

Filename D:\_EAC\Curtis Amy - Groovin' Blue & Way Down & Tippin' On Through (2013) [FLAC]\CD1\03 - Annsome.wav

Pre-gap length 0:00:00.24

Peak level 88.1 %
Extraction speed 6.2 X
Track quality 99.9 %
Test CRC DB091A2C
Copy CRC DB091A2C
Accurately ripped (confidence 1) [3CDBFC0B] (AR v2)
Copy OK

Track 4

Filename D:\_EAC\Curtis Amy - Groovin' Blue & Way Down & Tippin' On Through (2013) [FLAC]\CD1\04 - Bobblin'.wav

Peak level 98.9 %
Extraction speed 7.1 X
Track quality 100.0 %
Test CRC 82434FEC
Copy CRC 82434FEC
Accurately ripped (confidence 1) [9E1F8AEC] (AR v2)
Copy OK

Track 5

Filename D:\_EAC\Curtis Amy - Groovin' Blue & Way Down & Tippin' On Through (2013) [FLAC]\CD1\05 - Beautiful You.wav

Peak level 98.9 %
Extraction speed 8.0 X
Track quality 100.0 %
Test CRC 24A351AA
Copy CRC 24A351AA
Accurately ripped (confidence 1) [E3DCB1D4] (AR v2)
Copy OK

Track 6

Filename D:\_EAC\Curtis Amy - Groovin' Blue & Way Down & Tippin' On Through (2013) [FLAC]\CD1\06 - Very Frank.wav

Peak level 88.1 %
Extraction speed 6.7 X
Track quality 100.0 %
Test CRC FEE00ED9
Copy CRC FEE00ED9
Accurately ripped (confidence 1) [F4E07CB6] (AR v2)
Copy OK

Track 7

Filename D:\_EAC\Curtis Amy - Groovin' Blue & Way Down & Tippin' On Through (2013) [FLAC]\CD1\07 - Way Down.wav

Peak level 88.1 %
Extraction speed 8.7 X
Track quality 100.0 %
Test CRC 7FF554A5
Copy CRC 7FF554A5
Accurately ripped (confidence 1) [A53A2A38] (AR v2)
Copy OK

Track 8

Filename D:\_EAC\Curtis Amy - Groovin' Blue & Way Down & Tippin' On Through (2013) [FLAC]\CD1\08 - Liberia.wav

Peak level 98.9 %
Extraction speed 9.1 X
Track quality 100.0 %
Test CRC 1E985976
Copy CRC 1E985976
Accurately ripped (confidence 1) [EAB418DC] (AR v2)
Copy OK

Track 9

Filename D:\_EAC\Curtis Amy - Groovin' Blue & Way Down & Tippin' On Through (2013) [FLAC]\CD1\09 - 24 Hours Blues.wav

Peak level 98.6 %
Extraction speed 9.2 X
Track quality 100.0 %
Test CRC B6F16F84
Copy CRC B6F16F84
Accurately ripped (confidence 1) [ED5BAF08] (AR v2)
Copy OK

Track 10

Filename D:\_EAC\Curtis Amy - Groovin' Blue & Way Down & Tippin' On Through (2013) [FLAC]\CD1\10 - Lisa.wav

Peak level 98.9 %
Extraction speed 6.2 X
Track quality 99.9 %
Test CRC A79A01E9
Copy CRC A79A01E9
Accurately ripped (confidence 1) [C0D234AD] (AR v2)
Copy OK


All tracks accurately ripped

No errors occurred

End of status report

–– CUETools DB Plugin V2.1.6

[CTDB TOCID: FJHgPA_cN8BlbhLHBCT.Y3N3wwk-] found
Submit result: FJHgPA_cN8BlbhLHBCT.Y3N3wwk- has been confirmed
Track | CTDB Status
1 | (1/1) Accurately ripped
2 | (1/1) Accurately ripped
3 | (1/1) Accurately ripped
4 | (1/1) Accurately ripped
5 | (1/1) Accurately ripped
6 | (1/1) Accurately ripped
7 | (1/1) Accurately ripped
8 | (1/1) Accurately ripped
9 | (1/1) Accurately ripped
10 | (1/1) Accurately ripped


==== Log checksum 22D62044F165C53EEFD8E888EC061C32810E9D18679E6D33A5B67451DCC12075 ====
Exact Audio Copy V1.3 from 2. September 2016

EAC extraction logfile from 20. February 2018, 20:14

Curtis Amy Sextet & Septet / Groovin' Blue & Way Down & Tippin' On Through (CD2)

Used drive : ATAPI iHAS122 F Adapter: 1 ID: 2

Read mode : Secure
Utilize accurate stream : Yes
Defeat audio cache : Yes
Make use of C2 pointers : No

Read offset correction : 6
Overread into Lead-In and Lead-Out : No
Fill up missing offset samples with silence : Yes
Delete leading and trailing silent blocks : No
Null samples used in CRC calculations : Yes
Used interface : Native Win32 interface for Win NT & 2000
Gap handling : Appended to previous track

Used output format : User Defined Encoder
Selected bitrate : 1024 kBit/s
Quality : High
Add ID3 tag : No
Command line compressor : C:\Program Files (x86)\Exact Audio Copy_v1.3\Flac\flac.exe
Additional command line options : -8 -V -T "ARTIST=%artist%" -T "TITLE=%title%" -T "ALBUM=%albumtitle%" -T "DATE=%year%" -T "TRACKNUMBER=%tracknr%" -T "TOTALTRACKS=%numtracks%" -T "GENRE=%genre%" -T "ALBUMARTIST=%albumartist%" -T "ALBUM ARTIST=%albumartist%" -T "COMMENT=EAC Secure Mode, Test & Copy, AccurateRip, FLAC -8" %source%


TOC of the extracted CD

Track | Start | Length | Start sector | End sector
––––––––––––––––––––––––––––-
1 | 0:00.00 | 6:52.60 | 0 | 30959
2 | 6:52.60 | 7:17.26 | 30960 | 63760
3 | 14:10.11 | 5:36.61 | 63761 | 89021
4 | 19:46.72 | 9:02.59 | 89022 | 129730
5 | 28:49.56 | 9:53.64 | 129731 | 174269
6 | 38:43.45 | 7:00.38 | 174270 | 205807
7 | 45:44.08 | 6:42.61 | 205808 | 236018
8 | 52:26.69 | 6:55.34 | 236019 | 267177
9 | 59:22.28 | 0:30.56 | 267178 | 269483


Track 1

Filename D:\_EAC\Curtis Amy - Groovin' Blue & Way Down & Tippin' On Through (2013) [FLAC]\CD2\01 - A Soulful Bee, A Soulful Rose.wav

Pre-gap length 0:00:02.00

Peak level 99.0 %
Extraction speed 5.2 X
Track quality 100.0 %
Test CRC E3DE7F03
Copy CRC E3DE7F03
Track not present in AccurateRip database
Copy OK

Track 2

Filename D:\_EAC\Curtis Amy - Groovin' Blue & Way Down & Tippin' On Through (2013) [FLAC]\CD2\02 - All My Life.wav

Peak level 100.0 %
Extraction speed 6.0 X
Track quality 100.0 %
Test CRC EE5BE9E3
Copy CRC EE5BE9E3
Track not present in AccurateRip database
Copy OK

Track 3

Filename D:\_EAC\Curtis Amy - Groovin' Blue & Way Down & Tippin' On Through (2013) [FLAC]\CD2\03 - Bells And Horns.wav

Peak level 98.8 %
Extraction speed 6.5 X
Track quality 100.0 %
Test CRC 165F986C
Copy CRC 165F986C
Track not present in AccurateRip database
Copy OK

Track 4

Filename D:\_EAC\Curtis Amy - Groovin' Blue & Way Down & Tippin' On Through (2013) [FLAC]\CD2\04 - Tippin' On Through.wav

Peak level 98.8 %
Extraction speed 6.6 X
Track quality 99.9 %
Test CRC 0E5BEEC5
Copy CRC 0E5BEEC5
Track not present in AccurateRip database
Copy OK

Track 5

Filename D:\_EAC\Curtis Amy - Groovin' Blue & Way Down & Tippin' On Through (2013) [FLAC]\CD2\05 - Funk In The Evening.wav

Peak level 98.8 %
Extraction speed 8.1 X
Track quality 100.0 %
Test CRC D3B5B086
Copy CRC D3B5B086
Track not present in AccurateRip database
Copy OK

Track 6

Filename D:\_EAC\Curtis Amy - Groovin' Blue & Way Down & Tippin' On Through (2013) [FLAC]\CD2\06 - For Ayers Only.wav

Peak level 98.8 %
Extraction speed 8.5 X
Track quality 100.0 %
Test CRC BE4FFDD4
Copy CRC BE4FFDD4
Track not present in AccurateRip database
Copy OK

Track 7

Filename D:\_EAC\Curtis Amy - Groovin' Blue & Way Down & Tippin' On Through (2013) [FLAC]\CD2\07 - In Your Own Sweet Way.wav

Peak level 98.8 %
Extraction speed 8.9 X
Track quality 100.0 %
Test CRC 3E5FC51E
Copy CRC 3E5FC51E
Track not present in AccurateRip database
Copy OK

Track 8

Filename D:\_EAC\Curtis Amy - Groovin' Blue & Way Down & Tippin' On Through (2013) [FLAC]\CD2\08 - Summertime.wav

Peak level 98.8 %
Extraction speed 9.4 X
Track quality 100.0 %
Test CRC 80958BA2
Copy CRC 80958BA2
Track not present in AccurateRip database
Copy OK

Track 9

Filename D:\_EAC\Curtis Amy - Groovin' Blue & Way Down & Tippin' On Through (2013) [FLAC]\CD2\09 - Set Call.wav

Peak level 98.8 %
Extraction speed 4.6 X
Track quality 100.0 %
Test CRC 9EF65D45
Copy CRC 9EF65D45
Track not present in AccurateRip database
Copy OK


None of the tracks are present in the AccurateRip database

No errors occurred

End of status report

–– CUETools DB Plugin V2.1.6

[CTDB TOCID: GkvCLPKbyNxs2UYuovtI8.nz3DE-] disk not present in database
Submit result: GkvCLPKbyNxs2UYuovtI8.nz3DE- has been uploaded


==== Log checksum 521FAE804A8918DBBCB89766E24049FA926219C806E4C76165AF375A9A5F9A40 ====


Curtis Amy - Groovin' Blue & Way Down & Tippin' On Through (1961-1962) {2CD Fresh Sound Records FSRCD 768  rel 2013}



===