Tags
Language
Tags

Andrew Cyrille, William Parker & Enrico Rava - 2 Blues For Cecil (2022)

Posted By: delpotro
Andrew Cyrille, William Parker & Enrico Rava - 2 Blues For Cecil (2022)

Andrew Cyrille, William Parker & Enrico Rava - 2 Blues For Cecil (2022)
EAC Rip | FLAC (tracks+log+.cue) - 520 Mb | MP3 CBR 320 kbps - 339 Mb | Covers included | 01:10:24
Avant-Garde Jazz, Modern Creative | Label: TUM Records

2 Blues For Cecil features three legends of modern improvised music, trumpeter Enrico Rava, bassist William Parker and drummer Andrew Cyrille. Rava and Cyrille are among the elders of improvised music with their careers going back to the 1960s whereas Parker rose to prominence during New York's loft jazz era of the 1970s. The three musicians share one major link in their respective careers. Namely, they all have, at various times, been members of Unit or other ensembles of another legend, the late pianist Cecil Taylor. Enrico Rava, William Parker and Andrew Cyrille first performed together as a trio in tribute to Cecil Taylor, with Taylor himself present, at the Whitney museum in April 2016 as part of an exhibit/program under the heading "Open Plan: Cecil Taylor." 2 Blues For Cecil was recorded on February 1 and 2 at Studio Ferber in Paris following the trio's concert on December 31, 2020 under the heading "Tribute to Cecil Taylor" as part of the Sons D'Hiver festival in Paris.
Tracklist:
1. Improvisation No. 1 (10:55)
2. Ballerina (06:32)
3. Blues For Cecil No. 1 (10:09)
4. Improvisation No. 2 (06:28)
5. Top, Bottom And What's In The Middle (07:18)
6. Blues For Cecil No. 2 (08:42)
7. Enrava Melody (05:32)
8. Overboard (05:49)
9. Machu Picchu (05:40)
10. My Funny Valentine (03:10)

Exact Audio Copy V1.6 from 23. October 2020

EAC extraction logfile from 27. February 2022, 23:16

Andrew Cyrille, William Parker & Enrico Rava / 2 Blues For Cecil

Used drive : PLEXTOR PX-891SAF Adapter: 1 ID: 0

Read mode : Secure
Utilize accurate stream : Yes
Defeat audio cache : Yes
Make use of C2 pointers : No

Read offset correction : 6
Overread into Lead-In and Lead-Out : No
Fill up missing offset samples with silence : Yes
Delete leading and trailing silent blocks : No
Null samples used in CRC calculations : Yes
Used interface : Native Win32 interface for Win NT & 2000
Gap handling : Appended to previous track

Used output format : User Defined Encoder
Selected bitrate : 128 kBit/s
Quality : High
Add ID3 tag : No
Command line compressor : C:\Program Files (x86)\Exact Audio Copy\FLAC\FLAC.EXE
Additional command line options : -8 -V -T "ARTIST=%artist%" -T "TITLE=%title%" -T "ALBUM=%albumtitle%" -T "DATE=%year%" -T "TRACKNUMBER=%tracknr%" -T "TOTALTRACKS=%numtracks%" -T "GENRE=%genre%" -T "ALBUMARTIST=%albumartist%" -T "ALBUM ARTIST=%albumartist%" -T "COMMENT=EAC Secure Mode, Test & Copy, AccurateRip, FLAC -8" %source%


TOC of the extracted CD

Track | Start | Length | Start sector | End sector
––––––––––––––––––––––––––––-
1 | 0:00.00 | 10:56.39 | 0 | 49238
2 | 10:56.39 | 6:32.48 | 49239 | 78686
3 | 17:29.12 | 10:09.04 | 78687 | 124365
4 | 27:38.16 | 6:28.59 | 124366 | 153524
5 | 34:07.00 | 7:19.64 | 153525 | 186513
6 | 41:26.64 | 8:42.58 | 186514 | 225721
7 | 50:09.47 | 5:33.45 | 225722 | 250741
8 | 55:43.17 | 5:51.05 | 250742 | 277071
9 | 61:34.22 | 5:41.12 | 277072 | 302658
10 | 67:15.34 | 3:09.38 | 302659 | 316871


Track 1

Filename H:\DATOS\EAC\01 - Improvisation No. 1.wav

Pre-gap length 0:00:02.00

Peak level 99.7 %
Extraction speed 6.8 X
Track quality 100.0 %
Test CRC 9AE6DE90
Copy CRC 9AE6DE90
Track not present in AccurateRip database
Copy OK

Track 2

Filename H:\DATOS\EAC\02 - Ballerina.wav

Pre-gap length 0:00:01.50

Peak level 99.8 %
Extraction speed 7.7 X
Track quality 100.0 %
Test CRC 5BFC0C53
Copy CRC 5BFC0C53
Track not present in AccurateRip database
Copy OK

Track 3

Filename H:\DATOS\EAC\03 - Blues For Cecil No. 1.wav

Pre-gap length 0:00:00.37

Peak level 99.7 %
Extraction speed 8.9 X
Track quality 100.0 %
Test CRC E8B2BF3F
Copy CRC E8B2BF3F
Track not present in AccurateRip database
Copy OK

Track 4

Filename H:\DATOS\EAC\04 - Improvisation No. 2.wav

Pre-gap length 0:00:00.17

Peak level 91.4 %
Extraction speed 8.2 X
Track quality 99.9 %
Test CRC E6E3192E
Copy CRC E6E3192E
Track not present in AccurateRip database
Copy OK

Track 5

Filename H:\DATOS\EAC\05 - Top, Bottom and Whats in the Middle.wav

Pre-gap length 0:00:00.32

Peak level 99.7 %
Extraction speed 8.8 X
Track quality 99.9 %
Test CRC 5849E380
Copy CRC 5849E380
Track not present in AccurateRip database
Copy OK

Track 6

Filename H:\DATOS\EAC\06 - Blues For Cecil No. 2.wav

Pre-gap length 0:00:02.04

Peak level 99.8 %
Extraction speed 10.9 X
Track quality 100.0 %
Test CRC CDBEB30C
Copy CRC CDBEB30C
Track not present in AccurateRip database
Copy OK

Track 7

Filename H:\DATOS\EAC\07 - Enrava Melody.wav

Pre-gap length 0:00:00.31

Peak level 99.8 %
Extraction speed 11.0 X
Track quality 100.0 %
Test CRC A54C8921
Copy CRC A54C8921
Track not present in AccurateRip database
Copy OK

Track 8

Filename H:\DATOS\EAC\08 - Overboard.wav

Pre-gap length 0:00:01.30

Peak level 99.7 %
Extraction speed 11.5 X
Track quality 100.0 %
Test CRC 3F8A2A8C
Copy CRC 3F8A2A8C
Track not present in AccurateRip database
Copy OK

Track 9

Filename H:\DATOS\EAC\09 - Machu Picchu.wav

Pre-gap length 0:00:02.15

Peak level 99.8 %
Extraction speed 11.8 X
Track quality 100.0 %
Test CRC F03CB7B5
Copy CRC F03CB7B5
Track not present in AccurateRip database
Copy OK

Track 10

Filename H:\DATOS\EAC\10 - My Funny Valentine.wav

Pre-gap length 0:00:01.52

Peak level 99.4 %
Extraction speed 11.2 X
Track quality 100.0 %
Test CRC F235272C
Copy CRC F235272C
Track not present in AccurateRip database
Copy OK


None of the tracks are present in the AccurateRip database

No errors occurred

End of status report

–– CUETools DB Plugin V2.1.6

[CTDB TOCID: wIZijVN6KKd_U3LVAoqOtymVj_c-] found
Submit result: wIZijVN6KKd_U3LVAoqOtymVj_c- has been confirmed
Track | CTDB Status
1 | (1/1) Accurately ripped
2 | (1/1) Accurately ripped
3 | (1/1) Accurately ripped
4 | (1/1) Accurately ripped
5 | (1/1) Accurately ripped
6 | (1/1) Accurately ripped
7 | (1/1) Accurately ripped
8 | (1/1) Accurately ripped
9 | (1/1) Accurately ripped
10 | (1/1) Accurately ripped


==== Log checksum 6A2D229A61CFC06215ABFB87D4971E0D6712B9EF7D7761CC469C8FB3EAA09334 ====

Thanks to the Original ripper !