Tags
Language
Tags

Dean & Britta - 13 Most Beautiful... Songs For Andy Warhol Screen Tests (2CD Limited Edition) (2010)

Posted By:
Dean & Britta - 13 Most Beautiful... Songs For Andy Warhol Screen Tests (2CD Limited Edition) (2010)

Dean & Britta - 13 Most Beautiful… Songs For Andy Warhol Screen Tests (2CD Limited Edition) (2010)
EAC Rip | FLAC (tracks+.cue, log) ~ 317.59 Mb + 203.24 Mb | 01:39:18 | Cover
Indie Rock | Country: USA | Label: Double Feature Records - CD-DBL-005

13 Most Beautiful…Songs for Andy Warhol's Screen Tests (2010) is the third studio album by Dean & Britta. It was commissioned by the Pittsburgh Cultural Trust and The Andy Warhol Museum in Pittsburgh, Pennsylvania, and was written to accompany a collection of screen tests filmed in the 1960s by Andy Warhol featuring stars from The Factory including Lou Reed, Nico, and Edie Sedgwick. The album consists of 21 tracks, including several remixes, and is heavily influenced by the sound of the Velvet Underground.

===
Wiki | Amazon | Discogs
===


Disc 1:
1 Silver Factory Theme 5:05
2 I'll Keep It With Mine (Scott Hardkiss Remix) 4:51
3 Not A Young Man Anymore (My Robot Friend Remix) 3:09
4 I Found It Not So 4:02
5 It Don't Rain In Beverly Hills (Scott Hardkiss Remix) 4:47
6 Incandescent Innocent 5:11
7 International Velvet Redux (Anthony LaMarca Remix) 4:37
8 Teenage Lightning (And Lonely Highways) (Sonic Boom Remix) 4:58
9 Herringbone Tweed 4:43
10 Richard Rheem Theme 6:24
11 Knives From Bavaria (Spoonful Of Fun) 4:29
12 Eyes In My Smoke 3:52
13 Ann Buchanan Theme 4:25

Disc 2:
1 Incandescent Innocent (Sanctus) 5:29
2 I'll Keep It With Mine (Scott Hardkiss Electric Remix) 5:09
3 Silver Factory Redux (Sonic Boom Remix) 5:37
4 Not A Young Man Anymore 4:56
5 I Found It Not So (Sonic Boom Remix) 4:03
6 It Don't Rain In Beverly Hills 4:20
7 International Velvet Theme 4:29
8 Teenage Lightning (And Lonely Highways) 4:40

Exact Audio Copy V0.99 prebeta 3 from 28. July 2007

EAC extraction logfile from 9. October 2010, 11:41

Dean & Britta / 13 Most Beautiful: Songs for Andy Warhol's Screen Tests (disc 1)

Used drive : ASUS DRW-2014L1T Adapter: 3 ID: 0

Read mode : Secure
Utilize accurate stream : Yes
Defeat audio cache : Yes
Make use of C2 pointers : No

Read offset correction : 6
Overread into Lead-In and Lead-Out : No
Fill up missing offset samples with silence : Yes
Delete leading and trailing silent blocks : No
Null samples used in CRC calculations : Yes
Used interface : Native Win32 interface for Win NT & 2000
Gap handling : Appended to previous track

Used output format : User Defined Encoder
Selected bitrate : 320 kBit/s
Quality : High
Add ID3 tag : No
Command line compressor : C:\Program Files (x86)\FLAC\flac.exe
Additional command line options : -V -8 -T "artist=%a" -T "title=%t" -T "album=%g" -T "date=%y" -T "tracknumber=%n" -T "genre=%m" %s


TOC of the extracted CD

Track | Start | Length | Start sector | End sector
––––––––––––––––––––––––––––-
1 | 0:00.00 | 5:05.37 | 0 | 22911
2 | 5:05.37 | 4:50.66 | 22912 | 44727
3 | 9:56.28 | 3:09.09 | 44728 | 58911
4 | 13:05.37 | 4:02.13 | 58912 | 77074
5 | 17:07.50 | 4:47.00 | 77075 | 98599
6 | 21:54.50 | 5:11.28 | 98600 | 121952
7 | 27:06.03 | 4:36.53 | 121953 | 142705
8 | 31:42.56 | 4:58.21 | 142706 | 165076
9 | 36:41.02 | 4:43.03 | 165077 | 186304
10 | 41:24.05 | 6:23.66 | 186305 | 215095
11 | 47:47.71 | 4:29.02 | 215096 | 235272
12 | 52:16.73 | 3:51.65 | 235273 | 252662
13 | 56:08.63 | 4:24.73 | 252663 | 272535


Track 1

Filename C:\EAC\Dean & Britta - 2010 - 13 Most Beautiful- Songs for Andy Warhol's Screen Tests (disc 1) [FLAC]\01 - Silver Factory Theme.wav

Pre-gap length 0:00:02.00

Peak level 98.8 %
Track quality 99.9 %
Test CRC 73663AC3
Copy CRC 73663AC3
Track not present in AccurateRip database
Copy OK

Track 2

Filename C:\EAC\Dean & Britta - 2010 - 13 Most Beautiful- Songs for Andy Warhol's Screen Tests (disc 1) [FLAC]\02 - I'll Keep It With Mine (Scott Hardkiss remix).wav

Pre-gap length 0:00:02.04

Peak level 98.8 %
Track quality 99.9 %
Test CRC FF682F07
Copy CRC FF682F07
Track not present in AccurateRip database
Copy OK

Track 3

Filename C:\EAC\Dean & Britta - 2010 - 13 Most Beautiful- Songs for Andy Warhol's Screen Tests (disc 1) [FLAC]\03 - Not a Young Man Anymore (My Robot Friend remix).wav

Pre-gap length 0:00:01.02

Peak level 98.8 %
Track quality 100.0 %
Test CRC 6AE3129E
Copy CRC 6AE3129E
Track not present in AccurateRip database
Copy OK

Track 4

Filename C:\EAC\Dean & Britta - 2010 - 13 Most Beautiful- Songs for Andy Warhol's Screen Tests (disc 1) [FLAC]\04 - I Found It Not So.wav

Pre-gap length 0:00:01.29

Peak level 98.8 %
Track quality 100.0 %
Test CRC 60804A45
Copy CRC 60804A45
Track not present in AccurateRip database
Copy OK

Track 5

Filename C:\EAC\Dean & Britta - 2010 - 13 Most Beautiful- Songs for Andy Warhol's Screen Tests (disc 1) [FLAC]\05 - It Don't Rain in Beverly Hills (Scott Hardkiss remix).wav

Pre-gap length 0:00:01.08

Peak level 95.5 %
Track quality 100.0 %
Test CRC E2429AE5
Copy CRC E2429AE5
Track not present in AccurateRip database
Copy OK

Track 6

Filename C:\EAC\Dean & Britta - 2010 - 13 Most Beautiful- Songs for Andy Warhol's Screen Tests (disc 1) [FLAC]\06 - Incandescent Innocent.wav

Pre-gap length 0:00:01.54

Peak level 98.8 %
Track quality 100.0 %
Test CRC 0A96EB54
Copy CRC 0A96EB54
Track not present in AccurateRip database
Copy OK

Track 7

Filename C:\EAC\Dean & Britta - 2010 - 13 Most Beautiful- Songs for Andy Warhol's Screen Tests (disc 1) [FLAC]\07 - International Velvet Redux (Anthony LaMarca remix).wav

Pre-gap length 0:00:01.10

Peak level 98.8 %
Track quality 100.0 %
Test CRC 6EAF07C0
Copy CRC 6EAF07C0
Track not present in AccurateRip database
Copy OK

Track 8

Filename C:\EAC\Dean & Britta - 2010 - 13 Most Beautiful- Songs for Andy Warhol's Screen Tests (disc 1) [FLAC]\08 - Teenage Lightning (and Lonely Highways) (Sonic Boom remix).wav

Pre-gap length 0:00:01.22

Peak level 98.8 %
Track quality 100.0 %
Test CRC 2498B3B5
Copy CRC 2498B3B5
Track not present in AccurateRip database
Copy OK

Track 9

Filename C:\EAC\Dean & Britta - 2010 - 13 Most Beautiful- Songs for Andy Warhol's Screen Tests (disc 1) [FLAC]\09 - Herringbone Tweed.wav

Pre-gap length 0:00:01.04

Peak level 98.8 %
Track quality 100.0 %
Test CRC BCEA6C8D
Copy CRC BCEA6C8D
Track not present in AccurateRip database
Copy OK

Track 10

Filename C:\EAC\Dean & Britta - 2010 - 13 Most Beautiful- Songs for Andy Warhol's Screen Tests (disc 1) [FLAC]\10 - Richard Rheem Theme.wav

Pre-gap length 0:00:01.17

Peak level 98.8 %
Track quality 99.9 %
Test CRC 357AAFDD
Copy CRC 357AAFDD
Track not present in AccurateRip database
Copy OK

Track 11

Filename C:\EAC\Dean & Britta - 2010 - 13 Most Beautiful- Songs for Andy Warhol's Screen Tests (disc 1) [FLAC]\11 - Knives From Bavaria (Spoonful of Fun).wav

Pre-gap length 0:00:03.20

Peak level 98.8 %
Track quality 100.0 %
Test CRC DE8AEC04
Copy CRC DE8AEC04
Track not present in AccurateRip database
Copy OK

Track 12

Filename C:\EAC\Dean & Britta - 2010 - 13 Most Beautiful- Songs for Andy Warhol's Screen Tests (disc 1) [FLAC]\12 - Eyes in My Smoke.wav

Pre-gap length 0:00:01.41

Peak level 98.8 %
Track quality 100.0 %
Test CRC 81EF156A
Copy CRC 81EF156A
Track not present in AccurateRip database
Copy OK

Track 13

Filename C:\EAC\Dean & Britta - 2010 - 13 Most Beautiful- Songs for Andy Warhol's Screen Tests (disc 1) [FLAC]\13 - Ann Buchanan Theme.wav

Pre-gap length 0:00:01.10

Peak level 98.8 %
Track quality 100.0 %
Test CRC 6856D9DC
Copy CRC 6856D9DC
Track not present in AccurateRip database
Copy OK


None of the tracks are present in the AccurateRip database

No errors occurred

End of status report

Exact Audio Copy V0.99 prebeta 3 from 28. July 2007

EAC extraction logfile from 9. October 2010, 11:57

Dean & Britta / 13 Most Beautiful: Songs for Andy Warhol's Screen Tests (disc 2)

Used drive : ASUS DRW-2014L1T Adapter: 3 ID: 0

Read mode : Secure
Utilize accurate stream : Yes
Defeat audio cache : Yes
Make use of C2 pointers : No

Read offset correction : 6
Overread into Lead-In and Lead-Out : No
Fill up missing offset samples with silence : Yes
Delete leading and trailing silent blocks : No
Null samples used in CRC calculations : Yes
Used interface : Native Win32 interface for Win NT & 2000
Gap handling : Appended to previous track

Used output format : User Defined Encoder
Selected bitrate : 320 kBit/s
Quality : High
Add ID3 tag : No
Command line compressor : C:\Program Files (x86)\FLAC\flac.exe
Additional command line options : -V -8 -T "artist=%a" -T "title=%t" -T "album=%g" -T "date=%y" -T "tracknumber=%n" -T "genre=%m" %s


TOC of the extracted CD

Track | Start | Length | Start sector | End sector
––––––––––––––––––––––––––––-
1 | 0:00.00 | 5:29.22 | 0 | 24696
2 | 5:29.22 | 5:09.34 | 24697 | 47905
3 | 10:38.56 | 5:37.13 | 47906 | 73193
4 | 16:15.69 | 4:56.22 | 73194 | 95415
5 | 21:12.16 | 4:03.23 | 95416 | 113663
6 | 25:15.39 | 4:20.33 | 113664 | 133196
7 | 29:35.72 | 4:28.66 | 133197 | 153362
8 | 34:04.63 | 4:40.17 | 153363 | 174379


Track 1

Filename C:\EAC\Dean & Britta - 2010 - 13 Most Beautiful- Songs for Andy Warhol's Screen Tests (disc 2) [FLAC]\01 - Incandescent Innocent (Sanctus).wav

Pre-gap length 0:00:02.00

Peak level 98.8 %
Track quality 100.0 %
Test CRC 820F88FF
Copy CRC 820F88FF
Track not present in AccurateRip database
Copy OK

Track 2

Filename C:\EAC\Dean & Britta - 2010 - 13 Most Beautiful- Songs for Andy Warhol's Screen Tests (disc 2) [FLAC]\02 - I'll Keep It With Mine (Scott Hardkiss electric remix).wav

Pre-gap length 0:00:01.45

Peak level 98.8 %
Track quality 99.9 %
Test CRC 70D517F6
Copy CRC 70D517F6
Track not present in AccurateRip database
Copy OK

Track 3

Filename C:\EAC\Dean & Britta - 2010 - 13 Most Beautiful- Songs for Andy Warhol's Screen Tests (disc 2) [FLAC]\03 - Silver Factory Redux (Sonic Boom remix).wav

Pre-gap length 0:00:02.85

Peak level 98.8 %
Track quality 100.0 %
Test CRC 5FC2EAFC
Copy CRC 5FC2EAFC
Track not present in AccurateRip database
Copy OK

Track 4

Filename C:\EAC\Dean & Britta - 2010 - 13 Most Beautiful- Songs for Andy Warhol's Screen Tests (disc 2) [FLAC]\04 - Not a Young Man Anymore.wav

Pre-gap length 0:00:02.64

Peak level 98.8 %
Track quality 100.0 %
Test CRC 99ED0035
Copy CRC 99ED0035
Track not present in AccurateRip database
Copy OK

Track 5

Filename C:\EAC\Dean & Britta - 2010 - 13 Most Beautiful- Songs for Andy Warhol's Screen Tests (disc 2) [FLAC]\05 - I Found It Not So (Sonic Boom remix).wav

Pre-gap length 0:00:02.16

Peak level 93.3 %
Track quality 100.0 %
Test CRC 11E73D76
Copy CRC 11E73D76
Track not present in AccurateRip database
Copy OK

Track 6

Filename C:\EAC\Dean & Britta - 2010 - 13 Most Beautiful- Songs for Andy Warhol's Screen Tests (disc 2) [FLAC]\06 - It Don't Rain in Beverly Hills.wav

Pre-gap length 0:00:02.16

Peak level 98.8 %
Track quality 100.0 %
Test CRC 17F8E4B4
Copy CRC 17F8E4B4
Track not present in AccurateRip database
Copy OK

Track 7

Filename C:\EAC\Dean & Britta - 2010 - 13 Most Beautiful- Songs for Andy Warhol's Screen Tests (disc 2) [FLAC]\07 - International Velvet Theme.wav

Pre-gap length 0:00:01.76

Peak level 98.8 %
Track quality 100.0 %
Test CRC 08EF74C4
Copy CRC 08EF74C4
Track not present in AccurateRip database
Copy OK

Track 8

Filename C:\EAC\Dean & Britta - 2010 - 13 Most Beautiful- Songs for Andy Warhol's Screen Tests (disc 2) [FLAC]\08 - Teenage Lightning (and Lonely Highways).wav

Pre-gap length 0:00:01.13

Peak level 98.8 %
Track quality 100.0 %
Test CRC EB44A910
Copy CRC EB44A910
Track not present in AccurateRip database
Copy OK


None of the tracks are present in the AccurateRip database

No errors occurred

End of status report

All thanks go to the redacted

More Music in My Blog
Follow My RSS Channel