Tags
Language
Tags
April 2024
Su Mo Tu We Th Fr Sa
31 1 2 3 4 5 6
7 8 9 10 11 12 13
14 15 16 17 18 19 20
21 22 23 24 25 26 27
28 29 30 1 2 3 4

Deep Purple - Greatest Hits (2022)

Posted By: delpotro
Deep Purple - Greatest Hits (2022)

Deep Purple - Greatest Hits (2022)
EAC Rip | FLAC (tracks+log+.cue) - 1,57 Gb | MP3 CBR 320 kbps - 458 Mb | 03:19:51
Hard Rock | Label: Sony Music

Deep Purple are an English rock band formed in London in 1968. They are considered to be among the pioneers of heavy metal and modern hard rock, but their musical approach has changed over the years. Originally formed as a psychedelic rock and progressive rock band, they shifted to a heavier sound with their 1970 album Deep Purple in Rock. Deep Purple, together with Led Zeppelin and Black Sabbath, have been referred to as the "unholy trinity of British hard rock and heavy metal in the early to mid- seventies". They were listed in the 1975 Guinness Book of World Records as "the globe's loudest band" for a 1972 concert at London's Rainbow Theatre and have sold over 100 million albums worldwide.

Deep Purple have had several line-up changes and an eight-year hiatus (1976–1984). The 1968–1976 line-ups are commonly labelled Mark I, II, III and IV. Their second and most commercially successful line-up consisted of Ian Gillan (vocals) and Roger Glover (bass), who joined founder members Jon Lord (keyboards), Ian Paice (drums) and Ritchie Blackmore (guitar). This line-up was active from 1969 to 1973 and was revived from 1984 to 1989 and again from 1992 to 1993. The band achieved more modest success in the intervening periods between 1968 and 1969 with the line-up including Rod Evans (lead vocals) and Nick Simper (bass, backing vocals), between 1974 and 1976 with the line-up including David Coverdale (lead vocals) and Glenn Hughes (bass, vocals) (and Tommy Bolin replacing Blackmore in 1975), and between 1989 and 1992 with the line-up including Joe Lynn Turner (vocals). The band's line-up (currently including Ian Gillan, and guitarist Steve Morse from 1994) has been much more stable in recent years, although keyboardist Jon Lord's retirement from the band in 2002 (being succeeded by Don Airey) left Ian Paice as the last original Deep Purple member still in the band.

Deep Purple was ranked number 22 on VH1's Greatest Artists of Hard Rock programme, and a poll on radio station Planet Rock ranked them 5th among the "most influential bands ever". The band received the Legend Award at the 2008 World Music Awards. Deep Purple (specifically Blackmore, Lord, Paice, Gillan, Glover, Coverdale, Evans, and Hughes) were inducted into the Rock and Roll Hall of Fame in 2016.
Tracklist:
Disc 1
1. Highway Star (Live at Schleyer-Halle)
2. The Cut Runs Deep
3. Vavoom: Ted The Mechanic
4. Ramshackle Man
5. A Castle Full Of Rascals
6. Perfect Strangers (Live at Schleyer-Halle)
7. Truth Hurts
8. Solitaire
9. Loosen My Strings
10. Anyone's Daughter (Live at the NEC)
11. A Touch Away
12. Black Night (Live at Schleyer-Halle)
13. Nasty Piece Of Work

Disc 2
1. Slow Down Sister
2. Child In Time(Live At Schleyer-Halle)
3. Anya (Live At Schleyer-Halle)
4. Love Conquers All
5. Sometimes I Feel Like Screaming
6. Wicked Ways
7. The Purpendicular Waltz
8. Sped King (Live At Schleyer-Halle)
9. The Battle Rages On

Disc 3
1. King Of Dreams
2. Soon Forgotten
3. Knockin' At Your Back Door (Live at the NEC)
4. Fire In The Basement
5. Time To Kill
6. Cascades: I'm Not Your Lover
7. Fortuneteller
8. Lazy (Live At Schleyer-Halle)
9. Somebody Stole My Guitar
10. Hush (Live At Schleyer-Halle)
11. Smoke On The Water (Live at the NEC)

Exact Audio Copy V1.6 from 23. October 2020

EAC extraction logfile from 11. March 2022, 21:16

Deep Purple / Greatest Hits

Used drive : PIONEER BD-RW BDR-209M Adapter: 1 ID: 0

Read mode : Secure
Utilize accurate stream : Yes
Defeat audio cache : Yes
Make use of C2 pointers : No

Read offset correction : 667
Overread into Lead-In and Lead-Out : No
Fill up missing offset samples with silence : Yes
Delete leading and trailing silent blocks : No
Null samples used in CRC calculations : Yes
Used interface : Native Win32 interface for Win NT & 2000
Gap handling : Appended to previous track

Used output format : User Defined Encoder
Selected bitrate : 1024 kBit/s
Quality : High
Add ID3 tag : No
Command line compressor : C:\Program Files (x86)\Exact Audio Copy\FLAC\FLAC.EXE
Additional command line options : -8 -V -T "ARTIST=%artist%" -T "TITLE=%title%" -T "ALBUM=%albumtitle%" -T "DATE=%year%" -T "TRACKNUMBER=%tracknr%" -T "GENRE=%genre%" -T "PERFORMER=%albuminterpret%" -T "COMPOSER=%composer%" %haslyrics%–tag-from-file=LYRICS="%lyricsfile%"%haslyrics% -T "ALBUMARTIST=%albumartist%" -T "DISCNUMBER=%cdnumber%" -T "TOTALDISCS=%totalcds%" -T "TOTALTRACKS=%numtracks%" -T "COMMENT=%comment%" %source% -o %dest%


TOC of the extracted CD

Track | Start | Length | Start sector | End sector
––––––––––––––––––––––––––––-
1 | 0:00.00 | 7:22.11 | 0 | 33160
2 | 7:22.11 | 5:39.06 | 33161 | 58591
3 | 13:01.17 | 4:16.42 | 58592 | 77833
4 | 17:17.59 | 5:33.53 | 77834 | 102861
5 | 22:51.37 | 5:09.72 | 102862 | 126108
6 | 28:01.34 | 6:43.52 | 126109 | 156385
7 | 34:45.11 | 5:14.40 | 156386 | 179975
8 | 39:59.51 | 4:40.51 | 179976 | 201026
9 | 44:40.27 | 5:58.04 | 201027 | 227880
10 | 50:38.31 | 3:46.45 | 227881 | 244875
11 | 54:25.01 | 4:35.58 | 244876 | 265558
12 | 59:00.59 | 5:43.72 | 265559 | 291355
13 | 64:44.56 | 4:35.01 | 291356 | 311981


Track 1

Filename E:\EAC\01 - Highway Star (Live At Schleyer-Halle).wav

Pre-gap length 0:00:02.00

Peak level 95.4 %
Extraction speed 6.4 X
Track quality 100.0 %
Test CRC 60E6C61A
Copy CRC 60E6C61A
Track not present in AccurateRip database
Copy OK

Track 2

Filename E:\EAC\02 - The Cut Runs Deep.wav

Pre-gap length 0:00:02.13

Peak level 95.4 %
Extraction speed 7.1 X
Track quality 100.0 %
Test CRC EDF5111F
Copy CRC EDF5111F
Track not present in AccurateRip database
Copy OK

Track 3

Filename E:\EAC\03 - Vavoom- Ted The Mechanic.wav

Peak level 95.4 %
Extraction speed 7.4 X
Track quality 100.0 %
Test CRC 81C21B0E
Copy CRC 81C21B0E
Track not present in AccurateRip database
Copy OK

Track 4

Filename E:\EAC\04 - Ramshackle Man.wav

Pre-gap length 0:00:01.34

Peak level 95.4 %
Extraction speed 8.1 X
Track quality 100.0 %
Test CRC 59A8B844
Copy CRC 59A8B844
Track not present in AccurateRip database
Copy OK

Track 5

Filename E:\EAC\05 - A Castle Full Of Rascals.wav

Pre-gap length 0:00:00.93

Peak level 95.4 %
Extraction speed 8.4 X
Track quality 100.0 %
Test CRC 91C70FF1
Copy CRC 91C70FF1
Track not present in AccurateRip database
Copy OK

Track 6

Filename E:\EAC\06 - Perfect Strangers (Live At Schleyer-Halle).wav

Pre-gap length 0:00:01.01

Peak level 95.4 %
Extraction speed 8.4 X
Track quality 99.9 %
Test CRC 423B6BE8
Copy CRC 423B6BE8
Track not present in AccurateRip database
Copy OK

Track 7

Filename E:\EAC\07 - Truth Hurts.wav

Pre-gap length 0:00:02.02

Peak level 95.4 %
Extraction speed 9.4 X
Track quality 100.0 %
Test CRC 903DFD17
Copy CRC 903DFD17
Track not present in AccurateRip database
Copy OK

Track 8

Filename E:\EAC\08 - Salitaire.wav

Pre-gap length 0:00:01.56

Peak level 95.4 %
Extraction speed 9.6 X
Track quality 100.0 %
Test CRC F0810D33
Copy CRC F0810D33
Track not present in AccurateRip database
Copy OK

Track 9

Filename E:\EAC\09 - Loosen My Strings.wav

Pre-gap length 0:00:00.40

Peak level 95.4 %
Extraction speed 10.3 X
Track quality 100.0 %
Test CRC 2F8E5350
Copy CRC 2F8E5350
Track not present in AccurateRip database
Copy OK

Track 10

Filename E:\EAC\10 - Anyone's Daughter (Live At The NEC).wav

Pre-gap length 0:00:01.17

Peak level 95.4 %
Extraction speed 9.9 X
Track quality 100.0 %
Test CRC B35E4144
Copy CRC B35E4144
Track not present in AccurateRip database
Copy OK

Track 11

Filename E:\EAC\11 - A Touch Away.wav

Pre-gap length 0:00:01.66

Peak level 95.4 %
Extraction speed 10.5 X
Track quality 100.0 %
Test CRC 14C00666
Copy CRC 14C00666
Track not present in AccurateRip database
Copy OK

Track 12

Filename E:\EAC\12 - Black Night (Live At Schleyer-Halle).wav

Pre-gap length 0:00:00.44

Peak level 95.4 %
Extraction speed 10.0 X
Track quality 99.9 %
Test CRC A3B68AC1
Copy CRC A3B68AC1
Track not present in AccurateRip database
Copy OK

Track 13

Filename E:\EAC\13 - Nasty Piece Of Work.wav

Pre-gap length 0:00:02.29

Peak level 95.4 %
Extraction speed 10.8 X
Track quality 100.0 %
Test CRC 0AFCCA48
Copy CRC 0AFCCA48
Track not present in AccurateRip database
Copy OK


None of the tracks are present in the AccurateRip database

No errors occurred

End of status report

–– CUETools DB Plugin V2.1.6

[CTDB TOCID: K1vaHAr3CmGOpiWsnhbzqEwJZ6s-] found
Submit result: K1vaHAr3CmGOpiWsnhbzqEwJZ6s- has been confirmed
Track | CTDB Status
1 | (1/1) Accurately ripped
2 | (1/1) Accurately ripped
3 | (1/1) Accurately ripped
4 | (1/1) Accurately ripped
5 | (1/1) Accurately ripped
6 | (1/1) Accurately ripped
7 | (1/1) Accurately ripped
8 | (1/1) Accurately ripped
9 | (1/1) Accurately ripped
10 | (1/1) Accurately ripped
11 | (1/1) Accurately ripped
12 | (1/1) Accurately ripped
13 | (1/1) Accurately ripped


==== Log checksum 61276712CFDA6B246490A25363DCB40D6B2B9A851371E76CC75110311F86B16F ====
Exact Audio Copy V1.6 from 23. October 2020

EAC extraction logfile from 11. March 2022, 21:36

Deep Purple / Greatest Hits

Used drive : PIONEER BD-RW BDR-209M Adapter: 1 ID: 0

Read mode : Secure
Utilize accurate stream : Yes
Defeat audio cache : Yes
Make use of C2 pointers : No

Read offset correction : 667
Overread into Lead-In and Lead-Out : No
Fill up missing offset samples with silence : Yes
Delete leading and trailing silent blocks : No
Null samples used in CRC calculations : Yes
Used interface : Native Win32 interface for Win NT & 2000
Gap handling : Appended to previous track

Used output format : User Defined Encoder
Selected bitrate : 1024 kBit/s
Quality : High
Add ID3 tag : No
Command line compressor : C:\Program Files (x86)\Exact Audio Copy\FLAC\FLAC.EXE
Additional command line options : -8 -V -T "ARTIST=%artist%" -T "TITLE=%title%" -T "ALBUM=%albumtitle%" -T "DATE=%year%" -T "TRACKNUMBER=%tracknr%" -T "GENRE=%genre%" -T "PERFORMER=%albuminterpret%" -T "COMPOSER=%composer%" %haslyrics%–tag-from-file=LYRICS="%lyricsfile%"%haslyrics% -T "ALBUMARTIST=%albumartist%" -T "DISCNUMBER=%cdnumber%" -T "TOTALDISCS=%totalcds%" -T "TOTALTRACKS=%numtracks%" -T "COMMENT=%comment%" %source% -o %dest%


TOC of the extracted CD

Track | Start | Length | Start sector | End sector
––––––––––––––––––––––––––––-
1 | 0:00.00 | 5:57.24 | 0 | 26798
2 | 5:57.24 | 11:10.32 | 26799 | 77080
3 | 17:07.56 | 12:14.08 | 77081 | 132138
4 | 29:21.64 | 3:45.49 | 132139 | 149062
5 | 33:07.38 | 7:29.02 | 149063 | 182739
6 | 40:36.40 | 6:32.54 | 182740 | 212193
7 | 47:09.19 | 4:44.69 | 212194 | 233562
8 | 51:54.13 | 7:18.38 | 233563 | 266450
9 | 59:12.51 | 5:54.09 | 266451 | 293009


Track 1

Filename E:\EAC\01 - Slow Down Sister.wav

Pre-gap length 0:00:02.00

Peak level 95.5 %
Extraction speed 5.8 X
Track quality 100.0 %
Test CRC A9D0A114
Copy CRC A9D0A114
Track not present in AccurateRip database
Copy OK

Track 2

Filename E:\EAC\02 - Chiled In Time (Live At Schleyer-Halle).wav

Pre-gap length 0:00:01.42

Peak level 95.4 %
Extraction speed 7.2 X
Track quality 100.0 %
Test CRC 64AA725B
Copy CRC 64AA725B
Track not present in AccurateRip database
Copy OK

Track 3

Filename E:\EAC\03 - Anya (Live At Schleyer-Halle).wav

Peak level 95.4 %
Extraction speed 8.4 X
Track quality 100.0 %
Test CRC A7BF43F4
Copy CRC A7BF43F4
Track not present in AccurateRip database
Copy OK

Track 4

Filename E:\EAC\04 - Love Conquers All.wav

Pre-gap length 0:00:01.16

Peak level 95.4 %
Extraction speed 8.2 X
Track quality 100.0 %
Test CRC 76DE4F00
Copy CRC 76DE4F00
Track not present in AccurateRip database
Copy OK

Track 5

Filename E:\EAC\05 - Sometimes I Feel Like Screaming.wav

Pre-gap length 0:00:01.33

Peak level 95.4 %
Extraction speed 9.2 X
Track quality 100.0 %
Test CRC D2D51DE5
Copy CRC D2D51DE5
Track not present in AccurateRip database
Copy OK

Track 6

Filename E:\EAC\06 - Wicked Ways.wav

Peak level 95.4 %
Extraction speed 8.8 X
Track quality 99.9 %
Test CRC 2AFCEF5E
Copy CRC 2AFCEF5E
Track not present in AccurateRip database
Copy OK

Track 7

Filename E:\EAC\07 - The Purpendicular Waltz.wav

Peak level 95.4 %
Extraction speed 9.7 X
Track quality 100.0 %
Test CRC 8411221A
Copy CRC 8411221A
Track not present in AccurateRip database
Copy OK

Track 8

Filename E:\EAC\08 - Speed King (Live At Schleyer-Halle).wav

Pre-gap length 0:00:01.57

Peak level 95.4 %
Extraction speed 10.6 X
Track quality 100.0 %
Test CRC 7590FC6C
Copy CRC 7590FC6C
Track not present in AccurateRip database
Copy OK

Track 9

Filename E:\EAC\09 - The Battle Rages On.wav

Pre-gap length 0:00:00.74

Peak level 95.4 %
Extraction speed 10.5 X
Track quality 100.0 %
Test CRC D9FB7022
Copy CRC D9FB7022
Track not present in AccurateRip database
Copy OK


None of the tracks are present in the AccurateRip database

No errors occurred

End of status report

–– CUETools DB Plugin V2.1.6

[CTDB TOCID: .RrnrO2KCHBdDFjqv3LZCa9cuos-] found
Submit result: .RrnrO2KCHBdDFjqv3LZCa9cuos- has been confirmed
Track | CTDB Status
1 | (1/1) Accurately ripped
2 | (1/1) Accurately ripped
3 | (1/1) Accurately ripped
4 | (1/1) Accurately ripped
5 | (1/1) Accurately ripped
6 | (1/1) Accurately ripped
7 | (1/1) Accurately ripped
8 | (1/1) Accurately ripped
9 | (1/1) Accurately ripped


==== Log checksum 57BA7263DA8057698507524432753FCAAA9884444228152D51961E6BFAEFE14A ====
Exact Audio Copy V1.6 from 23. October 2020

EAC extraction logfile from 11. March 2022, 21:58

Deep Purple / Greatest Hits

Used drive : PIONEER BD-RW BDR-209M Adapter: 1 ID: 0

Read mode : Secure
Utilize accurate stream : Yes
Defeat audio cache : Yes
Make use of C2 pointers : No

Read offset correction : 667
Overread into Lead-In and Lead-Out : No
Fill up missing offset samples with silence : Yes
Delete leading and trailing silent blocks : No
Null samples used in CRC calculations : Yes
Used interface : Native Win32 interface for Win NT & 2000
Gap handling : Appended to previous track

Used output format : User Defined Encoder
Selected bitrate : 1024 kBit/s
Quality : High
Add ID3 tag : No
Command line compressor : C:\Program Files (x86)\Exact Audio Copy\FLAC\FLAC.EXE
Additional command line options : -8 -V -T "ARTIST=%artist%" -T "TITLE=%title%" -T "ALBUM=%albumtitle%" -T "DATE=%year%" -T "TRACKNUMBER=%tracknr%" -T "GENRE=%genre%" -T "PERFORMER=%albuminterpret%" -T "COMPOSER=%composer%" %haslyrics%–tag-from-file=LYRICS="%lyricsfile%"%haslyrics% -T "ALBUMARTIST=%albumartist%" -T "DISCNUMBER=%cdnumber%" -T "TOTALDISCS=%totalcds%" -T "TOTALTRACKS=%numtracks%" -T "COMMENT=%comment%" %source% -o %dest%


TOC of the extracted CD

Track | Start | Length | Start sector | End sector
––––––––––––––––––––––––––––-
1 | 0:00.00 | 5:27.07 | 0 | 24531
2 | 5:27.07 | 4:47.62 | 24532 | 46118
3 | 10:14.69 | 8:06.60 | 46119 | 82628
4 | 18:21.54 | 4:43.27 | 82629 | 103880
5 | 23:05.06 | 5:49.02 | 103881 | 130057
6 | 28:54.08 | 4:42.07 | 130058 | 151214
7 | 33:36.15 | 5:48.38 | 151215 | 177352
8 | 39:24.53 | 8:47.30 | 177353 | 216907
9 | 48:12.08 | 4:09.42 | 216908 | 235624
10 | 52:21.50 | 3:22.33 | 235625 | 250807
11 | 55:44.08 | 9:40.42 | 250808 | 294349


Track 1

Filename E:\EAC\01 - King Of Dreams.wav

Pre-gap length 0:00:02.00

Peak level 95.4 %
Extraction speed 5.7 X
Track quality 100.0 %
Test CRC 18CC72A6
Copy CRC 18CC72A6
Track not present in AccurateRip database
Copy OK

Track 2

Filename E:\EAC\02 - Soon Forgotten.wav

Pre-gap length 0:00:01.42

Peak level 95.4 %
Extraction speed 5.7 X
Track quality 99.9 %
Test CRC 7A228A2F
Copy CRC 7A228A2F
Track not present in AccurateRip database
Copy OK

Track 3

Filename E:\EAC\03 - Knockin' At Your Back Door (Live At The NEC).wav

Pre-gap length 0:00:01.12

Peak level 95.4 %
Extraction speed 7.3 X
Track quality 100.0 %
Test CRC 69B88EE6
Copy CRC 69B88EE6
Track not present in AccurateRip database
Copy OK

Track 4

Filename E:\EAC\04 - Fire In The Basement.wav

Pre-gap length 0:00:02.13

Peak level 95.4 %
Extraction speed 7.6 X
Track quality 100.0 %
Test CRC DF98C5DF
Copy CRC DF98C5DF
Track not present in AccurateRip database
Copy OK

Track 5

Filename E:\EAC\05 - Time To Kill.wav

Pre-gap length 0:00:00.80

Peak level 95.4 %
Extraction speed 8.1 X
Track quality 100.0 %
Test CRC 717E74E0
Copy CRC 717E74E0
Track not present in AccurateRip database
Copy OK

Track 6

Filename E:\EAC\06 - Cascades- I'm Not Your Lover.wav

Pre-gap length 0:00:00.57

Peak level 95.4 %
Extraction speed 8.4 X
Track quality 100.0 %
Test CRC 7ADDF71E
Copy CRC 7ADDF71E
Track not present in AccurateRip database
Copy OK

Track 7

Filename E:\EAC\07 - Fortuneteller.wav

Peak level 95.4 %
Extraction speed 9.0 X
Track quality 100.0 %
Test CRC F21BEDF9
Copy CRC F21BEDF9
Track not present in AccurateRip database
Copy OK

Track 8

Filename E:\EAC\08 - Lazy (Live At Schleyer-Halle).wav

Pre-gap length 0:00:00.02

Peak level 95.4 %
Extraction speed 9.8 X
Track quality 100.0 %
Test CRC 167DD513
Copy CRC 167DD513
Track not present in AccurateRip database
Copy OK

Track 9

Filename E:\EAC\09 - Somebody Stole My Guitar.wav

Pre-gap length 0:00:02.05

Peak level 95.4 %
Extraction speed 9.6 X
Track quality 100.0 %
Test CRC 8F824799
Copy CRC 8F824799
Track not present in AccurateRip database
Copy OK

Track 10

Filename E:\EAC\10 - Hush (Live At The NEC).wav

Pre-gap length 0:00:01.13

Peak level 95.4 %
Extraction speed 9.4 X
Track quality 100.0 %
Test CRC 6E16678F
Copy CRC 6E16678F
Track not present in AccurateRip database
Copy OK

Track 11

Filename E:\EAC\11 - Smoke In The Water (Live At The NEC).wav

Peak level 95.4 %
Extraction speed 11.0 X
Track quality 100.0 %
Test CRC 0DB1AAD7
Copy CRC 0DB1AAD7
Track not present in AccurateRip database
Copy OK


None of the tracks are present in the AccurateRip database

No errors occurred

End of status report

–– CUETools DB Plugin V2.1.6

[CTDB TOCID: Uwt0SxTbrzUVhHb3F7yQrwOdsBk-] found
Submit result: Uwt0SxTbrzUVhHb3F7yQrwOdsBk- has been confirmed
Track | CTDB Status
1 | (1/1) Accurately ripped
2 | (1/1) Accurately ripped
3 | (1/1) Accurately ripped
4 | (1/1) Accurately ripped
5 | (1/1) Accurately ripped
6 | (1/1) Accurately ripped
7 | (1/1) Accurately ripped
8 | (1/1) Accurately ripped
9 | (1/1) Accurately ripped
10 | (1/1) Accurately ripped
11 | (1/1) Accurately ripped


==== Log checksum C1C870B673C497B008125E54F3364727655C310398A63D5D5CD54D6D70B0E02D ====

Thanks to the Original ripper !