Subcategories

Def Leppard - Promo 1992 [Bludgeon Riffola DEFCD 1992] {1992}

Posted By: luckburz
Def Leppard - Promo 1992 [Bludgeon Riffola DEFCD 1992] {1992}

Def Leppard - Promo 1992
EAC+LOG+CUE | FLAC: 122 MB | Full Artwork | 5% Recovery Info
Label/Cat#: Bludgeon Riffola # DEFCD 1992 | Country/Year: UK 1992
Genre: Rock | Style: Hard Rock, Heavy Metal

MD5 [X] CUE [X] LOG [X] INFO TEXT [X] ARTWORK [X]

selfrip [X] not my rip []

Def Leppard - Promo 1992 [Bludgeon Riffola DEFCD 1992] {1992}


Exact Audio Copy V1.0 beta 3 from 29. August 2011

EAC extraction logfile from 20. July 2012, 14:45

Def Leppard / Promo 1992

Used drive : PIONEER BD-RW BDR-206 Adapter: 2 ID: 3

Read mode : Secure
Utilize accurate stream : Yes
Defeat audio cache : Yes
Make use of C2 pointers : No

Read offset correction : 667
Overread into Lead-In and Lead-Out : No
Fill up missing offset samples with silence : Yes
Delete leading and trailing silent blocks : No
Null samples used in CRC calculations : Yes
Used interface : Native Win32 interface for Win NT & 2000

Used output format : User Defined Encoder
Selected bitrate : 896 kBit/s
Quality : High
Add ID3 tag : No
Command line compressor : C:\Program Files\FLAC\flac.exe
Additional command line options : -5 -T "Artist=%artist%" -T "Title=%title%" -T "Album=%albumtitle%" -T "Date=%year%" -T "Tracknumber=%tracknr%" -T "Genre=%genre%" %source% -o %dest%


TOC of the extracted CD

Track | Start | Length | Start sector | End sector
––––––––––––––––––––––––––––-
1 | 0:00.00 | 4:09.52 | 0 | 18726
2 | 4:09.52 | 4:27.45 | 18727 | 38796
3 | 8:37.22 | 4:23.40 | 38797 | 58561
4 | 13:00.62 | 5:47.43 | 58562 | 84629


Range status and errors

Selected range

Filename I:\=== VINYL RIPS ===\=== EAC===\X FRESH RIP\Def Leppard - Promo 1992.wav

Peak level 100.0 %
Extraction speed 5.7 X
Range quality 100.0 %
Test CRC B14A1D49
Copy CRC B14A1D49
Copy OK

No errors occurred


AccurateRip summary

Track 1 cannot be verified as accurate (confidence 1) [D485C2A8], AccurateRip returned [A5D5696A] (AR v2)
Track 2 cannot be verified as accurate (confidence 1) [D8CA2067], AccurateRip returned [1A1A75E3] (AR v2)
Track 3 cannot be verified as accurate (confidence 1) [2B56F393], AccurateRip returned [7B8F4661] (AR v2)
Track 4 cannot be verified as accurate (confidence 1) [A97641C0], AccurateRip returned [F3181F76] (AR v2)

No tracks could be verified as accurate
You may have a different pressing from the one(s) in the database

End of status report

–– CUETools DB Plugin V2.1.3

[CTDB TOCID: sGjr96L5ayLA45qIvcIfKpcIZyc-] disk not present in database, Submit result: sGjr96L5ayLA45qIvcIfKpcIZyc- has been uploaded


==== Log checksum 5063689556116CEB3B9FFAF1E7E874AED668C512FCB19E686A08BE05A5E55EA7 ====

foobar2000 1.1.7 / Dynamic Range Meter 1.1.1
log date: 2012-08-17 12:36:13

––––––––––––––––––––––––––––––––––––––––
Analyzed: Def Leppard / Promo 1992
––––––––––––––––––––––––––––––––––––––––

DR Peak RMS Duration Track
––––––––––––––––––––––––––––––––––––––––
DR13 0.00 dB -14.70 dB 4:10 01-Photograph
DR13 -0.77 dB -16.67 dB 4:28 02-Too Late For Love
DR13 0.00 dB -15.07 dB 4:24 03-Pour Some Sugar On Me (Edit)
DR13 -0.48 dB -16.31 dB 5:48 04-Love Bites
––––––––––––––––––––––––––––––––––––––––

Number of tracks: 4
Official DR value: DR13

Samplerate: 44100 Hz
Channels: 2
Bits per sample: 16
Bitrate: 911 kbps
Codec: FLAC
================================================================================



CD Info:

Def Leppard - Promo 1992

Label: Bludgeon Riffola
Catalog#: DEFCD 1992
Format: CD, Album, Promo
Country: UK & Europe
Released: 1992
Genre: Rock
Style: Hard Rock, Heavy Metal

Tracklist:

1. Photograph 04:09
2. Too Late for Love 04:27
3. Pour Some Sugar on Me (edit) 04:23
4. Love Bites 05:47

Def Leppard - Promo 1992 [Bludgeon Riffola DEFCD 1992] {1992}


Def Leppard are an English rock band formed in 1977 in Sheffield as part of the New Wave of British Heavy Metal movement. Since 1992, the band has consisted of Rick Savage (bass, backing vocals), Joe Elliott (lead vocals), Rick Allen (drums, backing vocals), Phil Collen (guitar, backing vocals), and Vivian Campbell (guitar, backing vocals). Therefore, this is the band's longest-standing lineup.

The band's strongest commercial success came between the early 1980s and the early 1990s. Their 1981 album High 'n' Dry was produced by Robert John "Mutt" Lange, who helped them begin to define their style, and the album's stand out track "Bringin' On the Heartbreak" became one of the first metal videos played on MTV in 1982. The band's next studio album Pyromania in 1983, with the lead single "Photograph", turned Def Leppard into a household name. In 2004, the album ranked number 384 on Rolling Stone's 500 Greatest Albums of All Time.

Def Leppard's fourth album Hysteria, released in 1987, topped the U.S and UK album charts. As of 2009 it has 12x platinum sales in the United States, and has gone on to sell over 20 million copies worldwide. The album spawned six hit singles, including the U.S. Billboard Hot 100 number one "Love Bites", alongside "Pour Some Sugar on Me", "Hysteria", "Armageddon It", "Animal" and "Rocket".

Their next studio album Adrenalize (the first following the death of guitarist Steve Clark) reached number one on the U.S. Billboard 200 and UK Album Chart in 1992, and contained several hits including, "Let's Get Rocked" and "Have You Ever Needed Someone So Bad". Their 1993 album Retro Active contained the acoustic hit song "Two Steps Behind", while their greatest hits album Vault released in 1995 featured the new track "When Love & Hate Collide".

As one of the world's best-selling music artists, Def Leppard have sold more than 100 million albums worldwide, and have two albums with RIAA diamond certification, Pyromania and Hysteria. They are one of only five rock bands with two original studio albums selling over 10 million copies in the U.S. The band were ranked No. 31 in VH1's "100 Greatest Artists of Hard Rock" and ranked No. 70 in "100 Greatest Artists Of All Time". Def Leppard are currently touring in support of their recently released live album, Mirrorball. wikipedia
Def Leppard - Promo 1992 [Bludgeon Riffola DEFCD 1992] {1992}

// classical music \\
// all of my uploads \\
________________

Download:

Filepost
________________