Subcategories

Blank & Jones - DJ Culture (Limited edition) (2000)

Posted By: meditation
Blank & Jones - DJ Culture (Limited edition) (2000)

Blank & Jones - DJ Culture (Limited edition) (2000)
Trance/Downtempo/Ambient | Flac (image + .cue + log) : 748mb | MP3 - 320 kbps : 312mb | Covers | RS.com

DJ Culture (Limited edition with 2 CDs. Disc 2 includes bonus tracks and The Nightfly video) (2000)

Exact Audio Copy V0.99 prebeta 4 from 23. January 2008

EAC extraction logfile from 15. October 2008, 11:40

Blank & Jones / DJ Culture (CD1)

Used drive : _NEC DV-5800C Adapter: 1 ID: 1

Read mode : Secure
Utilize accurate stream : Yes
Defeat audio cache : Yes
Make use of C2 pointers : No

Read offset correction : 12
Overread into Lead-In and Lead-Out : No
Fill up missing offset samples with silence : Yes
Delete leading and trailing silent blocks : No
Null samples used in CRC calculations : Yes
Used interface : Native Win32 interface for Win NT & 2000
Gap handling : Appended to previous track

Used output format : User Defined Encoder
Selected bitrate : 128 kBit/s
Quality : High
Add ID3 tag : No
Command line compressor : C:\Program Files\EAC\Flac\flac.exe
Additional command line options : -8 -V -T "ARTIST=%a" -T "TITLE=%t" -T "ALBUM=%g" -T "DATE=%y" -T "TRACKNUMBER=%n" -T "GENRE=%m" -T "COMMENT=EAC FLAC -8" %s


TOC of the extracted CD

Track | Start | Length | Start sector | End sector
––––––––––––––––––––––––––––-
1 | 0:00.00 | 3:15.13 | 0 | 14637
2 | 3:15.13 | 7:21.13 | 14638 | 47725
3 | 10:36.26 | 5:45.57 | 47726 | 73657
4 | 16:22.08 | 6:07.29 | 73658 | 101211
5 | 22:29.37 | 5:15.19 | 101212 | 124855
6 | 27:44.56 | 5:15.14 | 124856 | 148494
7 | 32:59.70 | 6:38.14 | 148495 | 178358
8 | 39:38.09 | 4:38.08 | 178359 | 199216
9 | 44:16.17 | 7:30.45 | 199217 | 233011
10 | 51:46.62 | 5:34.16 | 233012 | 258077
11 | 57:21.03 | 3:38.46 | 258078 | 274473
12 | 60:59.49 | 3:08.60 | 274474 | 288633
13 | 64:08.34 | 3:55.57 | 288634 | 306315
14 | 68:04.16 | 3:03.53 | 306316 | 320093


Track 1

Filename D:\Temp\CDRips\01. Blank & Jones - A New Culture Is Born.wav

Pre-gap length 0:00:02.00

Peak level 100.0 %
Track quality 100.0 %
Test CRC B6BFEB5D
Copy CRC B6BFEB5D
Accurately ripped (confidence 7) [B59C548A]
Copy OK

Track 2

Filename D:\Temp\CDRips\02. Blank & Jones - The Nightfly.wav

Peak level 100.0 %
Track quality 100.0 %
Test CRC DD60FB0E
Copy CRC DD60FB0E
Accurately ripped (confidence 7) [867B99D9]
Copy OK

Track 3

Filename D:\Temp\CDRips\03. Blank & Jones - La Luna.wav

Peak level 100.0 %
Track quality 100.0 %
Test CRC 2DB33111
Copy CRC 2DB33111
Accurately ripped (confidence 7) [D3F48499]
Copy OK

Track 4

Filename D:\Temp\CDRips\04. Blank & Jones - DJ Culture.wav

Peak level 100.0 %
Track quality 99.9 %
Test CRC 7DD6E20A
Copy CRC 7DD6E20A
Accurately ripped (confidence 7) [721FDF00]
Copy OK

Track 5

Filename D:\Temp\CDRips\05. Blank & Jones - Sundowner.wav

Peak level 100.0 %
Track quality 100.0 %
Test CRC 77876215
Copy CRC 77876215
Accurately ripped (confidence 6) [13F813E6]
Copy OK

Track 6

Filename D:\Temp\CDRips\06. Blank & Jones - Sound Of Machines.wav

Peak level 100.0 %
Track quality 99.9 %
Test CRC D1694BB7
Copy CRC D1694BB7
Accurately ripped (confidence 6) [1A43B8B9]
Copy OK

Track 7

Filename D:\Temp\CDRips\07. Blank & Jones - The Blue Sky.wav

Peak level 100.0 %
Track quality 100.0 %
Test CRC 32E56036
Copy CRC 32E56036
Accurately ripped (confidence 6) [BFFE2DD3]
Copy OK

Track 8

Filename D:\Temp\CDRips\08. Blank & Jones - Waste Your Youth.wav

Peak level 100.0 %
Track quality 100.0 %
Test CRC D32A2931
Copy CRC D32A2931
Accurately ripped (confidence 6) [1D7C0E93]
Copy OK

Track 9

Filename D:\Temp\CDRips\09. Blank & Jones - Mindcrasher.wav

Peak level 100.0 %
Track quality 99.9 %
Test CRC 1E868601
Copy CRC 1E868601
Accurately ripped (confidence 6) [362A43E9]
Copy OK

Track 10

Filename D:\Temp\CDRips\10. Blank & Jones - The Nightfly (Break Reprise).wav

Peak level 100.0 %
Track quality 100.0 %
Test CRC E828CE7F
Copy CRC E828CE7F
Accurately ripped (confidence 6) [9475BD34]
Copy OK

Track 11

Filename D:\Temp\CDRips\11. Blank & Jones - The Blue Sky (Short).wav

Peak level 100.0 %
Track quality 99.9 %
Test CRC 3121885F
Copy CRC 3121885F
Accurately ripped (confidence 6) [A286ADED]
Copy OK

Track 12

Filename D:\Temp\CDRips\12. Blank & Jones - DJ Culture (Short).wav

Peak level 100.0 %
Track quality 100.0 %
Test CRC C882247D
Copy CRC C882247D
Accurately ripped (confidence 6) [3FAC32AC]
Copy OK

Track 13

Filename D:\Temp\CDRips\13. Blank & Jones - The Nightfly (Short).wav

Peak level 100.0 %
Track quality 99.9 %
Test CRC 22BFFF02
Copy CRC 22BFFF02
Accurately ripped (confidence 6) [1898A64B]
Copy OK

Track 14

Filename D:\Temp\CDRips\14. Blank & Jones - Sound Of Machines (Short).wav

Peak level 100.0 %
Track quality 99.9 %
Test CRC AA004F55
Copy CRC AA004F55
Accurately ripped (confidence 6) [5E0F953E]
Copy OK


All tracks accurately ripped

No errors occurred

End of status report


Exact Audio Copy V0.99 prebeta 4 from 23. January 2008

EAC extraction logfile from 15. October 2008, 10:54

Blank & Jones / DJ Culture (CD2)

Used drive : _NEC DV-5800C Adapter: 1 ID: 1

Read mode : Secure
Utilize accurate stream : Yes
Defeat audio cache : Yes
Make use of C2 pointers : No

Read offset correction : 12
Overread into Lead-In and Lead-Out : No
Fill up missing offset samples with silence : Yes
Delete leading and trailing silent blocks : No
Null samples used in CRC calculations : Yes
Used interface : Native Win32 interface for Win NT & 2000
Gap handling : Appended to previous track

Used output format : User Defined Encoder
Selected bitrate : 128 kBit/s
Quality : High
Add ID3 tag : No
Command line compressor : C:\Program Files\EAC\Flac\flac.exe
Additional command line options : -8 -V -T "ARTIST=%a" -T "TITLE=%t" -T "ALBUM=%g" -T "DATE=%y" -T "TRACKNUMBER=%n" -T "GENRE=%m" -T "COMMENT=EAC FLAC -8" %s


TOC of the extracted CD

Track | Start | Length | Start sector | End sector
––––––––––––––––––––––––––––-
1 | 0:00.00 | 7:20.71 | 0 | 33070
2 | 7:20.71 | 6:36.32 | 33071 | 62802
3 | 16:29.28 | 2:59.23 | 74203 | 87650


Track 1

Filename D:\Temp\CDRips\01. Blank & Jones - After Love (Quake Remix).wav

Pre-gap length 0:00:02.00

Peak level 97.9 %
Track quality 99.9 %
Test CRC D4710A52
Copy CRC D4710A52
Track not present in AccurateRip database
Copy OK

Track 2

Filename D:\Temp\CDRips\02. Blank & Jones - Cream (Paul van Dyk Remix).wav

Peak level 98.4 %
Track quality 100.0 %
Test CRC 3F8AF9EA
Copy CRC 3F8AF9EA
Track not present in AccurateRip database
Copy OK


None of the tracks are present in the AccurateRip database

No errors occurred

End of status report


Tracklist:
01. A New Culture Is Born 03:14
02. The Nightfly 07:21
03. La Luna 05:45
04. DJ Culture 06:07
05. Sundowner 05:15
06. Sound Of Machines 05:15
07. The Blue Sky 06:38
08. Waste Your Youth 04:38
09. Mindcrasher 07:30
10. The Nightfly (Break Reprise) 05:32
11. The Blue Sky (Short) 03:36
12. DJ Culture (Short) 03:06
13. The Nightfly (Short) 03:53
14. Sound Of Machines (Short) 03:01
Bonus CD (limited edition only):
01. After Love (Quake Remix) 07:20
02. Cream (Paul van Dyk Remix) 06:38
Video: "The Nightfly"