Subcategories
Tags
Language
Tags

Don Byas - A Night In Tunisia (1963} {Black Lion BLCD760136 rel 1989}

Posted By: ruskaval
Don Byas - A Night In Tunisia (1963} {Black Lion BLCD760136 rel 1989}

Don Byas - A Night In Tunisia (1963} {Black Lion BLCD760136 rel 1989}
EAC rip (secure mode) | FLAC (tracks)+CUE+LOG -> 322 Mb | MP3 @320 -> 116 Mb
Full Artwork @ 300 dpi (jpg) -> 10 Mb | 5% repair rar
© 1963, 1989 Black Lion / Phonoco | BLCD760136
Jazz / Bop / Saxophone

The first of two CDs documenting two nights at the Montmartre in Copenhagen, this release features the great tenor Don Byas in a quartet with pianist Bent Axen, bassist Niels Pederson (still a teenager) and drummer William Schiopffe. Alternating romps with ballads, Byas tears into such songs as "I'll Remember april," "Anthropology" and "A Night in Tunisia." He shows that, despite being overseas since 1946, he had lost nothing of his power and inventiveness. This release (along with Walkin') is easily recommended, among the best recordings from Byas' European years.
Don Byas - A Night In Tunisia (1963} {Black Lion BLCD760136 rel 1989}


Personnel
Don Byas - tenor saxophone
Bent Axen - piano
Niels-Henning Ørsted Pedersen - bass
William Schiöpffe - drums

Recorded at The Montmartre Jazzhus Copenhagen.
January 13 / 14, 1963


Tracklist
01 - I'll Remember April
02 - Lover Man
03 - Anthropology
04 - Lady Bird
05 - Yesterdays
06 - A Night In Tunisia

Exact Audio Copy V1.0 beta 4 from 7. December 2014

EAC extraction logfile from 22. April 2015, 20:31

Don Byas / A Night In Tunisia (BLCD)

Used drive : TSSTcorpCDDVDW SH-S202J Adapter: 1 ID: 0

Read mode : Secure
Utilize accurate stream : Yes
Defeat audio cache : Yes
Make use of C2 pointers : No

Read offset correction : 6
Overread into Lead-In and Lead-Out : No
Fill up missing offset samples with silence : Yes
Delete leading and trailing silent blocks : No
Null samples used in CRC calculations : Yes
Used interface : Native Win32 interface for Win NT & 2000
Gap handling : Appended to previous track

Used output format : User Defined Encoder
Selected bitrate : 128 kBit/s
Quality : High
Add ID3 tag : No
Command line compressor : C:\Program Files\Exact Audio Copy\Flac\flac.exe
Additional command line options : -8 -V -T "ARTIST=%artist%" -T "TITLE=%title%" -T "ALBUM=%albumtitle%" -T "DATE=%year%" -T "TRACKNUMBER=%tracknr%" -T "TOTALTRACKS=%numtracks%" -T "GENRE=%genre%" -T "ALBUMARTIST=%albumartist%" -T "ALBUM ARTIST=%albumartist%" -T "COMMENT=EAC Secure Mode, Test & Copy, AccurateRip, FLAC -8" %source%


TOC of the extracted CD

Track | Start | Length | Start sector | End sector
––––––––––––––––––––––––––––-
1 | 0:00.00 | 9:45.57 | 0 | 43931
2 | 9:45.57 | 8:22.28 | 43932 | 81609
3 | 18:08.10 | 5:52.45 | 81610 | 108054
4 | 24:00.55 | 8:26.40 | 108055 | 146044
5 | 32:27.20 | 8:52.32 | 146045 | 185976
6 | 41:19.52 | 7:23.48 | 185977 | 219249


Track 1

Filename H:\EAC WAV\01 - I'll Remember April.wav

Pre-gap length 0:00:02.00

Peak level 94.5 %
Extraction speed 4.8 X
Track quality 100.0 %
Test CRC B3385021
Copy CRC B3385021
Accurately ripped (confidence 4) [7A61A145] (AR v2)
Copy OK

Track 2

Filename H:\EAC WAV\02 - Lover Man.wav

Peak level 91.3 %
Extraction speed 5.7 X
Track quality 100.0 %
Test CRC 85A56570
Copy CRC 85A56570
Accurately ripped (confidence 4) [7F7F212C] (AR v2)
Copy OK

Track 3

Filename H:\EAC WAV\03 - Anthropology.wav

Peak level 94.5 %
Extraction speed 6.1 X
Track quality 100.0 %
Test CRC 59DAB108
Copy CRC 59DAB108
Accurately ripped (confidence 4) [A2D96C0B] (AR v2)
Copy OK

Track 4

Filename H:\EAC WAV\04 - Lady Bird.wav

Peak level 94.5 %
Extraction speed 6.8 X
Track quality 100.0 %
Test CRC 663B43C4
Copy CRC 663B43C4
Accurately ripped (confidence 4) [9490DC24] (AR v2)
Copy OK

Track 5

Filename H:\EAC WAV\05 - Yesterdays.wav

Peak level 94.5 %
Extraction speed 7.4 X
Track quality 100.0 %
Test CRC 189B8C92
Copy CRC 189B8C92
Accurately ripped (confidence 4) [30900E65] (AR v2)
Copy OK

Track 6

Filename H:\EAC WAV\06 - A Night In Tunisia.wav

Peak level 94.5 %
Extraction speed 7.8 X
Track quality 100.0 %
Test CRC 3E65D55C
Copy CRC 3E65D55C
Accurately ripped (confidence 4) [EAE9FD69] (AR v2)
Copy OK


All tracks accurately ripped

No errors occurred

End of status report

–– CUETools DB Plugin V2.1.4

[CTDB TOCID: OVxH7sqTIrPJaAaz9frtDUUI6gg-] found
Submit result: OVxH7sqTIrPJaAaz9frtDUUI6gg- has been confirmed
Track | CTDB Status
1 | (3/3) Accurately ripped
2 | (3/3) Accurately ripped
3 | (3/3) Accurately ripped
4 | (3/3) Accurately ripped
5 | (3/3) Accurately ripped
6 | (3/3) Accurately ripped


==== Log checksum C8E9F05E174717F5EA957D2CBBB61819F62679940181957E0E90A4C41021688B ====


Don Byas - A Night In Tunisia (1963} {Black Lion BLCD760136 rel 1989}


NEXT -> Don Byas - Walkin' (1963) {Black Lion}


===