Tags
Language
Tags

Don Cherry, Carlos Ward, Dollar Brand - Universal Silence (2019/2020)

Posted By:
Don Cherry, Carlos Ward, Dollar Brand - Universal Silence (2019/2020)

Don Cherry, Carlos Ward, Dollar Brand - Universal Silence (2019/2020)
EAC Rip | FLAC (tracks+log+.cue) - 393 Mb | MP3 CBR 320 kbps - 182 Mb | 01:19:15
Avant-Garde Jazz | Label: Lepo Glasbo

A beautiful live performance from the same trio that delivered the Third World Underground album for Trio Records in 1972 – a set done with a similar mix of earthy, global elements as that gem – delivered by Carlos Ward on alto and flute, Dollar Brand on piano and flute, and Don Cherry on flute, trumpet, and percussion! There's a style here that's almost an extension of the energy of the Art Ensemble Of Chicago – especially in the way the musicians mix up instruments – combined with some of the more globally-sensitive elements of Don Cherry's work in Sweden, which clearly brings out qualities in Brand and Ward that are different than their already-great work together on other albums. Titles include "African Session", "Air", "Berimbau", "Waya Wa Egoli", "Cherry", and "Bra Joe From Kilimanjaro".
Tracklist:
1. Waya-Wa-Egoli (06:39)
2. Berimbao (06:48)
3. Introduction (02:23)
4. Air (04:55)
5. African Piano (13:07)
6. African Session (05:18)
7. Bra Joe From Kilimanjaro (07:37)
8. Cherry (06:50)
9. Session (05:01)
10. Waya Session (Part I) (05:43)
11. Waya Session (Part II) (06:29)
12. Waya Session (Part III) (02:00)
13. Waya Session (Part IV) (02:14)
14. Waya Session (Part V) (00:45)
15. Waya Session (Part VI) (02:36)

Exact Audio Copy V1.6 from 23. October 2020

EAC extraction logfile from 27. February 2021, 12:08

Don Cherry, Carlos Ward, Dollar Brand / Universal Silence

Used drive : HL-DT-STDVDRW GX30N Adapter: 1 ID: 0

Read mode : Burst

Read offset correction : 6
Overread into Lead-In and Lead-Out : No
Fill up missing offset samples with silence : Yes
Delete leading and trailing silent blocks : No
Null samples used in CRC calculations : Yes
Used interface : Native Win32 interface for Win NT & 2000
Gap handling : Appended to previous track

Used output format : User Defined Encoder
Selected bitrate : 768 kBit/s
Quality : High
Add ID3 tag : No
Command line compressor : C:\Program Files (x86)\Exact Audio Copy\FLAC\FLAC.EXE
Additional command line options : -6 -V -T "ARTIST=%artist%" -T "TITLE=%title%" -T "ALBUM=%albumtitle%" -T "DATE=%year%" -T "TRACKNUMBER=%tracknr%" -T "GENRE=%genre%" -T "COMMENT=%comment%" -T "BAND=%albuminterpret%" -T "ALBUMARTIST=%albuminterpret%" -T "COMPOSER=%composer%" %haslyrics%–tag-from-file=LYRICS="%lyricsfile%"%haslyrics% -T "DISCNUMBER=%cdnumber%" -T "TOTALDISCS=%totalcds%" -T "TOTALTRACKS=%numtracks%" %hascover%–picture="%coverfile%"%hascover% %source% -o %dest%


TOC of the extracted CD

Track | Start | Length | Start sector | End sector
––––––––––––––––––––––––––––-
1 | 0:00.00 | 6:44.38 | 0 | 30337
2 | 6:44.38 | 7:15.65 | 30338 | 63027
3 | 14:00.28 | 2:29.69 | 63028 | 74271
4 | 16:30.22 | 5:00.52 | 74272 | 96823
5 | 21:30.74 | 13:07.10 | 96824 | 155858
6 | 34:38.09 | 5:17.41 | 155859 | 179674
7 | 39:55.50 | 7:36.72 | 179675 | 213946
8 | 47:32.47 | 6:49.74 | 213947 | 244695
9 | 54:22.46 | 5:01.18 | 244696 | 267288
10 | 59:23.64 | 5:43.56 | 267289 | 293069
11 | 65:07.45 | 6:29.72 | 293070 | 322316
12 | 71:37.42 | 2:00.53 | 322317 | 331369
13 | 73:38.20 | 2:14.44 | 331370 | 341463
14 | 75:52.64 | 0:45.60 | 341464 | 344898
15 | 76:38.49 | 2:36.31 | 344899 | 356629


Track 1

Filename C:\Users\jonah\Documents\Don Cherry, Carlos Ward, Dollar Brand - Universal Silence (2020) [FLAC]\01 Waya-wa-egoli.wav

Pre-gap length 0:00:02.00

Peak level 100.0 %
Extraction speed 4.9 X
Test CRC 3B954589
Copy CRC 3B954589
Accurately ripped (confidence 1) [A856C8CB] (AR v2)
Copy OK

Track 2

Filename C:\Users\jonah\Documents\Don Cherry, Carlos Ward, Dollar Brand - Universal Silence (2020) [FLAC]\02 Berimbau.wav

Peak level 100.0 %
Extraction speed 5.6 X
Test CRC BE0601E0
Copy CRC BE0601E0
Accurately ripped (confidence 1) [9DDFC168] (AR v2)
Copy OK

Track 3

Filename C:\Users\jonah\Documents\Don Cherry, Carlos Ward, Dollar Brand - Universal Silence (2020) [FLAC]\03 Introduction.wav

Peak level 93.7 %
Extraction speed 6.1 X
Test CRC 6681C3FC
Copy CRC 6681C3FC
Accurately ripped (confidence 1) [E20CE193] (AR v2)
Copy OK

Track 4

Filename C:\Users\jonah\Documents\Don Cherry, Carlos Ward, Dollar Brand - Universal Silence (2020) [FLAC]\04 Air.wav

Peak level 100.0 %
Extraction speed 6.4 X
Test CRC 3EA20077
Copy CRC 3EA20077
Accurately ripped (confidence 1) [EAE03652] (AR v2)
Copy OK

Track 5

Filename C:\Users\jonah\Documents\Don Cherry, Carlos Ward, Dollar Brand - Universal Silence (2020) [FLAC]\05 African Piano.wav

Peak level 100.0 %
Extraction speed 7.2 X
Test CRC 03F9CC90
Copy CRC 03F9CC90
Accurately ripped (confidence 1) [2B4F721D] (AR v2)
Copy OK

Track 6

Filename C:\Users\jonah\Documents\Don Cherry, Carlos Ward, Dollar Brand - Universal Silence (2020) [FLAC]\06 African Session.wav

Peak level 100.0 %
Extraction speed 7.9 X
Test CRC 3A45C110
Copy CRC 3A45C110
Accurately ripped (confidence 1) [6CE0D157] (AR v2)
Copy OK

Track 7

Filename C:\Users\jonah\Documents\Don Cherry, Carlos Ward, Dollar Brand - Universal Silence (2020) [FLAC]\07 Bra Joe from Kilimanjaro.wav

Timing problem 0:04:03

Peak level 100.0 %
Extraction speed 8.3 X
Test CRC A2905245
Copy CRC A2905245
Accurately ripped (confidence 1) [17198B1F] (AR v2)
Copy finished

Track 8

Filename C:\Users\jonah\Documents\Don Cherry, Carlos Ward, Dollar Brand - Universal Silence (2020) [FLAC]\08 Cherry.wav

Peak level 100.0 %
Extraction speed 8.8 X
Test CRC FBD493E1
Copy CRC FBD493E1
Accurately ripped (confidence 1) [1395395C] (AR v2)
Copy OK

Track 9

Filename C:\Users\jonah\Documents\Don Cherry, Carlos Ward, Dollar Brand - Universal Silence (2020) [FLAC]\09 Session.wav

Peak level 100.0 %
Extraction speed 9.2 X
Test CRC FEFAB1BD
Copy CRC FEFAB1BD
Accurately ripped (confidence 1) [FE9C37B6] (AR v2)
Copy OK

Track 10

Filename C:\Users\jonah\Documents\Don Cherry, Carlos Ward, Dollar Brand - Universal Silence (2020) [FLAC]\10 Waya Session (Part I).wav

Peak level 100.0 %
Extraction speed 9.5 X
Test CRC BEA4FEC7
Copy CRC BEA4FEC7
Accurately ripped (confidence 1) [A3C5C78C] (AR v2)
Copy OK

Track 11

Filename C:\Users\jonah\Documents\Don Cherry, Carlos Ward, Dollar Brand - Universal Silence (2020) [FLAC]\11 Waya Session (Part II).wav

Peak level 100.0 %
Extraction speed 9.9 X
Test CRC 72555466
Copy CRC 72555466
Accurately ripped (confidence 1) [47846EA0] (AR v2)
Copy OK

Track 12

Filename C:\Users\jonah\Documents\Don Cherry, Carlos Ward, Dollar Brand - Universal Silence (2020) [FLAC]\12 Waya Session (Part III).wav

Peak level 100.0 %
Extraction speed 10.0 X
Test CRC A8ADEA0A
Copy CRC A8ADEA0A
Accurately ripped (confidence 1) [D1AF8D12] (AR v2)
Copy OK

Track 13

Filename C:\Users\jonah\Documents\Don Cherry, Carlos Ward, Dollar Brand - Universal Silence (2020) [FLAC]\13 Waya Session (Part IV).wav

Peak level 100.0 %
Extraction speed 10.2 X
Test CRC D02EA81F
Copy CRC D02EA81F
Accurately ripped (confidence 1) [4F797F5F] (AR v2)
Copy OK

Track 14

Filename C:\Users\jonah\Documents\Don Cherry, Carlos Ward, Dollar Brand - Universal Silence (2020) [FLAC]\14 Waya Session (Part V).wav

Peak level 81.3 %
Extraction speed 10.1 X
Test CRC B5BD4743
Copy CRC B5BD4743
Accurately ripped (confidence 1) [ED7B35DD] (AR v2)
Copy OK

Track 15

Filename C:\Users\jonah\Documents\Don Cherry, Carlos Ward, Dollar Brand - Universal Silence (2020) [FLAC]\15 Waya Session (Part VI).wav

Peak level 100.0 %
Extraction speed 10.3 X
Test CRC 989D49F1
Copy CRC 989D49F1
Accurately ripped (confidence 1) [E98EF5B0] (AR v2)
Copy OK


All tracks accurately ripped

No errors occurred

End of status report

–– CUETools DB Plugin V2.1.6

[CTDB TOCID: YXlwyc9OKZj_.qp4n8SD95ixNWo-] found
Submit result: already submitted
Track | CTDB Status
1 | (2/2) Accurately ripped
2 | (2/2) Accurately ripped
3 | (2/2) Accurately ripped
4 | (2/2) Accurately ripped
5 | (2/2) Accurately ripped
6 | (2/2) Accurately ripped
7 | (2/2) Accurately ripped
8 | (2/2) Accurately ripped
9 | (2/2) Accurately ripped
10 | (2/2) Accurately ripped
11 | (2/2) Accurately ripped
12 | (2/2) Accurately ripped
13 | (2/2) Accurately ripped
14 | (2/2) Accurately ripped
15 | (2/2) Accurately ripped


Thanks to the Original ripper !