Subcategories

Duke Ellington - Elvin chez Duke - EuropeanTour - January 1966 (2015) {La Maison du Duke MDD 007}

Posted By: ruskaval
Duke Ellington - Elvin chez Duke - EuropeanTour - January 1966 (2015) {La Maison du Duke MDD 007}

Duke Ellington - Elvin chez Duke - EuropeanTour - January 1966 (2015) {La Maison du Duke MDD 007}
EAC rip (secure mode) | FLAC (tracks)+CUE+LOG -> 290 Mb | MP3 @320 -> 157 Mb
Full Artwork @ 600 dpi (jpg) -> 23 Mb | 5% repair rar
© 1966, 2015 La Maison du Duke | MDD 007
Jazz / Mainstream Jazz / Big Band / Progressive Jazz

La Maison du Duke is proud to present a collection of unpublished recordings of Duke Ellington, which come from an important stock of Ellington archives (Clavié collection), acquired by the association, which only a few collectors had access to today . The CDs are reserved for members of the Maison du Duke association and are not intended to be marketed.
La Maison du Duke est fière de vous présenter une collection d’enregistrements inédits de Duke Ellington, qui roviennent d’un important stock d’archives ellingtoniennes (collection Clavié), acquis par l’association, auquel seuls quelques collectionneurs avaient accès à ce jour. Tirés en très faible quantité, les CDs sont réservés aux membres de l’association la Maison du Duke et n’ont pas vocation à être commercialisés.
Voici une trace inattendue et mémorable d’une tournée ellingtonienne de 1966 à laquelle s’était joint le grand batteur coltranien!
Jusqu’au 20 janvier, et depuis la fin juillet 65, l’orchestre d’Ellington bénéficiait du drumming de Louie Bellson, qui avait remplacé un Sam Woodyard extrêmement fatigué. Bellson, retenu aux États- Unis par des concerts avec sa femme, la chanteuse Pearl Bailey, est remplacé pour la tournée par Skeets Marsh, honnête drummer philadelphien, qu’on allait revoir à Paris en 1974 avec le big band de Count Basie. Après Lisbonne le 24 janvier et Barcelone le 25, Duke Ellington, peu satisfait du jeu de Marsh, fait appel à Elvin Jones, non pas pour remplacer celui-ci, mais pour l’assister ! Et, sans doute, et secrètement, pour bien s’amuser et secouer les puces aux « anciens » de son orchestre (et il est vrai, nous en fûmes témoins, que Duke, Gonsalves et de rares autres prirent du bon temps tandis que certains ne suaient pas la rigolade…).

La Maison du Duke INFO

tracklist:
Salle Pleyel, Paris, January 29, 1966, 2nd concert

01 - Take The ''A'' Train
02 - Black And Tan Fantasy - Creole Love Call - The Mooche
03 - Chelsea Bridge
04 - El Viti
05 - La Plus Belle Africaine
06 - Trombonio-Bustoso-Issimo (Trombone Buster)
07 - Passion Flower
08 - Things Ain't What They Used To Be
09 - Wings And Things
10 - Introducing Harry Bellafonte
Same personnel, date and location, 1st concert
11 - Take The ''A'' Train
Same personnel, Jahrhunderthalle, Frankfurt, January 28, 1966
12 - Ad Lib On Nippon

Exact Audio Copy V1.3 from 2. September 2016

EAC extraction logfile from 8. June 2017, 18:58

Duke Ellington / Elvin chez Duke - EuropeanTour - January 1966

Used drive : TSSTcorpCDDVDW SE-208DB Adapter: 1 ID: 1

Read mode : Secure
Utilize accurate stream : Yes
Defeat audio cache : Yes
Make use of C2 pointers : No

Read offset correction : 6
Overread into Lead-In and Lead-Out : No
Fill up missing offset samples with silence : Yes
Delete leading and trailing silent blocks : No
Null samples used in CRC calculations : Yes
Used interface : Native Win32 interface for Win NT & 2000
Gap handling : Appended to previous track

Used output format : User Defined Encoder
Selected bitrate : 1024 kBit/s
Quality : High
Add ID3 tag : No
Command line compressor : C:\Program Files (x86)\FLAC Frontend\tools\flac.exe
Additional command line options : -8 -V -T "ARTIST=%artist%" -T "TITLE=%title%" -T "ALBUM=%albumtitle%" -T "DATE=%year%" -T "TRACKNUMBER=%tracknr%" -T "TOTALTRACKS=%numtracks%" -T "GENRE=%genre%" -T "ALBUMARTIST=%albumartist%" -T "ALBUM ARTIST=%albumartist%" -T "COMMENT=EAC Secure Mode, Test & Copy, AccurateRip, FLAC -8" %source%


TOC of the extracted CD

Track | Start | Length | Start sector | End sector
––––––––––––––––––––––––––––-
1 | 0:00.00 | 2:10.21 | 0 | 9770
2 | 2:10.21 | 10:17.35 | 9771 | 56080
3 | 12:27.56 | 4:01.04 | 56081 | 74159
4 | 16:28.60 | 4:06.42 | 74160 | 92651
5 | 20:35.27 | 7:53.50 | 92652 | 128176
6 | 28:29.02 | 3:50.01 | 128177 | 145427
7 | 32:19.03 | 4:31.29 | 145428 | 165781
8 | 36:50.32 | 3:05.14 | 165782 | 179670
9 | 39:55.46 | 3:17.13 | 179671 | 194458
10 | 43:12.59 | 1:56.64 | 194459 | 203222
11 | 45:09.48 | 7:02.34 | 203223 | 234906
12 | 52:12.07 | 13:44.24 | 234907 | 296730


Track 1

Filename D:\_EAC\Duke Ellington - Elvin chez Duke (1966) [FLAC] {La Maison du Duke MDD 007}\01 - Take The ''A'' Train.wav

Pre-gap length 0:00:02.00

Peak level 70.6 %
Extraction speed 0.9 X
Track quality 100.0 %
Test CRC CE4973B9
Copy CRC CE4973B9
Track not present in AccurateRip database
Copy OK

Track 2

Filename D:\_EAC\Duke Ellington - Elvin chez Duke (1966) [FLAC] {La Maison du Duke MDD 007}\02 - Black And Tan Fantasy - Creole Love Call - The Mooche.wav

Peak level 87.7 %
Extraction speed 1.3 X
Track quality 100.0 %
Test CRC 81EB696E
Copy CRC 81EB696E
Track not present in AccurateRip database
Copy OK

Track 3

Filename D:\_EAC\Duke Ellington - Elvin chez Duke (1966) [FLAC] {La Maison du Duke MDD 007}\03 - Chelsea Bridge.wav

Peak level 82.4 %
Extraction speed 1.3 X
Track quality 100.0 %
Test CRC C507531A
Copy CRC C507531A
Track not present in AccurateRip database
Copy OK

Track 4

Filename D:\_EAC\Duke Ellington - Elvin chez Duke (1966) [FLAC] {La Maison du Duke MDD 007}\04 - El Viti.wav

Peak level 79.8 %
Extraction speed 1.4 X
Track quality 100.0 %
Test CRC AE322B94
Copy CRC AE322B94
Track not present in AccurateRip database
Copy OK

Track 5

Filename D:\_EAC\Duke Ellington - Elvin chez Duke (1966) [FLAC] {La Maison du Duke MDD 007}\05 - La Plus Belle Africaine.wav

Peak level 82.4 %
Extraction speed 1.6 X
Track quality 100.0 %
Test CRC B5E078B3
Copy CRC B5E078B3
Track not present in AccurateRip database
Copy OK

Track 6

Filename D:\_EAC\Duke Ellington - Elvin chez Duke (1966) [FLAC] {La Maison du Duke MDD 007}\06 - Trombonio-Bustoso-Issimo (Trombone Buster).wav

Peak level 62.2 %
Extraction speed 1.5 X
Track quality 100.0 %
Test CRC 2DE51A94
Copy CRC 2DE51A94
Track not present in AccurateRip database
Copy OK

Track 7

Filename D:\_EAC\Duke Ellington - Elvin chez Duke (1966) [FLAC] {La Maison du Duke MDD 007}\07 - Passion Flower.wav

Peak level 71.0 %
Extraction speed 1.6 X
Track quality 100.0 %
Test CRC 6743B30C
Copy CRC 6743B30C
Track not present in AccurateRip database
Copy OK

Track 8

Filename D:\_EAC\Duke Ellington - Elvin chez Duke (1966) [FLAC] {La Maison du Duke MDD 007}\08 - Things Ain't What They Used To Be.wav

Peak level 77.5 %
Extraction speed 1.6 X
Track quality 100.0 %
Test CRC BC3EFA01
Copy CRC BC3EFA01
Track not present in AccurateRip database
Copy OK

Track 9

Filename D:\_EAC\Duke Ellington - Elvin chez Duke (1966) [FLAC] {La Maison du Duke MDD 007}\09 - Wings And Things.wav

Peak level 70.3 %
Extraction speed 1.4 X
Track quality 99.9 %
Test CRC A9C9A7C0
Copy CRC A9C9A7C0
Track not present in AccurateRip database
Copy OK

Track 10

Filename D:\_EAC\Duke Ellington - Elvin chez Duke (1966) [FLAC] {La Maison du Duke MDD 007}\10 - Introducing Harry Bellafonte.wav

Peak level 60.5 %
Extraction speed 1.1 X
Track quality 99.9 %
Test CRC 0F2B9B83
Copy CRC 0F2B9B83
Track not present in AccurateRip database
Copy OK

Track 11

Filename D:\_EAC\Duke Ellington - Elvin chez Duke (1966) [FLAC] {La Maison du Duke MDD 007}\11 - Take The ''A'' Train.wav

Peak level 89.2 %
Extraction speed 1.9 X
Track quality 100.0 %
Test CRC 72F886BF
Copy CRC 72F886BF
Track not present in AccurateRip database
Copy OK

Track 12

Filename D:\_EAC\Duke Ellington - Elvin chez Duke (1966) [FLAC] {La Maison du Duke MDD 007}\12 - Ad Lib On Nippon.wav

Peak level 88.9 %
Extraction speed 2.0 X
Track quality 99.9 %
Test CRC 7850F17A
Copy CRC 7850F17A
Track not present in AccurateRip database
Copy OK


None of the tracks are present in the AccurateRip database

No errors occurred

End of status report

–– CUETools DB Plugin V2.1.6

[CTDB TOCID: I46e7z2jEdnLI4X1jW0t0xhvc.8-] disk not present in database
Submit result: I46e7z2jEdnLI4X1jW0t0xhvc.8- has been uploaded


==== Log checksum A8B0F6B9D4C73C21E7A003E177764FB1D3B9CD9EED021FFAC6E5B7F530613B67 ====


Duke Ellington - Elvin chez Duke - EuropeanTour - January 1966 (2015) {La Maison du Duke MDD 007}

Duke Ellington - Elvin chez Duke - EuropeanTour - January 1966 (2015) {La Maison du Duke MDD 007}


see also:
Duke Ellington - The 1962 MOMA Recital - Piano Solo & Trio (2010) {La Maison du Duke MDD 001}
Duke Ellington - Stockholm, June 1963 (2012) {La Maison du Duke MDD 002}
Duke Ellington - Paris, March 1964 (2013) {La Maison du Duke MDD 003}
Duke Ellington - The Girls and Premieres 1958-1963 (2014) {La Maison du Duke MDD 004}
Duke Ellington - Welcome To The Clubs: Blue Note 1956-57, Hickory House 1957, Storyville 1959 (2014) {La Maison du Duke MDD 005}

Duke Ellington - Rare Strayhorn: Billy Strayhorn with Duke Ellington 1941-1965 (2015) {La Maison du Duke MDD 006}


NEXT -> DUKE ELLINGTON «The (almost) complete Jazz Violin Session – 1963» {La Maison du Duke MDD 008}


===