Subcategories

Dwarves - Horror Stories (1986) {Voxx Records VCD 2037, Expanded Re-issue rel 1992}

Posted By: ruskaval
Dwarves - Horror Stories (1986) {Voxx Records VCD 2037, Expanded Re-issue rel 1992}

Dwarves - Horror Stories (1986) {Voxx Records VCD 2037, Expanded Re-issue rel 1992}
EAC rip (secure mode) | FLAC (tracks)+CUE+LOG -> 198 Mb | MP3 @320 -> 62 Mb
Full Artwork @ 300 dpi (png) -> 39 Mb | 5% repair rar
© 1986, 1992 Voxx Records / Bomp! Records | VCD 2037
Rock / Punk Rock / Garage Rock Revival / Noise-Rock

The Dwarves began in Chicago as a teen garage-rock Sonics-style outfit called The Suburban Nightmare, a sound that was partially carried over into the first Dwarves release, Horror Stories. After the first album, The Dwarves blazoned across the country for seven more years, leaving a trail of blood from their own self-inflicted gashes, drug stories unparalleled since Keith Richards' heroin heyday, bizarre stage-show sex acts, and numerous 15-minute-long live shows.

The Dwarves, not surprisingly, self-destructed in 1993, shortly after a failed hoax in which the band issued a press release stating that guitarist He Who Cannot Be Named had died. The group's final album, Sugarfix, also carried a tribute to the guitarist, who was actually very much alive. Sub Pop was not amused and released the band.
Dwarves - Horror Stories (1986) {Voxx Records VCD 2037, Expanded Re-issue rel 1992}


TRACK LIST:

01. In And Out - 02:11
02. Oozle - 01:48
03. Don't Love Me - 01:10
04. Monday Blues - 01:18
05. Mined Expanders - 01:16
06. I'm A Living Sickness - 02:59
07. College Town - 02:15
08. Be A Caveman - 01:13
09. Get Outta My Life - 01:40
10. Sometimes Gay Boys Don't Wear Pink - 01:09
11. Lick It - 01:23
12. Love Gestapo - 03:00
13. Lick It [Alternate Version] [Bonus track] - 01:43
14. Underwater [Bonus track] - 01:19
15. Nothing [Bonus track] - 01:29

Recorded at Willy Wells Studio, Champaign, Illinois in 1985.

Exact Audio Copy V1.0 beta 3 from 29. August 2011

EAC extraction logfile from 1. November 2012, 12:18

Dwarves / Horror Stories

Used drive : HL-DT-STDVDRAM GT51N Adapter: 0 ID: 1

Read mode : Secure
Utilize accurate stream : Yes
Defeat audio cache : Yes
Make use of C2 pointers : No

Read offset correction : 103
Overread into Lead-In and Lead-Out : No
Fill up missing offset samples with silence : Yes
Delete leading and trailing silent blocks : No
Null samples used in CRC calculations : Yes
Used interface : Native Win32 interface for Win NT & 2000
Gap handling : Appended to previous track

Used output format : User Defined Encoder
Selected bitrate : 32 kBit/s
Quality : High
Add ID3 tag : No
Command line compressor : C:\Exact Audio Copy\FLAC\FLAC.EXE
Additional command line options : -5 -V -T "ARTIST=%artist%" -T "TITLE=%title%" -T "ALBUM=%albumtitle%" -T "DATE=%year%" -T "TRACKNUMBER=%tracknr%" -T "TOTALTRACKS=%numtracks%" -T "GENRE=%genre%" -T "ALBUM ARTIST=%albumartist%" -T "ALBUMARTIST=%albumartist%" -T "COMMENT=Secure Mode, Test and Copy, AccurateRip, FLAC -5" %source%


TOC of the extracted CD

Track | Start | Length | Start sector | End sector
––––––––––––––––––––––––––––-
1 | 0:00.00 | 2:11.27 | 0 | 9851
2 | 2:11.27 | 1:47.53 | 9852 | 17929
3 | 3:59.05 | 1:10.22 | 17930 | 23201
4 | 5:09.27 | 1:17.40 | 23202 | 29016
5 | 6:26.67 | 1:16.13 | 29017 | 34729
6 | 7:43.05 | 2:59.37 | 34730 | 48191
7 | 10:42.42 | 2:15.30 | 48192 | 58346
8 | 12:57.72 | 1:13.08 | 58347 | 63829
9 | 14:11.05 | 1:39.65 | 63830 | 71319
10 | 15:50.70 | 1:08.47 | 71320 | 76466
11 | 16:59.42 | 1:23.10 | 76467 | 82701
12 | 18:22.52 | 3:00.05 | 82702 | 96206
13 | 21:22.57 | 1:42.60 | 96207 | 103916
14 | 23:05.42 | 1:18.50 | 103917 | 109816
15 | 24:24.17 | 1:28.65 | 109817 | 116481


Track 1

Filename C:\temp\01 - In And Out.wav

Pre-gap length 0:00:02.00

Peak level 87.3 %
Extraction speed 2.6 X
Track quality 100.0 %
Test CRC D59220A8
Copy CRC D59220A8
Accurately ripped (confidence 4) [212D1429] (AR v1)
Copy OK

Track 2

Filename C:\temp\02 - Oozle.wav

Pre-gap length 0:00:02.22

Peak level 99.2 %
Extraction speed 2.6 X
Track quality 100.0 %
Test CRC 8A963D43
Copy CRC 8A963D43
Accurately ripped (confidence 4) [D90864C2] (AR v1)
Copy OK

Track 3

Filename C:\temp\03 - Don't Love Me.wav

Pre-gap length 0:00:00.38

Peak level 99.2 %
Extraction speed 2.3 X
Track quality 100.0 %
Test CRC A5A3CCE9
Copy CRC A5A3CCE9
Accurately ripped (confidence 3) [5A166270] (AR v1)
Copy OK

Track 4

Filename C:\temp\04 - Monday Blues.wav

Pre-gap length 0:00:00.52

Peak level 99.2 %
Extraction speed 2.5 X
Track quality 100.0 %
Test CRC 2AB21A57
Copy CRC 2AB21A57
Accurately ripped (confidence 4) [8E29A6FE] (AR v1)
Copy OK

Track 5

Filename C:\temp\05 - Mined Expanders.wav

Peak level 99.2 %
Extraction speed 2.6 X
Track quality 100.0 %
Test CRC 33A023A0
Copy CRC 33A023A0
Accurately ripped (confidence 4) [91F5A96A] (AR v1)
Copy OK

Track 6

Filename C:\temp\06 - I'm A Living Sickness.wav

Pre-gap length 0:00:00.30

Peak level 99.2 %
Extraction speed 3.3 X
Track quality 100.0 %
Test CRC 5835855A
Copy CRC 5835855A
Accurately ripped (confidence 4) [6D95CBC2] (AR v1)
Copy OK

Track 7

Filename C:\temp\07 - College Town.wav

Pre-gap length 0:00:01.37

Peak level 99.2 %
Extraction speed 3.2 X
Track quality 100.0 %
Test CRC 5B247D31
Copy CRC 5B247D31
Accurately ripped (confidence 4) [3DA54E9E] (AR v1)
Copy OK

Track 8

Filename C:\temp\08 - Be A Caveman.wav

Pre-gap length 0:00:01.45

Peak level 99.2 %
Extraction speed 2.9 X
Track quality 100.0 %
Test CRC 9FE5C6FC
Copy CRC 9FE5C6FC
Accurately ripped (confidence 4) [2464273A] (AR v1)
Copy OK

Track 9

Filename C:\temp\09 - Get Outta My Life.wav

Pre-gap length 0:00:00.55

Peak level 99.2 %
Extraction speed 3.2 X
Track quality 100.0 %
Test CRC 97CA5D7D
Copy CRC 97CA5D7D
Accurately ripped (confidence 4) [1B582FD8] (AR v1)
Copy OK

Track 10

Filename C:\temp\10 - Sometimes Gay Boys Don't Wear Pink.wav

Pre-gap length 0:00:00.03

Peak level 99.2 %
Extraction speed 2.8 X
Track quality 100.0 %
Test CRC 41388FD9
Copy CRC 41388FD9
Accurately ripped (confidence 4) [F343C193] (AR v1)
Copy OK

Track 11

Filename C:\temp\11 - Lick It.wav

Pre-gap length 0:00:00.67

Peak level 99.2 %
Extraction speed 3.2 X
Track quality 100.0 %
Test CRC 77C66391
Copy CRC 77C66391
Accurately ripped (confidence 4) [AD51AB19] (AR v1)
Copy OK

Track 12

Filename C:\temp\12 - Love Gestapo.wav

Pre-gap length 0:00:00.55

Peak level 99.2 %
Extraction speed 3.9 X
Track quality 100.0 %
Test CRC 24F736C3
Copy CRC 24F736C3
Accurately ripped (confidence 4) [F7181916] (AR v1)
Copy OK

Track 13

Filename C:\temp\13 - Lick It [Alternate Version] [Bonus track].wav

Pre-gap length 0:00:01.15

Peak level 88.9 %
Extraction speed 3.5 X
Track quality 100.0 %
Test CRC 6F7A6C7C
Copy CRC 6F7A6C7C
Accurately ripped (confidence 4) [2DE059A7] (AR v1)
Copy OK

Track 14

Filename C:\temp\14 - Underwater [Bonus track].wav

Pre-gap length 0:00:00.60

Peak level 91.1 %
Extraction speed 2.1 X
Track quality 99.8 %
Test CRC 4698FF6E
Copy CRC 4698FF6E
Accurately ripped (confidence 4) [3FA18B6A] (AR v1)
Copy OK

Track 15

Filename C:\temp\15 - Nothing [Bonus track].wav

Pre-gap length 0:00:01.50

Peak level 96.1 %
Extraction speed 3.5 X
Track quality 100.0 %
Test CRC 874F26ED
Copy CRC 874F26ED
Accurately ripped (confidence 4) [619FB8BD] (AR v1)
Copy OK


All tracks accurately ripped

No errors occurred

End of status report

==== Log checksum 47DFD52CA9F35F7543781843314E5EF56E2EAA97DFB87248241C347C17892B16 ====


Dwarves - Horror Stories (1986) {Voxx Records VCD 2037, Expanded Re-issue rel 1992}

Dwarves - Horror Stories (1986) {Voxx Records VCD 2037, Expanded Re-issue rel 1992}



===