Subcategories
Tags
Language
Tags

Ella Fitzgerald - The Complete 1960-1961 Ella In Berlin (2017) {Essential Jazz Classics EJC55719}

Posted By: ruskaval
Ella Fitzgerald - The Complete 1960-1961 Ella In Berlin (2017) {Essential Jazz Classics EJC55719}

Ella Fitzgerald - The Complete 1960-1961 Ella In Berlin (2017) {Essential Jazz Classics EJC55719}
EAC rip (secure mode) | FLAC (tracks)+CUE+LOG -> 509 Mb | MP3 @320 -> 318 Mb
Full Artwork @ 300 dpi (png) -> 83 Mb | 5% repair rar
© 1960-61, 2017 Verve / Essential Jazz Classics | EJC55719
Jazz / Classical Jazz / Vocal Jazz / Standards

Its Ella Fitzgerald so it is going to be a delight to listen to, The original album called Mack The Knife : Ella In Berlin is a live album recorded, well you guess where! It includes the wonderful improvised version of Mack The Knife where Ella forgets the words and improvises a whole new song and this song contains what is great about this album also what is great about Ella Fitzgerald and that is the sheer unalloyed joy in singing it comes across in the giggling thank yous between songs and her rapport with band and audience, also included is a wonderful version of How High The Moon and Too Darn Hot. This expanded version also incudes another concert from Berlin with another version of Mack The Knife as well as tracks from a concert in Cannes and the Hollywood Bowl. So what's not to like it's Ella at her height doing what she enjoyed doing, it is a joy.
Ella Fitzgerald - The Complete 1960-1961 Ella In Berlin (2017) {Essential Jazz Classics EJC55719}


Personnel:

Bass – Jimmy Woode, Joe Mondragon, Max Bennett, Ray Brown, Wilfred Middlebrooks
Drums – Alvin Stoller, Ed Thigpen, Gus Johnson, William Schiöpffe
Guitar – Barney Kessel, Herb Ellis, Jim Hall
Piano – Knud Jörgensen, Lou Levy, Oscar Peterson, Paul Smith
Vocals – Ella Fitzgerald

Ella Fitzgerald - The Complete 1960-1961 Ella In Berlin (2017) {Essential Jazz Classics EJC55719}


TRACKLISTING:

CD1


01 That Old Black Magic
02 Our Love Is Here To Stay
03 Gone With The Wind
04 Misty
05 The Lady Is A Tramp
06 The Man I Love
07 Summertime
08 Too Darn Hot
09 Lorelei
10 Mack The Knife
11 How High The Moon?
12 Lover Come Back To Me
13 Angel Eyes
14 I’m Beginning To See The Light
15 My Heart Belongs To Daddy
16 Just One Of Those Things
17 I Can’t Give You Anything But Love
18 Sophisticated Lady
19 Love For Sale
20 Just One Of Those Things

Ella Fitzgerald - The Complete 1960-1961 Ella In Berlin (2017) {Essential Jazz Classics EJC55719}


CD2

01 Announcement
02 Give Me The Simple Life
03 Take The “A” Train
04 A Slow Boat To China
05 Medley: Why Was I Born? / Can’t Help Lovin’ Dat Man / People Will Say We’re In Love
06 Announcement
07 You’re Driving Me Crazy
08 Rock It For Me
09 Witchcraft
10 Anything Goes
11 Cheek To Cheek
12 Misty
13 Caravan
14 Mr. Paganini
15 Mack The Knife
16 Fanfare For Ella
17 ‘Round Midnight
18 Joe Williams’ Blues
19 Fanfare For Ella #2
20 This Can’t Be Love
21 Closing Announcements
22 You’re Driving Me Crazy [Ich Fühle Mich Crazy]
23 Mr. Paganini

Ella Fitzgerald - The Complete 1960-1961 Ella In Berlin (2017) {Essential Jazz Classics EJC55719}


Exact Audio Copy V1.3 from 2. September 2016

EAC extraction logfile from 16. February 2019, 12:08

Ella Fitzgerald / The Complete 1960-1961 Ella in Berlin

Used drive : HL-DT-STDVD-ROM GDR8161B Adapter: 1 ID: 0

Read mode : Secure
Utilize accurate stream : Yes
Defeat audio cache : Yes
Make use of C2 pointers : No

Read offset correction : 102
Overread into Lead-In and Lead-Out : No
Fill up missing offset samples with silence : Yes
Delete leading and trailing silent blocks : No
Null samples used in CRC calculations : Yes
Used interface : Native Win32 interface for Win NT & 2000
Gap handling : Appended to previous track

Used output format : User Defined Encoder
Selected bitrate : 768 kBit/s
Quality : High
Add ID3 tag : No
Command line compressor : C:\Program Files (x86)\Exact Audio Copy\FLAC\FLAC.EXE
Additional command line options : -8 -V -T "ARTIST=%artist%" -T "TITLE=%title%" -T "ALBUM=%albumtitle%" -T "DATE=%year%" -T "TRACKNUMBER=%tracknr%" -T "TOTALTRACKS=%numtracks%" -T "GENRE=%genre%" -T "ALBUMARTIST=%albumartist%" -T "ALBUM ARTIST=%albumartist%" -T "COMMENT=EAC Secure Mode, Test & Copy, AccurateRip, FLAC -8" %source%


TOC of the extracted CD

Track | Start | Length | Start sector | End sector
––––––––––––––––––––––––––––-
1 | 0:00.00 | 4:10.00 | 0 | 18749
2 | 4:10.00 | 3:11.00 | 18750 | 33074
3 | 7:21.00 | 2:26.10 | 33075 | 44034
4 | 9:47.10 | 2:47.65 | 44035 | 56624
5 | 12:35.00 | 3:17.10 | 56625 | 71409
6 | 15:52.10 | 3:38.09 | 71410 | 87768
7 | 19:30.19 | 3:00.19 | 87769 | 101287
8 | 22:30.38 | 3:30.28 | 101288 | 117065
9 | 26:00.66 | 3:27.47 | 117066 | 132637
10 | 29:28.38 | 5:01.37 | 132638 | 155249
11 | 34:30.00 | 8:10.09 | 155250 | 192008
12 | 42:40.09 | 1:59.10 | 192009 | 200943
13 | 44:39.19 | 3:17.56 | 200944 | 215774
14 | 47:57.00 | 3:31.42 | 215775 | 231641
15 | 51:28.42 | 2:37.42 | 231642 | 243458
16 | 54:06.09 | 3:03.00 | 243459 | 257183
17 | 57:09.09 | 3:17.47 | 257184 | 272005
18 | 60:26.56 | 3:37.38 | 272006 | 288318
19 | 64:04.19 | 2:59.00 | 288319 | 301743
20 | 67:03.19 | 3:54.51 | 301744 | 319344


Track 1

Filename D:\download\Ella Fitzgerald - The Complete 1960-1961 Ella in Berlin\CD1\01 - That Old Black Magic.wav

Pre-gap length 0:00:02.00

Peak level 76.9 %
Extraction speed 4.3 X
Track quality 99.9 %
Test CRC 1B8FB893
Copy CRC 1B8FB893
Accurately ripped (confidence 4) [D0FEB6AA] (AR v2)
Copy OK

Track 2

Filename D:\download\Ella Fitzgerald - The Complete 1960-1961 Ella in Berlin\CD1\02 - Our Love Is Here to Stay.wav

Peak level 84.9 %
Extraction speed 5.1 X
Track quality 100.0 %
Test CRC F7F6DB6C
Copy CRC F7F6DB6C
Accurately ripped (confidence 4) [BA6A6E1F] (AR v2)
Copy OK

Track 3

Filename D:\download\Ella Fitzgerald - The Complete 1960-1961 Ella in Berlin\CD1\03 - Gone with the Wind.wav

Peak level 78.8 %
Extraction speed 5.1 X
Track quality 100.0 %
Test CRC 362322F4
Copy CRC 362322F4
Accurately ripped (confidence 4) [0B0FD872] (AR v2)
Copy OK

Track 4

Filename D:\download\Ella Fitzgerald - The Complete 1960-1961 Ella in Berlin\CD1\04 - Misty.wav

Peak level 56.8 %
Extraction speed 5.5 X
Track quality 100.0 %
Test CRC AAB703A6
Copy CRC AAB703A6
Accurately ripped (confidence 4) [9CF11FDD] (AR v2)
Copy OK

Track 5

Filename D:\download\Ella Fitzgerald - The Complete 1960-1961 Ella in Berlin\CD1\05 - The Lady Is a Tramp.wav

Peak level 75.7 %
Extraction speed 5.9 X
Track quality 100.0 %
Test CRC 0EBA295C
Copy CRC 0EBA295C
Accurately ripped (confidence 4) [2D63D7DA] (AR v2)
Copy OK

Track 6

Filename D:\download\Ella Fitzgerald - The Complete 1960-1961 Ella in Berlin\CD1\06 - The Man I Love.wav

Peak level 72.4 %
Extraction speed 5.4 X
Track quality 99.9 %
Test CRC 690036FC
Copy CRC 690036FC
Accurately ripped (confidence 4) [350D1A6F] (AR v2)
Copy OK

Track 7

Filename D:\download\Ella Fitzgerald - The Complete 1960-1961 Ella in Berlin\CD1\07 - Summertime.wav

Peak level 66.5 %
Extraction speed 5.3 X
Track quality 99.9 %
Test CRC 6B6C35BC
Copy CRC 6B6C35BC
Accurately ripped (confidence 4) [4B18A1FB] (AR v2)
Copy OK

Track 8

Filename D:\download\Ella Fitzgerald - The Complete 1960-1961 Ella in Berlin\CD1\08 - Too Darn Hot.wav

Peak level 83.5 %
Extraction speed 6.8 X
Track quality 100.0 %
Test CRC 79CC7ECB
Copy CRC 79CC7ECB
Accurately ripped (confidence 4) [3E0077A9] (AR v2)
Copy OK

Track 9

Filename D:\download\Ella Fitzgerald - The Complete 1960-1961 Ella in Berlin\CD1\09 - Lorelei.wav

Peak level 67.4 %
Extraction speed 7.0 X
Track quality 100.0 %
Test CRC 8539717E
Copy CRC 8539717E
Accurately ripped (confidence 4) [EBA10776] (AR v2)
Copy OK

Track 10

Filename D:\download\Ella Fitzgerald - The Complete 1960-1961 Ella in Berlin\CD1\10 - Mack the Knife.wav

Peak level 88.9 %
Extraction speed 7.7 X
Track quality 100.0 %
Test CRC 26DDA092
Copy CRC 26DDA092
Accurately ripped (confidence 4) [1A4D9522] (AR v2)
Copy OK

Track 11

Filename D:\download\Ella Fitzgerald - The Complete 1960-1961 Ella in Berlin\CD1\11 - How High the Moon.wav

Peak level 97.5 %
Extraction speed 8.4 X
Track quality 100.0 %
Test CRC 2AFBEED8
Copy CRC 2AFBEED8
Accurately ripped (confidence 4) [4F44300F] (AR v2)
Copy OK

Track 12

Filename D:\download\Ella Fitzgerald - The Complete 1960-1961 Ella in Berlin\CD1\12 - Lover Come Back to Me.wav

Peak level 72.9 %
Extraction speed 7.2 X
Track quality 100.0 %
Test CRC 7CF21DC3
Copy CRC 7CF21DC3
Accurately ripped (confidence 4) [64846BC3] (AR v2)
Copy OK

Track 13

Filename D:\download\Ella Fitzgerald - The Complete 1960-1961 Ella in Berlin\CD1\13 - Angel Eyes.wav

Peak level 87.9 %
Extraction speed 8.1 X
Track quality 100.0 %
Test CRC F83827F5
Copy CRC F83827F5
Accurately ripped (confidence 4) [0865CEB5] (AR v2)
Copy OK

Track 14

Filename D:\download\Ella Fitzgerald - The Complete 1960-1961 Ella in Berlin\CD1\14 - I'm Beginning to See the Light.wav

Peak level 96.4 %
Extraction speed 8.4 X
Track quality 100.0 %
Test CRC 9849B2E0
Copy CRC 9849B2E0
Accurately ripped (confidence 4) [70600ABB] (AR v2)
Copy OK

Track 15

Filename D:\download\Ella Fitzgerald - The Complete 1960-1961 Ella in Berlin\CD1\15 - My Heart Belong to Daddy.wav

Peak level 100.0 %
Extraction speed 8.2 X
Track quality 100.0 %
Test CRC 6B9BFE18
Copy CRC 6B9BFE18
Accurately ripped (confidence 4) [F596781F] (AR v2)
Copy OK

Track 16

Filename D:\download\Ella Fitzgerald - The Complete 1960-1961 Ella in Berlin\CD1\16 - Just One of Those Things.wav

Peak level 100.0 %
Extraction speed 8.5 X
Track quality 100.0 %
Test CRC F110CA73
Copy CRC F110CA73
Accurately ripped (confidence 3) [59B51A0B] (AR v2)
Copy OK

Track 17

Filename D:\download\Ella Fitzgerald - The Complete 1960-1961 Ella in Berlin\CD1\17 - I Can't Give You Anything But Love.wav

Peak level 100.0 %
Extraction speed 8.8 X
Track quality 100.0 %
Test CRC 79794457
Copy CRC 79794457
Accurately ripped (confidence 4) [97651B24] (AR v2)
Copy OK

Track 18

Filename D:\download\Ella Fitzgerald - The Complete 1960-1961 Ella in Berlin\CD1\18 - Sophisticated Lady.wav

Peak level 99.9 %
Extraction speed 9.0 X
Track quality 100.0 %
Test CRC 1C94FFEB
Copy CRC 1C94FFEB
Accurately ripped (confidence 4) [523760B1] (AR v2)
Copy OK

Track 19

Filename D:\download\Ella Fitzgerald - The Complete 1960-1961 Ella in Berlin\CD1\19 - Love for Sale.wav

Peak level 81.6 %
Extraction speed 9.0 X
Track quality 100.0 %
Test CRC 0E408835
Copy CRC 0E408835
Accurately ripped (confidence 4) [2B7CC021] (AR v2)
Copy OK

Track 20

Filename D:\download\Ella Fitzgerald - The Complete 1960-1961 Ella in Berlin\CD1\20 - Just One of Those Things.wav

Peak level 96.5 %
Extraction speed 9.3 X
Track quality 100.0 %
Test CRC 9595BDE9
Copy CRC 9595BDE9
Accurately ripped (confidence 4) [049340DF] (AR v2)
Copy OK


All tracks accurately ripped

No errors occurred

End of status report

–– CUETools DB Plugin V2.1.6

[CTDB TOCID: F30CMDnjE.zxCl2wb7LnwP1kg8U-] found
Submit result: F30CMDnjE.zxCl2wb7LnwP1kg8U- has been confirmed
Track | CTDB Status
1 | (21/21) Accurately ripped
2 | (21/21) Accurately ripped
3 | (21/21) Accurately ripped
4 | (21/21) Accurately ripped
5 | (21/21) Accurately ripped
6 | (21/21) Accurately ripped
7 | (21/21) Accurately ripped
8 | (21/21) Accurately ripped
9 | (21/21) Accurately ripped
10 | (21/21) Accurately ripped
11 | (21/21) Accurately ripped
12 | (21/21) Accurately ripped
13 | (21/21) Accurately ripped
14 | (21/21) Accurately ripped
15 | (21/21) Accurately ripped
16 | (21/21) Accurately ripped
17 | (21/21) Accurately ripped
18 | (21/21) Accurately ripped
19 | (21/21) Accurately ripped
20 | (21/21) Accurately ripped


==== Log checksum 14E13D0CDE1E5CE47C9A7582FBA32A8B9DEE3796682DC4EADF2E57CA16667165 ====
Exact Audio Copy V1.3 from 2. September 2016

EAC extraction logfile from 16. February 2019, 12:39

Ella Fitzgerald / The Complete 1960-1961 Ella in Berlin

Used drive : HL-DT-STDVD-ROM GDR8161B Adapter: 1 ID: 0

Read mode : Secure
Utilize accurate stream : Yes
Defeat audio cache : Yes
Make use of C2 pointers : No

Read offset correction : 102
Overread into Lead-In and Lead-Out : No
Fill up missing offset samples with silence : Yes
Delete leading and trailing silent blocks : No
Null samples used in CRC calculations : Yes
Used interface : Native Win32 interface for Win NT & 2000
Gap handling : Appended to previous track

Used output format : User Defined Encoder
Selected bitrate : 768 kBit/s
Quality : High
Add ID3 tag : No
Command line compressor : C:\Program Files (x86)\Exact Audio Copy\FLAC\FLAC.EXE
Additional command line options : -8 -V -T "ARTIST=%artist%" -T "TITLE=%title%" -T "ALBUM=%albumtitle%" -T "DATE=%year%" -T "TRACKNUMBER=%tracknr%" -T "TOTALTRACKS=%numtracks%" -T "GENRE=%genre%" -T "ALBUMARTIST=%albumartist%" -T "ALBUM ARTIST=%albumartist%" -T "COMMENT=EAC Secure Mode, Test & Copy, AccurateRip, FLAC -8" %source%


TOC of the extracted CD

Track | Start | Length | Start sector | End sector
––––––––––––––––––––––––––––-
1 | 0:00.00 | 1:20.25 | 0 | 6024
2 | 1:20.25 | 2:02.33 | 6025 | 15207
3 | 3:22.58 | 3:46.42 | 15208 | 32199
4 | 7:09.25 | 2:20.68 | 32200 | 42767
5 | 9:30.18 | 5:36.72 | 42768 | 68039
6 | 15:07.15 | 0:11.05 | 68040 | 68869
7 | 15:18.20 | 3:24.05 | 68870 | 84174
8 | 18:42.25 | 3:20.45 | 84175 | 99219
9 | 22:02.70 | 2:55.25 | 99220 | 112369
10 | 24:58.20 | 2:33.48 | 112370 | 123892
11 | 27:31.68 | 3:46.20 | 123893 | 140862
12 | 31:18.13 | 2:57.07 | 140863 | 154144
13 | 34:15.20 | 2:01.73 | 154145 | 163292
14 | 36:17.18 | 4:44.37 | 163293 | 184629
15 | 41:01.55 | 3:29.50 | 184630 | 200354
16 | 44:31.30 | 0:22.15 | 200355 | 202019
17 | 44:53.45 | 3:30.73 | 202020 | 217842
18 | 48:24.43 | 5:27.20 | 217843 | 242387
19 | 53:51.63 | 0:53.22 | 242388 | 246384
20 | 54:45.10 | 4:29.50 | 246385 | 266609
21 | 59:14.60 | 0:56.18 | 266610 | 270827
22 | 60:11.03 | 3:09.51 | 270828 | 285053
23 | 63:20.54 | 3:46.51 | 285054 | 302054


Track 1

Filename D:\download\Ella Fitzgerald - The Complete 1960-1961 Ella in Berlin\CD2\01 - Announcement.wav

Pre-gap length 0:00:02.00

Peak level 47.8 %
Extraction speed 2.3 X
Track quality 99.8 %
Test CRC 8C3AF798
Copy CRC 8C3AF798
Accurately ripped (confidence 4) [376FB475] (AR v2)
Copy OK

Track 2

Filename D:\download\Ella Fitzgerald - The Complete 1960-1961 Ella in Berlin\CD2\02 - Give Me The Simple Life.wav

Peak level 100.0 %
Extraction speed 3.5 X
Track quality 100.0 %
Test CRC 317A8F02
Copy CRC 317A8F02
Accurately ripped (confidence 4) [510905DE] (AR v2)
Copy OK

Track 3

Filename D:\download\Ella Fitzgerald - The Complete 1960-1961 Ella in Berlin\CD2\03 - Take The 'A' Train.wav

Peak level 88.4 %
Extraction speed 4.2 X
Track quality 100.0 %
Test CRC 5D56984B
Copy CRC 5D56984B
Accurately ripped (confidence 4) [503E3EBF] (AR v2)
Copy OK

Track 4

Filename D:\download\Ella Fitzgerald - The Complete 1960-1961 Ella in Berlin\CD2\04 - A Slow Boat To China.wav

Peak level 79.4 %
Extraction speed 4.1 X
Track quality 100.0 %
Test CRC 8D8EF52C
Copy CRC 8D8EF52C
Accurately ripped (confidence 4) [64111E05] (AR v2)
Copy OK

Track 5

Filename D:\download\Ella Fitzgerald - The Complete 1960-1961 Ella in Berlin\CD2\05 - Why Was I Born - Can't Help Lovin' That Man - People Will Say We're In Love.wav

Peak level 89.1 %
Extraction speed 4.6 X
Track quality 99.9 %
Test CRC 83ABD5B2
Copy CRC 83ABD5B2
Accurately ripped (confidence 4) [185C58BB] (AR v2)
Copy OK

Track 6

Filename D:\download\Ella Fitzgerald - The Complete 1960-1961 Ella in Berlin\CD2\06 - Announcement.wav

Peak level 83.0 %
Extraction speed 1.3 X
Track quality 100.0 %
Test CRC C3FD646B
Copy CRC C3FD646B
Accurately ripped (confidence 4) [7D8BB970] (AR v2)
Copy OK

Track 7

Filename D:\download\Ella Fitzgerald - The Complete 1960-1961 Ella in Berlin\CD2\07 - You're Driving Me Crazy.wav

Peak level 100.0 %
Extraction speed 5.1 X
Track quality 100.0 %
Test CRC 3D6B11E4
Copy CRC 3D6B11E4
Accurately ripped (confidence 4) [FBE1D328] (AR v2)
Copy OK

Track 8

Filename D:\download\Ella Fitzgerald - The Complete 1960-1961 Ella in Berlin\CD2\08 - Rock It For Me.wav

Peak level 100.0 %
Extraction speed 5.3 X
Track quality 100.0 %
Test CRC A3D3E028
Copy CRC A3D3E028
Accurately ripped (confidence 4) [C71EBB98] (AR v2)
Copy OK

Track 9

Filename D:\download\Ella Fitzgerald - The Complete 1960-1961 Ella in Berlin\CD2\09 - Witchcraft.wav

Peak level 95.5 %
Extraction speed 5.3 X
Track quality 100.0 %
Test CRC BBF0A70A
Copy CRC BBF0A70A
Accurately ripped (confidence 4) [8F6230F6] (AR v2)
Copy OK

Track 10

Filename D:\download\Ella Fitzgerald - The Complete 1960-1961 Ella in Berlin\CD2\10 - Anything Goes.wav

Peak level 100.0 %
Extraction speed 5.4 X
Track quality 100.0 %
Test CRC F051180A
Copy CRC F051180A
Accurately ripped (confidence 4) [F534F9F2] (AR v2)
Copy OK

Track 11

Filename D:\download\Ella Fitzgerald - The Complete 1960-1961 Ella in Berlin\CD2\11 - Cheek To Cheek.wav

Peak level 100.0 %
Extraction speed 6.0 X
Track quality 100.0 %
Test CRC 2F94FD28
Copy CRC 2F94FD28
Accurately ripped (confidence 4) [65B515F1] (AR v2)
Copy OK

Track 12

Filename D:\download\Ella Fitzgerald - The Complete 1960-1961 Ella in Berlin\CD2\12 - Misty.wav

Peak level 93.3 %
Extraction speed 5.9 X
Track quality 100.0 %
Test CRC 7F7A41DC
Copy CRC 7F7A41DC
Accurately ripped (confidence 4) [D428A517] (AR v2)
Copy OK

Track 13

Filename D:\download\Ella Fitzgerald - The Complete 1960-1961 Ella in Berlin\CD2\13 - Caravan.wav

Peak level 100.0 %
Extraction speed 5.6 X
Track quality 100.0 %
Test CRC 3304803C
Copy CRC 3304803C
Accurately ripped (confidence 4) [6CCFEF37] (AR v2)
Copy OK

Track 14

Filename D:\download\Ella Fitzgerald - The Complete 1960-1961 Ella in Berlin\CD2\14 - Mr. Paganini.wav

Peak level 99.1 %
Extraction speed 6.0 X
Track quality 99.9 %
Test CRC 81606B37
Copy CRC 81606B37
Accurately ripped (confidence 4) [45498AC7] (AR v2)
Copy OK

Track 15

Filename D:\download\Ella Fitzgerald - The Complete 1960-1961 Ella in Berlin\CD2\15 - Mack The Knife.wav

Peak level 100.0 %
Extraction speed 6.6 X
Track quality 100.0 %
Test CRC 1C073C4E
Copy CRC 1C073C4E
Accurately ripped (confidence 4) [DE8DCEC3] (AR v2)
Copy OK

Track 16

Filename D:\download\Ella Fitzgerald - The Complete 1960-1961 Ella in Berlin\CD2\16 - Fanfare For Ella.wav

Peak level 100.0 %
Extraction speed 1.8 X
Track quality 99.5 %
Test CRC BF9EF6E8
Copy CRC BF9EF6E8
Accurately ripped (confidence 4) [A71AA920] (AR v2)
Copy OK

Track 17

Filename D:\download\Ella Fitzgerald - The Complete 1960-1961 Ella in Berlin\CD2\17 - 'Round Midnight.wav

Peak level 72.2 %
Extraction speed 6.8 X
Track quality 100.0 %
Test CRC 0D6E742C
Copy CRC 0D6E742C
Accurately ripped (confidence 4) [1C9E8C77] (AR v2)
Copy OK

Track 18

Filename D:\download\Ella Fitzgerald - The Complete 1960-1961 Ella in Berlin\CD2\18 - Joe Williams' Blues.wav

Peak level 100.0 %
Extraction speed 7.4 X
Track quality 100.0 %
Test CRC D552E81D
Copy CRC D552E81D
Accurately ripped (confidence 4) [3E5DD717] (AR v2)
Copy OK

Track 19

Filename D:\download\Ella Fitzgerald - The Complete 1960-1961 Ella in Berlin\CD2\19 - Fanfare For Ella #2.wav

Peak level 100.0 %
Extraction speed 5.0 X
Track quality 100.0 %
Test CRC 5E522A41
Copy CRC 5E522A41
Accurately ripped (confidence 4) [F31DDA5B] (AR v2)
Copy OK

Track 20

Filename D:\download\Ella Fitzgerald - The Complete 1960-1961 Ella in Berlin\CD2\20 - This Can't Be Love.wav

Peak level 100.0 %
Extraction speed 7.5 X
Track quality 100.0 %
Test CRC 2D0F1B6F
Copy CRC 2D0F1B6F
Accurately ripped (confidence 4) [2174995D] (AR v2)
Copy OK

Track 21

Filename D:\download\Ella Fitzgerald - The Complete 1960-1961 Ella in Berlin\CD2\21 - Closing Announcements.wav

Peak level 94.0 %
Extraction speed 5.2 X
Track quality 100.0 %
Test CRC 97ED72CF
Copy CRC 97ED72CF
Accurately ripped (confidence 4) [E703E512] (AR v2)
Copy OK

Track 22

Filename D:\download\Ella Fitzgerald - The Complete 1960-1961 Ella in Berlin\CD2\22 - You're Driving Me Crazy (Ich Fuhle Mich Crazy).wav

Pre-gap length 0:00:02.00

Peak level 93.5 %
Extraction speed 7.0 X
Track quality 100.0 %
Test CRC 57ED3EFA
Copy CRC 57ED3EFA
Accurately ripped (confidence 4) [76574285] (AR v2)
Copy OK

Track 23

Filename D:\download\Ella Fitzgerald - The Complete 1960-1961 Ella in Berlin\CD2\23 - If You Can't Sing It You'll Have To Swing It (Mr. Paganini).wav

Pre-gap length 0:00:02.00

Peak level 90.8 %
Extraction speed 7.4 X
Track quality 100.0 %
Test CRC 13D64694
Copy CRC 13D64694
Accurately ripped (confidence 4) [A35AF000] (AR v2)
Copy OK


All tracks accurately ripped

No errors occurred

End of status report

–– CUETools DB Plugin V2.1.6

[CTDB TOCID: ahjgB_lIJZFt69ZcaNJCdNss7zo-] found
Submit result: ahjgB_lIJZFt69ZcaNJCdNss7zo- has been confirmed
Track | CTDB Status
1 | (7/7) Accurately ripped
2 | (7/7) Accurately ripped
3 | (7/7) Accurately ripped
4 | (7/7) Accurately ripped
5 | (7/7) Accurately ripped
6 | (7/7) Accurately ripped
7 | (7/7) Accurately ripped
8 | (7/7) Accurately ripped
9 | (7/7) Accurately ripped
10 | (7/7) Accurately ripped
11 | (7/7) Accurately ripped
12 | (7/7) Accurately ripped
13 | (7/7) Accurately ripped
14 | (7/7) Accurately ripped
15 | (7/7) Accurately ripped
16 | (7/7) Accurately ripped
17 | (7/7) Accurately ripped
18 | (7/7) Accurately ripped
19 | (7/7) Accurately ripped
20 | (7/7) Accurately ripped
21 | (7/7) Accurately ripped
22 | (7/7) Accurately ripped
23 | (7/7) Accurately ripped


==== Log checksum E0D546BD03F9B37A7744F596766D169258DAC825C5323491A57B0055FB88B425 ====


Ella Fitzgerald - The Complete 1960-1961 Ella In Berlin (2017) {Essential Jazz Classics EJC55719}


see more Ella Fitzgerald…


===