Subcategories

Ella Fitzgerald - Ella Fitzgerald Sings the George and Ira Gershwin Song Book (1959) {4CD Box Set Verve 539 759-2 rel 1998}

Posted By: ruskaval
Ella Fitzgerald - Ella Fitzgerald Sings the George and Ira Gershwin Song Book (1959) {4CD Box Set Verve 539 759-2 rel 1998}

Ella Fitzgerald - Ella Fitzgerald Sings the George and Ira Gershwin Song Book (1959) {4CD Box Set Verve 539 759-2 rel 1998}
EAC rip (secure mode) | FLAC (tracks)+CUE+LOG -> 1.40 Gb | MP3 @320 -> 604 Mb
Full Artwork @ 600 dpi (jpg) -> 325 Mb | 5% repair rar
© 1959, 1998 Verve / PolyGram | 539 759-2 | Verve Master Edition | 20bit remaster
Jazz / Vocal Jazz / Standards

During the late '50s, Ella Fitzgerald continued her Song Book records with Sings the George and Ira Gershwin Song Book, releasing a series of albums featuring 59 songs written by George and Ira Gershwin. Those songs, plus alternate takes, were combined on a four-disc box set, Sings the George and Ira Gershwin Song Book, in 1998. These performances are easily among Fitzgerald's very best, and for any serious fan, this is the ideal place to acquire the recordings, since the sound and presentation are equally classy and impressive.
Ella Fitzgerald - Ella Fitzgerald Sings the George and Ira Gershwin Song Book (1959) {4CD Box Set Verve 539 759-2 rel 1998}

George and Ira Gershwin are probably the songwriters who have contributed the most standards to the American repertory, and Fitzgerald covers pretty much all of them in this mammoth enterprise. (The 53 songs were recorded in 1959 and originally came out in a five- LP box set.) Considering the scope of this collection, naming titles would be futile: rest assured that your favorite Gershwin tune is likely to be included. The singer's well-known versatility and musicality are in evidence, but what's especially amazing is the complete symbiosis between her and arranger/conductor Nelson Riddle. Fresh off injecting a shot of swing into Sinatra's career, Riddle enhances Fitzgerald's vocals rather than overwhelming her, and Fitzgerald, in turn, is stimulated by the musicians percolating behind her. Pure genius.
Ella Fitzgerald - Ella Fitzgerald Sings the George and Ira Gershwin Song Book (1959) {4CD Box Set Verve 539 759-2 rel 1998}

Ella Fitzgerald singing the Gershwin Songbook has to be in the top two recorded piceces of popular music of all time ("Judy at Carnegie" is the only other contender for number one). There is no other artist who captures the essence of the Gershwins as Ella in this set. The orchestration is full and rich ,but does not distract from Ella's voice. The scores are kept authentic… Ella does not try to "sell" or "personalize" the songs like Sinatra did with Cole Porter's music. Yes, there are some Gershwin tunes here that the masses may not have heard, but that doesn't make them less valuable than the "Lady Be Good"'s and the "They Can't Take that Away from Me"'s. The art of music is in interpretation and Ella interprets Gershwin like no other. Where else have you heard Gershwin so completely and purely interpreted? I challenge anyone to find a similar recording, period. ***** is not high enough.
Ella Fitzgerald - Ella Fitzgerald Sings the George and Ira Gershwin Song Book (1959) {4CD Box Set Verve 539 759-2 rel 1998}


tracklist:
Disc One:

01.Ambulatory Suite (Instrumental) (George Gershwin)
- "Promenade (Walking the Dog)" – 2:31,
- "March of the Swiss Soldiers" – 2:04,
- "Fidgety Feet" – 2:46
02.The Preludes (Instrumental) (G. Gershwin)
- Prelude I – 1:36,
- Prelude II – 3:48,
- Prelude III – 1:13,
03."Sam and Delilah" – 3:15
04."But Not for Me" – 3:31
05."My One and Only" – 2:36
06."Let's Call the Whole Thing Off" – 4:26
07."(I've Got) Beginner's Luck" – 3:08
08."Oh, Lady be Good!" – 3:58
09."Nice Work If You Can Get It" – 3:32
10."Things Are Looking Up" – 3:03
11."Just Another Rhumba" – 5:34
12."How Long Has This Been Going On?" – 3:45
13."'S Wonderful" – 3:28
14."The Man I Love" – 3:50
15."That Certain Feeling" – 3:07
16."By Strauss" – 2:29
17."Someone to Watch Over Me" – 4:30
18."The Real American Folk Song (Is a Rag)" – 3:43

Ella Fitzgerald - Ella Fitzgerald Sings the George and Ira Gershwin Song Book (1959) {4CD Box Set Verve 539 759-2 rel 1998}


Disc Two:
01."Who Cares?" – 3:05
02."Looking For a Boy" – 3:02
03."They All Laughed" – 3:02
04."My Cousin in Milwaukee" – 3:07
05."Somebody from Somewhere" – 3:06
06."A Foggy Day" – 3:50
07."Clap Yo' Hands" – 2:28
08."For You, For Me, For Evermore" – 3:23
09."Stiff Upper Lip" – 2:50
10."Boy Wanted" – 3:33
11."Strike Up the Band" – 2:33
12."Soon" – 2:20
13."I've Got a Crush on You" – 3:26
14."Bidin' My Time" – 2:40
15."Aren't You Kind Of Glad We Did?" – 3:28
16."Of Thee I Sing" – 3:07
17."'The Half of it, Dearie' Blues" – 3:45
18."I Was Doing All Right" – 3:25
19."He Loves and She Loves" – 2:46
20."Love is Sweeping the Country" – 3:24
21."Treat Me Rough" – 2:54

Ella Fitzgerald - Ella Fitzgerald Sings the George and Ira Gershwin Song Book (1959) {4CD Box Set Verve 539 759-2 rel 1998}


Disc Three:
01."Our Love is Here to Stay" – 3:52
02."Slap That Bass" – 3:23
03."Isn't It a Pity?" – 3:23
04."Shall We Dance?" – 3:08
05."Love Walked In" – 3:52
06."You've Got What Gets Me" – 2:13
07."They Can't Take That Away from Me" – 3:07
08."Embraceable You" – 4:49
09."I Can't Be Bothered Now" – 2:48
10."Boy! What Love Has Done To Me!" – 3:46
11."Fascinating Rhythm" – 3:22
12."Funny Face" – 3:23
13."Lorelei" – 3:21
14."Oh, So Nice!" – 3:40
15."Let's Kiss and Make Up" – 3:49
16."I Got Rhythm" – 3:07

Ella Fitzgerald - Ella Fitzgerald Sings the George and Ira Gershwin Song Book (1959) {4CD Box Set Verve 539 759-2 rel 1998}


Disc Four:
01."Somebody Loves Me" (G. Gershwin, Buddy DeSylva, Ballard MacDonald) – 2:36
02."Cheerful Little Earful" (Harry Warren, Ira Gershwin, Billy Rose) – 2:06

Alternative Takes and Remixes:
03."But Not for Me" – 2:05 (45 rpm Take)
04."Lorelei" (Alternative Take) – 3:00
05."Our Love is Here to Stay" (Partial Alternative Take) – 3:51
06."Oh, Lady be Good!" (Alternative Take) – 4:04
07."Oh, Lady be Good!" (Alternative Take) – 3:56
08."Oh, Lady be Good!" (Alternative Take) – 4:12
09."But Not for Me" – 2:05 (Mono Mix)
10."Fascinating Rhythm" – 3:21 (Mono Mix)
11."They All Laughed" – 3:02 (Mono Mix)
12."The Man I Love" – 3:50 (Mono Mix)
13."Nice Work If You Can Get It" – 3:32 (Mono Mix)
14."Clap Yo' Hands" – 2:29 (Mono Mix)
15."Let's Call the Whole Thing Off" – 4:26 (Mono Mix)
16."I Was Doing All Right" – 3:25 (Mono Mix)
17."He Loves and She Loves" – 2:46 (Mono Mix)
18."(I've Got) Beginner's Luck" – 3:07 (Mono Mix)

Ella Fitzgerald - Ella Fitzgerald Sings the George and Ira Gershwin Song Book (1959) {4CD Box Set Verve 539 759-2 rel 1998}


All Tracks composed by George Gershwin and all lyrics written by Ira Gershwin, unless otherwise indicated.

Disc One, Two and Three original LP issue: Ella Fitzgerald Sings the George & Ira Gershwin Songbook Verve MGVS 6082-5
Disc One, tracks 1 and 2 original 7'-EP (Verve VS 100) issued with the above
Disc Four, tracks 1 and 2 originally issued on the 1959 Ella Fitzgerald album Get Happy! (Verve V6-4036).
Disc Four, track 3 original 7'- single issue: Verve 10180
Disc Four, tracks 4, 5, and 9-18: Ella Fitzgerald Sings the George & Ira Gershwin Songbook Vol.1 Verve MGVS 6102
Disc Four, tracks 6 and 7 previously unissued.
Disc Four, track 8: The Complete Ella Fitzgerald Songbooks Verve 519 832-2


Exact Audio Copy V1.0 beta 1 from 15. November 2010

EAC extraction logfile from 22. January 2011, 11:04

Ella Fitzgerald / Ella Fitzgerald Sings the George and Ira Gershwin Songbook [CD 1]

Used drive : HL-DT-STDVD-ROM GDR8164B Adapter: 0 ID: 1

Read mode : Secure
Utilize accurate stream : Yes
Defeat audio cache : Yes
Make use of C2 pointers : No

Read offset correction : 102
Overread into Lead-In and Lead-Out : No
Fill up missing offset samples with silence : Yes
Delete leading and trailing silent blocks : No
Null samples used in CRC calculations : Yes
Used interface : Native Win32 interface for Win NT & 2000
Gap handling : Appended to previous track

Used output format : User Defined Encoder
Selected bitrate : 768 kBit/s
Quality : High
Add ID3 tag : No
Command line compressor : C:\Archivos de programa\Exact Audio Copy\FLAC\FLAC.EXE
Additional command line options : -8 -V -T "ARTIST=%a" -T "TITLE=%t" -T "ALBUM=%g" -T "DATE=%y" -T "TRACKNUMBER=%n" -T "TOTALTRACKS=%x" -T "GENRE=%m" -T "ALBUMARTIST=%v" -T "ALBUM ARTIST=%v" -T "COMMENT=EAC Secure Mode, Test & Copy, AccurateRip, FLAC -8" %s


TOC of the extracted CD

Track | Start | Length | Start sector | End sector
––––––––––––––––––––––––––––-
1 | 0:00.00 | 7:21.30 | 0 | 33104
2 | 7:21.30 | 6:37.42 | 33105 | 62921
3 | 13:58.72 | 3:17.63 | 62922 | 77759
4 | 17:16.60 | 3:34.57 | 77760 | 93866
5 | 20:51.42 | 2:38.23 | 93867 | 105739
6 | 23:29.65 | 4:28.70 | 105740 | 125909
7 | 27:58.60 | 3:11.37 | 125910 | 140271
8 | 31:10.22 | 4:01.40 | 140272 | 158386
9 | 35:11.62 | 3:34.63 | 158387 | 174499
10 | 38:46.50 | 3:05.30 | 174500 | 188404
11 | 41:52.05 | 5:36.45 | 188405 | 213649
12 | 47:28.50 | 3:48.45 | 213650 | 230794
13 | 51:17.20 | 3:31.72 | 230795 | 246691
14 | 54:49.17 | 3:52.60 | 246692 | 264151
15 | 58:42.02 | 3:04.13 | 264152 | 277964
16 | 61:46.15 | 2:32.32 | 277965 | 289396
17 | 64:18.47 | 4:33.25 | 289397 | 309896
18 | 68:51.72 | 3:43.03 | 309897 | 326624


Track 1

Filename E:\FTP\Ella Fitzgerald - Ella Fitzgerald Sings the George and Ira Gershwin Songbook (1959) [FLAC]\Disc 1of4\01 - Ambulatory Suite.wav

Pre-gap length 0:00:02.00

Peak level 77.6 %
Extraction speed 5.6 X
Track quality 100.0 %
Test CRC 98E27449
Copy CRC 98E27449
Cannot be verified as accurate (confidence 17) [A6D5620F], AccurateRip returned [7BE9EA00]
Copy OK

Track 2

Filename E:\FTP\Ella Fitzgerald - Ella Fitzgerald Sings the George and Ira Gershwin Songbook (1959) [FLAC]\Disc 1of4\02 - The Preludes.wav

Pre-gap length 0:00:04.53

Peak level 77.6 %
Extraction speed 6.4 X
Track quality 100.0 %
Test CRC 85086902
Copy CRC 85086902
Cannot be verified as accurate (confidence 16) [94F3669A], AccurateRip returned [9CA02D9D]
Copy OK

Track 3

Filename E:\FTP\Ella Fitzgerald - Ella Fitzgerald Sings the George and Ira Gershwin Songbook (1959) [FLAC]\Disc 1of4\03 - Sam And Delilah.wav

Pre-gap length 0:00:03.20

Peak level 70.1 %
Extraction speed 6.3 X
Track quality 100.0 %
Test CRC AE878DBF
Copy CRC AE878DBF
Cannot be verified as accurate (confidence 16) [9EAB542B], AccurateRip returned [7FE6ECE3]
Copy OK

Track 4

Filename E:\FTP\Ella Fitzgerald - Ella Fitzgerald Sings the George and Ira Gershwin Songbook (1959) [FLAC]\Disc 1of4\04 - But Not For Me.wav

Pre-gap length 0:00:03.00

Peak level 47.9 %
Extraction speed 6.7 X
Track quality 100.0 %
Test CRC C297B62C
Copy CRC C297B62C
Cannot be verified as accurate (confidence 16) [55D6A9FF], AccurateRip returned [59E38F6F]
Copy OK

Track 5

Filename E:\FTP\Ella Fitzgerald - Ella Fitzgerald Sings the George and Ira Gershwin Songbook (1959) [FLAC]\Disc 1of4\05 - My One And Only.wav

Pre-gap length 0:00:03.25

Peak level 64.8 %
Extraction speed 6.6 X
Track quality 100.0 %
Test CRC 1DC9FAD0
Copy CRC 1DC9FAD0
Cannot be verified as accurate (confidence 16) [1AE9C04B], AccurateRip returned [DA72AE43]
Copy OK

Track 6

Filename E:\FTP\Ella Fitzgerald - Ella Fitzgerald Sings the George and Ira Gershwin Songbook (1959) [FLAC]\Disc 1of4\06 - Let's Call The Whole Thing Off.wav

Pre-gap length 0:00:02.33

Peak level 71.9 %
Extraction speed 7.5 X
Track quality 100.0 %
Test CRC 140EA434
Copy CRC 140EA434
Cannot be verified as accurate (confidence 16) [E1A8CABF], AccurateRip returned [5716A45F]
Copy OK

Track 7

Filename E:\FTP\Ella Fitzgerald - Ella Fitzgerald Sings the George and Ira Gershwin Songbook (1959) [FLAC]\Disc 1of4\07 - (I've Got) Beginner's Luck.wav

Pre-gap length 0:00:02.30

Peak level 76.5 %
Extraction speed 7.4 X
Track quality 100.0 %
Test CRC AE2C0FC1
Copy CRC AE2C0FC1
Cannot be verified as accurate (confidence 16) [AA8C74BF], AccurateRip returned [3CF52A67]
Copy OK

Track 8

Filename E:\FTP\Ella Fitzgerald - Ella Fitzgerald Sings the George and Ira Gershwin Songbook (1959) [FLAC]\Disc 1of4\08 - Oh, Lady, Be Good!.wav

Pre-gap length 0:00:03.40

Peak level 50.8 %
Extraction speed 8.0 X
Track quality 100.0 %
Test CRC 21441E69
Copy CRC 21441E69
Cannot be verified as accurate (confidence 16) [DB904D41], AccurateRip returned [39951599]
Copy OK

Track 9

Filename E:\FTP\Ella Fitzgerald - Ella Fitzgerald Sings the George and Ira Gershwin Songbook (1959) [FLAC]\Disc 1of4\09 - Nice Work If You Can Get It.wav

Pre-gap length 0:00:02.57

Peak level 70.4 %
Extraction speed 7.1 X
Track quality 99.9 %
Test CRC A91FF4A6
Copy CRC A91FF4A6
Cannot be verified as accurate (confidence 16) [BD3D7314], AccurateRip returned [7ABB6F84]
Copy OK

Track 10

Filename E:\FTP\Ella Fitzgerald - Ella Fitzgerald Sings the George and Ira Gershwin Songbook (1959) [FLAC]\Disc 1of4\10 - Things Are Looking Up.wav

Pre-gap length 0:00:02.53

Peak level 64.7 %
Extraction speed 8.1 X
Track quality 100.0 %
Test CRC F9B37C4A
Copy CRC F9B37C4A
Cannot be verified as accurate (confidence 17) [A9854C9C], AccurateRip returned [C4065A84]
Copy OK

Track 11

Filename E:\FTP\Ella Fitzgerald - Ella Fitzgerald Sings the George and Ira Gershwin Songbook (1959) [FLAC]\Disc 1of4\11 - Just Another Rhumba.wav

Pre-gap length 0:00:02.33

Peak level 73.8 %
Extraction speed 9.1 X
Track quality 100.0 %
Test CRC 78BC4D99
Copy CRC 78BC4D99
Cannot be verified as accurate (confidence 16) [62AE4A7B], AccurateRip returned [8FF13E9B]
Copy OK

Track 12

Filename E:\FTP\Ella Fitzgerald - Ella Fitzgerald Sings the George and Ira Gershwin Songbook (1959) [FLAC]\Disc 1of4\12 - How Long Has This Been Going On.wav

Pre-gap length 0:00:02.03

Peak level 45.1 %
Extraction speed 9.0 X
Track quality 100.0 %
Test CRC 485BBB19
Copy CRC 485BBB19
Cannot be verified as accurate (confidence 16) [724C953E], AccurateRip returned [0BDD8F26]
Copy OK

Track 13

Filename E:\FTP\Ella Fitzgerald - Ella Fitzgerald Sings the George and Ira Gershwin Songbook (1959) [FLAC]\Disc 1of4\13 - 's Wonderful.wav

Pre-gap length 0:00:03.30

Peak level 46.1 %
Extraction speed 9.1 X
Track quality 100.0 %
Test CRC D24BB99C
Copy CRC D24BB99C
Cannot be verified as accurate (confidence 16) [7E2E003A], AccurateRip returned [8EFD9B2A]
Copy OK

Track 14

Filename E:\FTP\Ella Fitzgerald - Ella Fitzgerald Sings the George and Ira Gershwin Songbook (1959) [FLAC]\Disc 1of4\14 - The Man I Love.wav

Pre-gap length 0:00:03.32

Peak level 64.6 %
Extraction speed 9.3 X
Track quality 100.0 %
Test CRC 73D8D5A9
Copy CRC 73D8D5A9
Cannot be verified as accurate (confidence 17) [AB239917], AccurateRip returned [929AA2BF]
Copy OK

Track 15

Filename E:\FTP\Ella Fitzgerald - Ella Fitzgerald Sings the George and Ira Gershwin Songbook (1959) [FLAC]\Disc 1of4\15 - That Certain Feeling.wav

Pre-gap length 0:00:02.37

Peak level 62.1 %
Extraction speed 9.3 X
Track quality 100.0 %
Test CRC 16EF957D
Copy CRC 16EF957D
Cannot be verified as accurate (confidence 17) [8EDFF70D], AccurateRip returned [3648E19D]
Copy OK

Track 16

Filename E:\FTP\Ella Fitzgerald - Ella Fitzgerald Sings the George and Ira Gershwin Songbook (1959) [FLAC]\Disc 1of4\16 - By Strauss.wav

Pre-gap length 0:00:02.28

Peak level 58.8 %
Extraction speed 7.6 X
Track quality 99.9 %
Test CRC 4FC73055
Copy CRC 4FC73055
Cannot be verified as accurate (confidence 17) [4AB96C30], AccurateRip returned [6F09D700]
Copy OK

Track 17

Filename E:\FTP\Ella Fitzgerald - Ella Fitzgerald Sings the George and Ira Gershwin Songbook (1959) [FLAC]\Disc 1of4\17 - Someone To Watch Over Me.wav

Pre-gap length 0:00:02.60

Peak level 47.7 %
Extraction speed 10.2 X
Track quality 100.0 %
Test CRC 12DB2DBA
Copy CRC 12DB2DBA
Cannot be verified as accurate (confidence 17) [CA9DDA5F], AccurateRip returned [CC45A2EF]
Copy OK

Track 18

Filename E:\FTP\Ella Fitzgerald - Ella Fitzgerald Sings the George and Ira Gershwin Songbook (1959) [FLAC]\Disc 1of4\18 - The Real American Folk Song (Is A Rag).wav

Pre-gap length 0:00:02.65

Peak level 66.1 %
Extraction speed 10.2 X
Track quality 100.0 %
Test CRC 510F3ADC
Copy CRC 510F3ADC
Cannot be verified as accurate (confidence 17) [C1FB5D46], AccurateRip returned [C9CB6CC6]
Copy OK


No tracks could be verified as accurate
You may have a different pressing from the one(s) in the database

No errors occurred

End of status report

==== Log checksum B5273A5D130F64C33848A92CE7D44B6C37C988CFAE65A12B120F6C6BD5FFBE9C ====

Exact Audio Copy V1.0 beta 1 from 15. November 2010

EAC extraction logfile from 22. January 2011, 11:29

Ella Fitzgerald / Ella Fitzgerald Sings the George and Ira Gershwin Songbook [CD 2]

Used drive : HL-DT-STDVD-ROM GDR8164B Adapter: 0 ID: 1

Read mode : Secure
Utilize accurate stream : Yes
Defeat audio cache : Yes
Make use of C2 pointers : No

Read offset correction : 102
Overread into Lead-In and Lead-Out : No
Fill up missing offset samples with silence : Yes
Delete leading and trailing silent blocks : No
Null samples used in CRC calculations : Yes
Used interface : Native Win32 interface for Win NT & 2000
Gap handling : Appended to previous track

Used output format : User Defined Encoder
Selected bitrate : 768 kBit/s
Quality : High
Add ID3 tag : No
Command line compressor : C:\Archivos de programa\Exact Audio Copy\FLAC\FLAC.EXE
Additional command line options : -8 -V -T "ARTIST=%a" -T "TITLE=%t" -T "ALBUM=%g" -T "DATE=%y" -T "TRACKNUMBER=%n" -T "TOTALTRACKS=%x" -T "GENRE=%m" -T "ALBUMARTIST=%v" -T "ALBUM ARTIST=%v" -T "COMMENT=EAC Secure Mode, Test & Copy, AccurateRip, FLAC -8" %s


TOC of the extracted CD

Track | Start | Length | Start sector | End sector
––––––––––––––––––––––––––––-
1 | 0:00.00 | 3:09.17 | 0 | 14191
2 | 3:09.17 | 3:08.08 | 14192 | 28299
3 | 6:17.25 | 3:05.05 | 28300 | 42179
4 | 9:22.30 | 3:10.12 | 42180 | 56441
5 | 12:32.42 | 3:09.30 | 56442 | 70646
6 | 15:41.72 | 3:33.53 | 70647 | 86674
7 | 19:15.50 | 2:31.37 | 86675 | 98036
8 | 21:47.12 | 3:26.40 | 98037 | 113526
9 | 25:13.52 | 2:53.23 | 113527 | 126524
10 | 28:07.00 | 3:36.07 | 126525 | 142731
11 | 31:43.07 | 2:35.53 | 142732 | 154409
12 | 34:18.60 | 2:22.52 | 154410 | 165111
13 | 36:41.37 | 3:29.53 | 165112 | 180839
14 | 40:11.15 | 2:42.35 | 180840 | 193024
15 | 42:53.50 | 3:31.02 | 193025 | 208851
16 | 46:24.52 | 3:10.20 | 208852 | 223121
17 | 49:34.72 | 3:48.70 | 223122 | 240291
18 | 53:23.67 | 3:29.13 | 240292 | 255979
19 | 56:53.05 | 2:49.25 | 255980 | 268679
20 | 59:42.30 | 3:27.00 | 268680 | 284204
21 | 63:09.30 | 2:53.70 | 284205 | 297249


Track 1

Filename E:\FTP\Ella Fitzgerald - Ella Fitzgerald Sings the George and Ira Gershwin Songbook (1959) [FLAC]\Disc 2of4\01 - Who Cares.wav

Pre-gap length 0:00:02.00

Peak level 99.9 %
Extraction speed 5.5 X
Track quality 100.0 %
Test CRC D6AF0489
Copy CRC D6AF0489
Accurately ripped (confidence 6) [E55AD483]
Copy OK

Track 2

Filename E:\FTP\Ella Fitzgerald - Ella Fitzgerald Sings the George and Ira Gershwin Songbook (1959) [FLAC]\Disc 2of4\02 - Looking for a Boy.wav

Pre-gap length 0:00:04.20

Peak level 84.8 %
Extraction speed 6.0 X
Track quality 100.0 %
Test CRC 65C79EA3
Copy CRC 65C79EA3
Accurately ripped (confidence 6) [A8D5BEB9]
Copy OK

Track 3

Filename E:\FTP\Ella Fitzgerald - Ella Fitzgerald Sings the George and Ira Gershwin Songbook (1959) [FLAC]\Disc 2of4\03 - They All Laughed.wav

Pre-gap length 0:00:05.63

Peak level 94.9 %
Extraction speed 6.3 X
Track quality 100.0 %
Test CRC A08CCEC9
Copy CRC A08CCEC9
Accurately ripped (confidence 6) [12404CF2]
Copy OK

Track 4

Filename E:\FTP\Ella Fitzgerald - Ella Fitzgerald Sings the George and Ira Gershwin Songbook (1959) [FLAC]\Disc 2of4\04 - My Cousin in Milwaukee.wav

Pre-gap length 0:00:02.40

Peak level 95.0 %
Extraction speed 5.7 X
Track quality 99.9 %
Test CRC 5A4F2701
Copy CRC 5A4F2701
Accurately ripped (confidence 6) [518C43F5]
Copy OK

Track 5

Filename E:\FTP\Ella Fitzgerald - Ella Fitzgerald Sings the George and Ira Gershwin Songbook (1959) [FLAC]\Disc 2of4\05 - Somebody From Somewhere.wav

Pre-gap length 0:00:02.57

Peak level 60.8 %
Extraction speed 6.0 X
Track quality 99.9 %
Test CRC F6CD35BE
Copy CRC F6CD35BE
Accurately ripped (confidence 6) [B11A96D5]
Copy OK

Track 6

Filename E:\FTP\Ella Fitzgerald - Ella Fitzgerald Sings the George and Ira Gershwin Songbook (1959) [FLAC]\Disc 2of4\06 - A Foggy Day.wav

Pre-gap length 0:00:03.10

Peak level 88.1 %
Extraction speed 7.7 X
Track quality 100.0 %
Test CRC 497AAB53
Copy CRC 497AAB53
Accurately ripped (confidence 6) [1A1CD317]
Copy OK

Track 7

Filename E:\FTP\Ella Fitzgerald - Ella Fitzgerald Sings the George and Ira Gershwin Songbook (1959) [FLAC]\Disc 2of4\07 - Clap Yo' Hands.wav

Pre-gap length 0:00:03.25

Peak level 86.4 %
Extraction speed 7.5 X
Track quality 100.0 %
Test CRC 3E7CA88F
Copy CRC 3E7CA88F
Accurately ripped (confidence 6) [89462EA0]
Copy OK

Track 8

Filename E:\FTP\Ella Fitzgerald - Ella Fitzgerald Sings the George and Ira Gershwin Songbook (1959) [FLAC]\Disc 2of4\08 - For You, for Me, for Evermore.wav

Pre-gap length 0:00:02.65

Peak level 87.1 %
Extraction speed 7.2 X
Track quality 99.9 %
Test CRC A3FCD7A3
Copy CRC A3FCD7A3
Accurately ripped (confidence 6) [7377F5F1]
Copy OK

Track 9

Filename E:\FTP\Ella Fitzgerald - Ella Fitzgerald Sings the George and Ira Gershwin Songbook (1959) [FLAC]\Disc 2of4\09 - Stiff Upper Lip.wav

Pre-gap length 0:00:03.02

Peak level 80.6 %
Extraction speed 6.0 X
Track quality 99.8 %
Test CRC 3E97FA43
Copy CRC 3E97FA43
Accurately ripped (confidence 6) [BC9EA90C]
Copy OK

Track 10

Filename E:\FTP\Ella Fitzgerald - Ella Fitzgerald Sings the George and Ira Gershwin Songbook (1959) [FLAC]\Disc 2of4\10 - Boy Wanted.wav

Pre-gap length 0:00:03.40

Peak level 82.7 %
Extraction speed 8.7 X
Track quality 100.0 %
Test CRC A8AC04E9
Copy CRC A8AC04E9
Accurately ripped (confidence 6) [E3D0B266]
Copy OK

Track 11

Filename E:\FTP\Ella Fitzgerald - Ella Fitzgerald Sings the George and Ira Gershwin Songbook (1959) [FLAC]\Disc 2of4\11 - Strike Up the Band.wav

Pre-gap length 0:00:03.25

Peak level 78.2 %
Extraction speed 6.5 X
Track quality 99.9 %
Test CRC 37B16038
Copy CRC 37B16038
Accurately ripped (confidence 6) [A6BCBBC8]
Copy OK

Track 12

Filename E:\FTP\Ella Fitzgerald - Ella Fitzgerald Sings the George and Ira Gershwin Songbook (1959) [FLAC]\Disc 2of4\12 - Soon.wav

Pre-gap length 0:00:02.40

Peak level 100.0 %
Extraction speed 8.4 X
Track quality 100.0 %
Test CRC 352566B5
Copy CRC 352566B5
Accurately ripped (confidence 6) [F4A293D6]
Copy OK

Track 13

Filename E:\FTP\Ella Fitzgerald - Ella Fitzgerald Sings the George and Ira Gershwin Songbook (1959) [FLAC]\Disc 2of4\13 - I've Got a Crush on You.wav

Pre-gap length 0:00:02.50

Peak level 54.4 %
Extraction speed 7.7 X
Track quality 99.9 %
Test CRC 42E3A1A2
Copy CRC 42E3A1A2
Accurately ripped (confidence 6) [D9F5B5B2]
Copy OK

Track 14

Filename E:\FTP\Ella Fitzgerald - Ella Fitzgerald Sings the George and Ira Gershwin Songbook (1959) [FLAC]\Disc 2of4\14 - Bidin' My Time.wav

Pre-gap length 0:00:03.10

Peak level 87.5 %
Extraction speed 7.9 X
Track quality 100.0 %
Test CRC 6067C11D
Copy CRC 6067C11D
Accurately ripped (confidence 6) [882E5AF3]
Copy OK

Track 15

Filename E:\FTP\Ella Fitzgerald - Ella Fitzgerald Sings the George and Ira Gershwin Songbook (1959) [FLAC]\Disc 2of4\15 - Aren't You Kind of Glad We Did.wav

Pre-gap length 0:00:02.38

Peak level 64.3 %
Extraction speed 9.4 X
Track quality 100.0 %
Test CRC B09392FA
Copy CRC B09392FA
Accurately ripped (confidence 6) [39B5E888]
Copy OK

Track 16

Filename E:\FTP\Ella Fitzgerald - Ella Fitzgerald Sings the George and Ira Gershwin Songbook (1959) [FLAC]\Disc 2of4\16 - Of Thee I Sing.wav

Pre-gap length 0:00:03.12

Peak level 81.2 %
Extraction speed 7.7 X
Track quality 99.9 %
Test CRC D445D3B6
Copy CRC D445D3B6
Accurately ripped (confidence 6) [4D9D2D1C]
Copy OK

Track 17

Filename E:\FTP\Ella Fitzgerald - Ella Fitzgerald Sings the George and Ira Gershwin Songbook (1959) [FLAC]\Disc 2of4\17 - ''The Half Of It, Dearie'' Blues.wav

Pre-gap length 0:00:03.10

Peak level 60.8 %
Extraction speed 8.4 X
Track quality 99.9 %
Test CRC 635CDBBF
Copy CRC 635CDBBF
Accurately ripped (confidence 6) [E8368C82]
Copy OK

Track 18

Filename E:\FTP\Ella Fitzgerald - Ella Fitzgerald Sings the George and Ira Gershwin Songbook (1959) [FLAC]\Disc 2of4\18 - I Was Doing All Right.wav

Pre-gap length 0:00:03.65

Peak level 84.5 %
Extraction speed 7.9 X
Track quality 100.0 %
Test CRC 2C1E38BD
Copy CRC 2C1E38BD
Accurately ripped (confidence 6) [2B5D52AB]
Copy OK

Track 19

Filename E:\FTP\Ella Fitzgerald - Ella Fitzgerald Sings the George and Ira Gershwin Songbook (1959) [FLAC]\Disc 2of4\19 - He Loves and She Loves.wav

Pre-gap length 0:00:03.43

Peak level 70.0 %
Extraction speed 6.5 X
Track quality 99.9 %
Test CRC 279B8365
Copy CRC 279B8365
Accurately ripped (confidence 6) [723EEFEA]
Copy OK

Track 20

Filename E:\FTP\Ella Fitzgerald - Ella Fitzgerald Sings the George and Ira Gershwin Songbook (1959) [FLAC]\Disc 2of4\20 - Love is Sweeping the Country.wav

Pre-gap length 0:00:03.30

Peak level 74.2 %
Extraction speed 8.2 X
Track quality 100.0 %
Test CRC 97232274
Copy CRC 97232274
Accurately ripped (confidence 6) [62D919C8]
Copy OK

Track 21

Filename E:\FTP\Ella Fitzgerald - Ella Fitzgerald Sings the George and Ira Gershwin Songbook (1959) [FLAC]\Disc 2of4\21 - Treat Me Rough.wav

Pre-gap length 0:00:02.35

Peak level 94.5 %
Extraction speed 8.1 X
Track quality 100.0 %
Test CRC 24C0CE38
Copy CRC 24C0CE38
Accurately ripped (confidence 6) [75107EF6]
Copy OK


All tracks accurately ripped

No errors occurred

End of status report

==== Log checksum 93E30E869EEAAEB6FE421F7DC70CCB30DC996A25016AA195B56A542A26826F85 ====

Exact Audio Copy V1.0 beta 1 from 15. November 2010

EAC extraction logfile from 22. January 2011, 11:51

Ella Fitzgerald / Ella Fitzgerald Sings the George and Ira Gershwin Songbook [CD 3]

Used drive : HL-DT-STDVD-ROM GDR8164B Adapter: 0 ID: 1

Read mode : Secure
Utilize accurate stream : Yes
Defeat audio cache : Yes
Make use of C2 pointers : No

Read offset correction : 102
Overread into Lead-In and Lead-Out : No
Fill up missing offset samples with silence : Yes
Delete leading and trailing silent blocks : No
Null samples used in CRC calculations : Yes
Used interface : Native Win32 interface for Win NT & 2000
Gap handling : Appended to previous track

Used output format : User Defined Encoder
Selected bitrate : 768 kBit/s
Quality : High
Add ID3 tag : No
Command line compressor : C:\Archivos de programa\Exact Audio Copy\FLAC\FLAC.EXE
Additional command line options : -8 -V -T "ARTIST=%a" -T "TITLE=%t" -T "ALBUM=%g" -T "DATE=%y" -T "TRACKNUMBER=%n" -T "TOTALTRACKS=%x" -T "GENRE=%m" -T "ALBUMARTIST=%v" -T "ALBUM ARTIST=%v" -T "COMMENT=EAC Secure Mode, Test & Copy, AccurateRip, FLAC -8" %s


TOC of the extracted CD

Track | Start | Length | Start sector | End sector
––––––––––––––––––––––––––––-
1 | 0:00.00 | 3:56.12 | 0 | 17711
2 | 3:56.12 | 3:26.73 | 17712 | 33234
3 | 7:23.10 | 3:26.55 | 33235 | 48739
4 | 10:49.65 | 3:11.22 | 48740 | 63086
5 | 14:01.12 | 3:54.38 | 63087 | 80674
6 | 17:55.50 | 2:17.15 | 80675 | 90964
7 | 20:12.65 | 3:11.70 | 90965 | 105359
8 | 23:24.60 | 4:52.40 | 105360 | 127299
9 | 28:17.25 | 2:51.50 | 127300 | 140174
10 | 31:09.00 | 3:49.45 | 140175 | 157394
11 | 34:58.45 | 3:24.60 | 157395 | 172754
12 | 38:23.30 | 3:25.10 | 172755 | 188139
13 | 41:48.40 | 3:24.05 | 188140 | 203444
14 | 45:12.45 | 3:42.10 | 203445 | 220104
15 | 48:54.55 | 3:52.25 | 220105 | 237529
16 | 52:47.05 | 3:07.12 | 237530 | 251566


Track 1

Filename E:\FTP\Ella Fitzgerald - Ella Fitzgerald Sings the George and Ira Gershwin Songbook (1959) [FLAC]\Disc 3of4\01 - Love is Here to Stay.wav

Pre-gap length 0:00:02.00

Peak level 78.1 %
Extraction speed 5.9 X
Track quality 100.0 %
Test CRC 7C538558
Copy CRC 7C538558
Accurately ripped (confidence 6) [A699CB36]
Copy OK

Track 2

Filename E:\FTP\Ella Fitzgerald - Ella Fitzgerald Sings the George and Ira Gershwin Songbook (1959) [FLAC]\Disc 3of4\02 - Slap That Bass.wav

Pre-gap length 0:00:03.55

Peak level 79.5 %
Extraction speed 6.3 X
Track quality 100.0 %
Test CRC 7079F8BF
Copy CRC 7079F8BF
Accurately ripped (confidence 6) [312B785C]
Copy OK

Track 3

Filename E:\FTP\Ella Fitzgerald - Ella Fitzgerald Sings the George and Ira Gershwin Songbook (1959) [FLAC]\Disc 3of4\03 - Isn't It a Pity.wav

Pre-gap length 0:00:03.63

Peak level 56.4 %
Extraction speed 6.8 X
Track quality 100.0 %
Test CRC EFA391FC
Copy CRC EFA391FC
Accurately ripped (confidence 6) [899D5E9A]
Copy OK

Track 4

Filename E:\FTP\Ella Fitzgerald - Ella Fitzgerald Sings the George and Ira Gershwin Songbook (1959) [FLAC]\Disc 3of4\04 - Shall We Dance.wav

Pre-gap length 0:00:03.10

Peak level 82.3 %
Extraction speed 7.0 X
Track quality 100.0 %
Test CRC 13BBB94E
Copy CRC 13BBB94E
Accurately ripped (confidence 6) [C87B8256]
Copy OK

Track 5

Filename E:\FTP\Ella Fitzgerald - Ella Fitzgerald Sings the George and Ira Gershwin Songbook (1959) [FLAC]\Disc 3of4\05 - Love Walked In.wav

Pre-gap length 0:00:03.22

Peak level 71.4 %
Extraction speed 7.8 X
Track quality 100.0 %
Test CRC D0AA53BF
Copy CRC D0AA53BF
Accurately ripped (confidence 6) [D7D8EB25]
Copy OK

Track 6

Filename E:\FTP\Ella Fitzgerald - Ella Fitzgerald Sings the George and Ira Gershwin Songbook (1959) [FLAC]\Disc 3of4\06 - You've Got What Gets Me.wav

Pre-gap length 0:00:02.00

Peak level 99.9 %
Extraction speed 7.4 X
Track quality 100.0 %
Test CRC D093DF97
Copy CRC D093DF97
Accurately ripped (confidence 6) [C5D3FE69]
Copy OK

Track 7

Filename E:\FTP\Ella Fitzgerald - Ella Fitzgerald Sings the George and Ira Gershwin Songbook (1959) [FLAC]\Disc 3of4\07 - They Can't Take That Away from Me.wav

Pre-gap length 0:00:04.05

Peak level 98.1 %
Extraction speed 7.1 X
Track quality 99.9 %
Test CRC 1DEC0DCD
Copy CRC 1DEC0DCD
Accurately ripped (confidence 6) [67900A0D]
Copy OK

Track 8

Filename E:\FTP\Ella Fitzgerald - Ella Fitzgerald Sings the George and Ira Gershwin Songbook (1959) [FLAC]\Disc 3of4\08 - Embraceable You.wav

Pre-gap length 0:00:04.33

Peak level 72.3 %
Extraction speed 8.2 X
Track quality 99.9 %
Test CRC 0D91A9C7
Copy CRC 0D91A9C7
Accurately ripped (confidence 6) [B0A6CC05]
Copy OK

Track 9

Filename E:\FTP\Ella Fitzgerald - Ella Fitzgerald Sings the George and Ira Gershwin Songbook (1959) [FLAC]\Disc 3of4\09 - I Can't Be Bothered Now.wav

Pre-gap length 0:00:03.25

Peak level 87.5 %
Extraction speed 7.4 X
Track quality 99.9 %
Test CRC BA726A9D
Copy CRC BA726A9D
Accurately ripped (confidence 6) [E6A6B1DC]
Copy OK

Track 10

Filename E:\FTP\Ella Fitzgerald - Ella Fitzgerald Sings the George and Ira Gershwin Songbook (1959) [FLAC]\Disc 3of4\10 - Boy! What Love Has Done to Me.wav

Pre-gap length 0:00:02.73

Peak level 77.1 %
Extraction speed 9.6 X
Track quality 100.0 %
Test CRC BC04EDBE
Copy CRC BC04EDBE
Accurately ripped (confidence 6) [DB294C3E]
Copy OK

Track 11

Filename E:\FTP\Ella Fitzgerald - Ella Fitzgerald Sings the George and Ira Gershwin Songbook (1959) [FLAC]\Disc 3of4\11 - Fascinating Rhythm.wav

Pre-gap length 0:00:03.25

Peak level 86.7 %
Extraction speed 9.7 X
Track quality 100.0 %
Test CRC C097E431
Copy CRC C097E431
Accurately ripped (confidence 6) [F4C9124F]
Copy OK

Track 12

Filename E:\FTP\Ella Fitzgerald - Ella Fitzgerald Sings the George and Ira Gershwin Songbook (1959) [FLAC]\Disc 3of4\12 - Funny Face.wav

Pre-gap length 0:00:02.73

Peak level 86.8 %
Extraction speed 9.9 X
Track quality 100.0 %
Test CRC 7803643E
Copy CRC 7803643E
Accurately ripped (confidence 6) [AD5D78C6]
Copy OK

Track 13

Filename E:\FTP\Ella Fitzgerald - Ella Fitzgerald Sings the George and Ira Gershwin Songbook (1959) [FLAC]\Disc 3of4\13 - Lorelei.wav

Pre-gap length 0:00:02.25

Peak level 87.1 %
Extraction speed 10.2 X
Track quality 100.0 %
Test CRC CFF5392B
Copy CRC CFF5392B
Accurately ripped (confidence 6) [06362B12]
Copy OK

Track 14

Filename E:\FTP\Ella Fitzgerald - Ella Fitzgerald Sings the George and Ira Gershwin Songbook (1959) [FLAC]\Disc 3of4\14 - Oh, So Nice!.wav

Pre-gap length 0:00:02.70

Peak level 79.0 %
Extraction speed 9.3 X
Track quality 99.9 %
Test CRC 1DDEF6EB
Copy CRC 1DDEF6EB
Accurately ripped (confidence 6) [430C4452]
Copy OK

Track 15

Filename E:\FTP\Ella Fitzgerald - Ella Fitzgerald Sings the George and Ira Gershwin Songbook (1959) [FLAC]\Disc 3of4\15 - Let's Kiss and Make Up.wav

Pre-gap length 0:00:01.38

Peak level 74.3 %
Extraction speed 11.0 X
Track quality 100.0 %
Test CRC CFBA0455
Copy CRC CFBA0455
Accurately ripped (confidence 6) [BAE9E2C7]
Copy OK

Track 16

Filename E:\FTP\Ella Fitzgerald - Ella Fitzgerald Sings the George and Ira Gershwin Songbook (1959) [FLAC]\Disc 3of4\16 - I Got Rhythm.wav

Pre-gap length 0:00:02.60

Peak level 87.4 %
Extraction speed 10.9 X
Track quality 100.0 %
Test CRC A673C97E
Copy CRC A673C97E
Accurately ripped (confidence 6) [CD2FD8F2]
Copy OK


All tracks accurately ripped

No errors occurred

End of status report

==== Log checksum 7609985E9491B12FABB81F51C2780FAA2D9ED1C98D30A61EFA1C4E52D7CF2710 ====

Exact Audio Copy V1.0 beta 1 from 15. November 2010

EAC extraction logfile from 22. January 2011, 12:10

Ella Fitzgerald / Ella Fitzgerald Sings the George and Ira Gershwin Song Book [CD 4]

Used drive : HL-DT-STDVD-ROM GDR8164B Adapter: 0 ID: 1

Read mode : Secure
Utilize accurate stream : Yes
Defeat audio cache : Yes
Make use of C2 pointers : No

Read offset correction : 102
Overread into Lead-In and Lead-Out : No
Fill up missing offset samples with silence : Yes
Delete leading and trailing silent blocks : No
Null samples used in CRC calculations : Yes
Used interface : Native Win32 interface for Win NT & 2000
Gap handling : Appended to previous track

Used output format : User Defined Encoder
Selected bitrate : 768 kBit/s
Quality : High
Add ID3 tag : No
Command line compressor : C:\Archivos de programa\Exact Audio Copy\FLAC\FLAC.EXE
Additional command line options : -8 -V -T "ARTIST=%a" -T "TITLE=%t" -T "ALBUM=%g" -T "DATE=%y" -T "TRACKNUMBER=%n" -T "TOTALTRACKS=%x" -T "GENRE=%m" -T "ALBUMARTIST=%v" -T "ALBUM ARTIST=%v" -T "COMMENT=EAC Secure Mode, Test & Copy, AccurateRip, FLAC -8" %s


TOC of the extracted CD

Track | Start | Length | Start sector | End sector
––––––––––––––––––––––––––––-
1 | 0:00.00 | 2:39.00 | 0 | 11924
2 | 2:39.00 | 2:09.25 | 11925 | 21624
3 | 4:48.25 | 2:08.50 | 21625 | 31274
4 | 6:57.00 | 3:03.37 | 31275 | 45036
5 | 10:00.37 | 3:54.53 | 45037 | 62639
6 | 13:55.15 | 4:07.60 | 62640 | 81224
7 | 18:03.00 | 3:57.32 | 81225 | 99031
8 | 22:00.32 | 4:15.55 | 99032 | 118211
9 | 26:16.12 | 3:34.50 | 118212 | 134311
10 | 29:50.62 | 3:24.50 | 134312 | 149661
11 | 33:15.37 | 3:04.70 | 149662 | 163531
12 | 36:20.32 | 3:53.63 | 163532 | 181069
13 | 40:14.20 | 3:35.27 | 181070 | 197221
14 | 43:49.47 | 2:31.63 | 197222 | 208609
15 | 46:21.35 | 4:28.40 | 208610 | 228749
16 | 50:50.00 | 3:27.35 | 228750 | 244309
17 | 54:17.35 | 2:50.12 | 244310 | 257071
18 | 57:07.47 | 3:07.00 | 257072 | 271096


Track 1

Filename E:\FTP\Ella Fitzgerald - Ella Fitzgerald Sings the George and Ira Gershwin Songbook (1959) [FLAC]\Disc 4of4\01 - Somebody Loves Me.wav

Pre-gap length 0:00:02.00

Peak level 100.0 %
Extraction speed 5.4 X
Track quality 100.0 %
Test CRC 7EC0A7CA
Copy CRC 7EC0A7CA
Accurately ripped (confidence 6) [1CF6358D]
Copy OK

Track 2

Filename E:\FTP\Ella Fitzgerald - Ella Fitzgerald Sings the George and Ira Gershwin Songbook (1959) [FLAC]\Disc 4of4\02 - Cheerful Little Earful.wav

Pre-gap length 0:00:02.63

Peak level 100.0 %
Extraction speed 5.5 X
Track quality 100.0 %
Test CRC B2650BDA
Copy CRC B2650BDA
Accurately ripped (confidence 6) [2C5CCF64]
Copy OK

Track 3

Filename E:\FTP\Ella Fitzgerald - Ella Fitzgerald Sings the George and Ira Gershwin Songbook (1959) [FLAC]\Disc 4of4\03 - But Not For Me.wav

Pre-gap length 0:00:03.10

Peak level 56.7 %
Extraction speed 5.7 X
Track quality 100.0 %
Test CRC 8CAF8DB5
Copy CRC 8CAF8DB5
Accurately ripped (confidence 6) [FE95AAB5]
Copy OK

Track 4

Filename E:\FTP\Ella Fitzgerald - Ella Fitzgerald Sings the George and Ira Gershwin Songbook (1959) [FLAC]\Disc 4of4\04 - Lorelei.wav

Pre-gap length 0:00:03.43

Peak level 88.7 %
Extraction speed 6.5 X
Track quality 100.0 %
Test CRC 04D96903
Copy CRC 04D96903
Accurately ripped (confidence 6) [72C22697]
Copy OK

Track 5

Filename E:\FTP\Ella Fitzgerald - Ella Fitzgerald Sings the George and Ira Gershwin Songbook (1959) [FLAC]\Disc 4of4\05 - Love is Here to Stay.wav

Pre-gap length 0:00:02.67

Peak level 99.9 %
Extraction speed 7.3 X
Track quality 100.0 %
Test CRC 0281D215
Copy CRC 0281D215
Accurately ripped (confidence 6) [33D1C516]
Copy OK

Track 6

Filename E:\FTP\Ella Fitzgerald - Ella Fitzgerald Sings the George and Ira Gershwin Songbook (1959) [FLAC]\Disc 4of4\06 - Oh, Lady, Be Good!.wav

Pre-gap length 0:00:02.73

Peak level 72.5 %
Extraction speed 7.8 X
Track quality 100.0 %
Test CRC CA1F2FC2
Copy CRC CA1F2FC2
Accurately ripped (confidence 6) [5A167AA5]
Copy OK

Track 7

Filename E:\FTP\Ella Fitzgerald - Ella Fitzgerald Sings the George and Ira Gershwin Songbook (1959) [FLAC]\Disc 4of4\07 - Oh, Lady, Be Good!.wav

Pre-gap length 0:00:03.13

Peak level 81.2 %
Extraction speed 7.3 X
Track quality 99.9 %
Test CRC B4753AEC
Copy CRC B4753AEC
Accurately ripped (confidence 6) [892F2917]
Copy OK

Track 8

Filename E:\FTP\Ella Fitzgerald - Ella Fitzgerald Sings the George and Ira Gershwin Songbook (1959) [FLAC]\Disc 4of4\08 - Oh, Lady, Be Good!.wav

Pre-gap length 0:00:01.32

Peak level 78.8 %
Extraction speed 8.7 X
Track quality 100.0 %
Test CRC 69DC0743
Copy CRC 69DC0743
Accurately ripped (confidence 6) [4B23FBA4]
Copy OK

Track 9

Filename E:\FTP\Ella Fitzgerald - Ella Fitzgerald Sings the George and Ira Gershwin Songbook (1959) [FLAC]\Disc 4of4\09 - But Not For Me.wav

Pre-gap length 0:00:03.15

Peak level 64.1 %
Extraction speed 9.0 X
Track quality 100.0 %
Test CRC B142F3A9
Copy CRC B142F3A9
Accurately ripped (confidence 6) [C37BC82F]
Copy OK

Track 10

Filename E:\FTP\Ella Fitzgerald - Ella Fitzgerald Sings the George and Ira Gershwin Songbook (1959) [FLAC]\Disc 4of4\10 - Fascinating Rhythm.wav

Pre-gap length 0:00:02.15

Peak level 100.0 %
Extraction speed 9.1 X
Track quality 100.0 %
Test CRC E18E527E
Copy CRC E18E527E
Accurately ripped (confidence 6) [C0D28571]
Copy OK

Track 11

Filename E:\FTP\Ella Fitzgerald - Ella Fitzgerald Sings the George and Ira Gershwin Songbook (1959) [FLAC]\Disc 4of4\11 - They All Laughed.wav

Pre-gap length 0:00:03.20

Peak level 82.3 %
Extraction speed 7.9 X
Track quality 99.9 %
Test CRC 6B147AEC
Copy CRC 6B147AEC
Accurately ripped (confidence 6) [274A8667]
Copy OK

Track 12

Filename E:\FTP\Ella Fitzgerald - Ella Fitzgerald Sings the George and Ira Gershwin Songbook (1959) [FLAC]\Disc 4of4\12 - The Man I Love.wav

Pre-gap length 0:00:02.30

Peak level 79.0 %
Extraction speed 9.8 X
Track quality 100.0 %
Test CRC 5498DF6F
Copy CRC 5498DF6F
Accurately ripped (confidence 6) [4A7E853D]
Copy OK

Track 13

Filename E:\FTP\Ella Fitzgerald - Ella Fitzgerald Sings the George and Ira Gershwin Songbook (1959) [FLAC]\Disc 4of4\13 - Nice Work If You Can Get It.wav

Pre-gap length 0:00:03.48

Peak level 88.3 %
Extraction speed 10.1 X
Track quality 100.0 %
Test CRC 4AEE37AA
Copy CRC 4AEE37AA
Accurately ripped (confidence 6) [13D19DD0]
Copy OK

Track 14

Filename E:\FTP\Ella Fitzgerald - Ella Fitzgerald Sings the George and Ira Gershwin Songbook (1959) [FLAC]\Disc 4of4\14 - Clap Yo' Hands.wav

Pre-gap length 0:00:03.17

Peak level 100.0 %
Extraction speed 9.7 X
Track quality 100.0 %
Test CRC 88C264C1
Copy CRC 88C264C1
Accurately ripped (confidence 6) [93410AE9]
Copy OK

Track 15

Filename E:\FTP\Ella Fitzgerald - Ella Fitzgerald Sings the George and Ira Gershwin Songbook (1959) [FLAC]\Disc 4of4\15 - Let's Call The Whole Thing Off.wav

Pre-gap length 0:00:02.28

Peak level 93.1 %
Extraction speed 9.6 X
Track quality 99.9 %
Test CRC ACF983DF
Copy CRC ACF983DF
Accurately ripped (confidence 6) [F1AF7D25]
Copy OK

Track 16

Filename E:\FTP\Ella Fitzgerald - Ella Fitzgerald Sings the George and Ira Gershwin Songbook (1959) [FLAC]\Disc 4of4\16 - I Was Doing All Right.wav

Pre-gap length 0:00:02.38

Peak level 100.0 %
Extraction speed 10.7 X
Track quality 100.0 %
Test CRC 93C8DCDA
Copy CRC 93C8DCDA
Accurately ripped (confidence 6) [2CB5C912]
Copy OK

Track 17

Filename E:\FTP\Ella Fitzgerald - Ella Fitzgerald Sings the George and Ira Gershwin Songbook (1959) [FLAC]\Disc 4of4\17 - He Loves and She Loves.wav

Pre-gap length 0:00:02.03

Peak level 85.9 %
Extraction speed 10.6 X
Track quality 100.0 %
Test CRC 21CB961D
Copy CRC 21CB961D
Accurately ripped (confidence 6) [6A2CA8BB]
Copy OK

Track 18

Filename E:\FTP\Ella Fitzgerald - Ella Fitzgerald Sings the George and Ira Gershwin Songbook (1959) [FLAC]\Disc 4of4\18 - (I've Got) Beginner's Luck.wav

Pre-gap length 0:00:03.55

Peak level 73.2 %
Extraction speed 10.2 X
Track quality 100.0 %
Test CRC 3D85AE83
Copy CRC 3D85AE83
Accurately ripped (confidence 6) [59B25883]
Copy OK


All tracks accurately ripped

No errors occurred

End of status report

==== Log checksum C2765446DB209A651BC42B2B3997824BED811674853CD075A935C4CBC870313A ====


Ella Fitzgerald - Ella Fitzgerald Sings the George and Ira Gershwin Song Book (1959) {4CD Box Set Verve 539 759-2 rel 1998}



===