Subcategories

Emerson, Lake & Palmer - The Everlasting: Best Of ELP (6 CD) (2017)

Posted By: delpotro
Emerson, Lake & Palmer - The Everlasting: Best Of ELP (6 CD) (2017)

Emerson, Lake & Palmer - The Everlasting: Best Of ELP (6 CD) (2017)
XLD Rip | FLAC (tracks+log+.cue) | 06:09:33 | 2,41 Gb
Progressive Rock | Label: JVC Kenwood Victor Entertainment Corp.

Japanese original release. Greatest hits album set from Emerson, Lake & Palmer consists of six discs with 62 tracks, running over six hours. Includes instrumental mix versions of "Karn Evil 9: 1st Impression Part 1" and "Karn Evil 9: 1st Impression Part 2."
Tracklist:
Disc 1 (Vocal Side #1)
1. Knife Edge (5:09)
2. Lucky Man (4:42)
3. Jeremy Bender (1:50)
4. The Only Way (Hymn) (3:53)
5. A Time And A Place (3:02)
6. Are You Ready Eddy? (2:14)
7. From The Beginning (4:14)
8. The Sheriff (3:22)
9. Trilogy (8:51)
10. Living Sin (3:12)
11. Jerusalem (2:47)
12. Benny the Bouncer (2:22)
13. Lend Your Love to Me Tonight (4:05)
14. C'est La Vie (4:19)
15. Nobody Loves You Like I Do (4:00)
16. Pirates (13:20)

Disc 2 (Vocal Side #2)
1. Tiger in a Spotlight (4:36)
2. Brain Salad Surgery (3:09)
3. Watching Over You (3:58)
4. So Far to Fall (4:59)
5. I Believe in Father Christmas (3:21)
6. Show Me the Way to Go Home (3:33)
7. All I Want Is You (2:36)
8. Gambler, The (3:24)
9. Memoirs of an Officer and a Gentleman: Prologue/The Education of a Gentleman/Love at First Sight/Letters From the Front/Honorable Company (20:17)
10. Black Moon (7:00)
11. Footprints in the Snow (3:55)
12. Hand of Truth (5:25)
13. Gone Too Soon (4:12)

Disc 3 (Instrumental Side)
1. Barbarian, The (4:33)
2. Three Fates: Clotho/Lachesis/Atropos, The (7:50)
3. Infinite Space [Conclusion] (3:22)
4. Toccata (7:23)
5. Piano Concerto No.1 First Movement: Allegro Giojoso/Second Movement: Andante Molto Cantabile/Third Movement:Toccata Con Fuoco (18:29)
6. When the Apple Blossoms Bloom in the Windmills of Your Mind, I 'll Be Your Valentine (3:59)
7. Barrelhouse Shake-Down (3:51)
8. Maple Leaf Rag (2:03)
9. Honky Tonk Train Blues (3:13)
10. Canario (4:00)
11. Changing States (6:05)
12. Close to Home (4:31)
13. Blade of Grass, A (2:15)
14. Hammer It Out (2:34)

Disc 4 (Live Side #1)
1. Promenade (1:58)
2. Gnome, The (4:21)
3. Promenade (1:29)
4. Hut of Baba Yaga, The (1:13)
5. Curse of Baba Yaga, The (4:11)
6. Hut of Baba Yaga, The (1:07)
7. Great Gates of Kiev, The (6:40)
8. Hoedown (4:57)
9. Tarkus: Eruption/Stones of Years/Iconolast/Mass/Manticore/Battlefield (Including Epitaph)/Aquatarkus (27:33)
10. Take a Pebble (Including Still… You Turn Me on and Lucky Man) (11:07)

Disc 5 (Live Side #2)
1. Piano Improvisastions (11:56)
2. Karn Evil 9: 1st Impression/2nd Impression/3rd Impression (35:29)
3. Introductory Fanfare (0:53)
4. Peter Gunn (3:41)
5. Closer to Believing (5:34)
6. Touch and Go (3:26)
7. Medley: Fanfare for Common Man/Drum Solo/Rondo (10:09)
8. Nutrocker (4:26)

Disc 6 (Bonus)
1. Karn Evil 9: 1st Impression [Instrumental Mix] - (remix) (13:27)

X Lossless Decoder version 20170729 (150.3)

XLD extraction logfile from 2017-09-12 18:16:49 +0100

Emerson, Lake & Palmer / The Everlasting - Best Of ELP

Used drive : OPTIARC DVD RW AD-5690H (revision 4AH5)
Media type : Pressed CD

Ripper mode : XLD Secure Ripper
Disable audio cache : OK for the drive with a cache less than 1375KiB
Make use of C2 pointers : NO
Read offset correction : 48
Max retry count : 100
Gap status : Analyzed, Appended (except HTOA)

TOC of the extracted CD
Track | Start | Length | Start sector | End sector
––––––––––––––––––––––––––––-
1 | 00:00:00 | 05:09:22 | 0 | 23196
2 | 05:09:22 | 04:42:03 | 23197 | 44349
3 | 09:51:25 | 01:49:45 | 44350 | 52569
4 | 11:40:70 | 03:53:07 | 52570 | 70051
5 | 15:34:02 | 03:02:18 | 70052 | 83719
6 | 18:36:20 | 02:13:40 | 83720 | 93734
7 | 20:49:60 | 04:14:07 | 93735 | 112791
8 | 25:03:67 | 03:22:03 | 112792 | 127944
9 | 28:25:70 | 08:50:45 | 127945 | 167739
10 | 37:16:40 | 03:12:32 | 167740 | 182171
11 | 40:28:72 | 02:47:25 | 182172 | 194721
12 | 43:16:22 | 02:22:08 | 194722 | 205379
13 | 45:38:30 | 04:04:47 | 205380 | 223726
14 | 49:43:02 | 04:19:03 | 223727 | 243154
15 | 54:02:05 | 03:59:45 | 243155 | 261124
16 | 58:01:50 | 13:19:59 | 261125 | 321108

AccurateRip Summary
Disc not found in AccurateRip DB.

All Tracks
Album gain : -8.29 dB
Peak : 1.000000
Statistics
Read error : 0
Jitter error (maybe fixed) : 0
Retry sector count : 0
Damaged sector count : 0

Track 01
Filename : /Users/Mayowa/Desktop/Emerson, Lake & Palmer - The Everlasting - Best Of ELP (2017) [FLAC]/01 Knife Edge.flac
Pre-gap length : 00:02:00

Track gain : -7.58 dB
Peak : 1.000000
CRC32 hash (test run) : B10364DF
CRC32 hash : B10364DF
CRC32 hash (skip zero) : 53E6A217
AccurateRip v1 signature : 0E3320B3
AccurateRip v2 signature : E9EAE86F
->Track not present in AccurateRip database.
Statistics
Read error : 0
Jitter error (maybe fixed) : 0
Retry sector count : 0
Damaged sector count : 0

Track 02
Filename : /Users/Mayowa/Desktop/Emerson, Lake & Palmer - The Everlasting - Best Of ELP (2017) [FLAC]/02 Lucky Man.flac
Pre-gap length : 00:02:32

Track gain : -6.93 dB
Peak : 1.000000
CRC32 hash (test run) : F51E0248
CRC32 hash : F51E0248
CRC32 hash (skip zero) : 17DEC07D
AccurateRip v1 signature : D13079E1
AccurateRip v2 signature : 3738084F
->Track not present in AccurateRip database.
Statistics
Read error : 0
Jitter error (maybe fixed) : 0
Retry sector count : 0
Damaged sector count : 0

Track 03
Filename : /Users/Mayowa/Desktop/Emerson, Lake & Palmer - The Everlasting - Best Of ELP (2017) [FLAC]/03 Jeremy Bender.flac
Pre-gap length : 00:02:34

Track gain : -8.50 dB
Peak : 1.000000
CRC32 hash (test run) : 10093689
CRC32 hash : 10093689
CRC32 hash (skip zero) : 5AF3971A
AccurateRip v1 signature : 1C521F28
AccurateRip v2 signature : 25FF58C5
->Track not present in AccurateRip database.
Statistics
Read error : 0
Jitter error (maybe fixed) : 0
Retry sector count : 0
Damaged sector count : 0

Track 04
Filename : /Users/Mayowa/Desktop/Emerson, Lake & Palmer - The Everlasting - Best Of ELP (2017) [FLAC]/04 The Only Way (Hymn).flac
Pre-gap length : 00:02:33

Track gain : -5.60 dB
Peak : 0.994415
CRC32 hash (test run) : CABBB326
CRC32 hash : CABBB326
CRC32 hash (skip zero) : 4FF848A0
AccurateRip v1 signature : 321EBDD5
AccurateRip v2 signature : 13D31507
->Track not present in AccurateRip database.
Statistics
Read error : 0
Jitter error (maybe fixed) : 0
Retry sector count : 0
Damaged sector count : 0

Track 05
Filename : /Users/Mayowa/Desktop/Emerson, Lake & Palmer - The Everlasting - Best Of ELP (2017) [FLAC]/05 A Time And A Place.flac
Pre-gap length : 00:02:32

Track gain : -11.17 dB
Peak : 1.000000
CRC32 hash (test run) : 26035B05
CRC32 hash : 26035B05
CRC32 hash (skip zero) : D9056DCA
AccurateRip v1 signature : 92148E52
AccurateRip v2 signature : 957F13B5
->Track not present in AccurateRip database.
Statistics
Read error : 0
Jitter error (maybe fixed) : 0
Retry sector count : 0
Damaged sector count : 0

Track 06
Filename : /Users/Mayowa/Desktop/Emerson, Lake & Palmer - The Everlasting - Best Of ELP (2017) [FLAC]/06 Are You Ready Eddy?.flac
Pre-gap length : 00:02:34

Track gain : -8.78 dB
Peak : 1.000000
CRC32 hash (test run) : 88784969
CRC32 hash : 88784969
CRC32 hash (skip zero) : FAD24481
AccurateRip v1 signature : BB25E6AA
AccurateRip v2 signature : EF5AEF89
->Track not present in AccurateRip database.
Statistics
Read error : 0
Jitter error (maybe fixed) : 0
Retry sector count : 0
Damaged sector count : 0

Track 07
Filename : /Users/Mayowa/Desktop/Emerson, Lake & Palmer - The Everlasting - Best Of ELP (2017) [FLAC]/07 From The Beginning.flac
Pre-gap length : 00:02:32

Track gain : -4.82 dB
Peak : 1.000000
CRC32 hash (test run) : 7AA98941
CRC32 hash : 7AA98941
CRC32 hash (skip zero) : 3B335A61
AccurateRip v1 signature : 7BCD5477
AccurateRip v2 signature : 5A36CD65
->Track not present in AccurateRip database.
Statistics
Read error : 0
Jitter error (maybe fixed) : 0
Retry sector count : 0
Damaged sector count : 0

Track 08
Filename : /Users/Mayowa/Desktop/Emerson, Lake & Palmer - The Everlasting - Best Of ELP (2017) [FLAC]/08 The Sheriff.flac
Pre-gap length : 00:02:33

Track gain : -8.15 dB
Peak : 1.000000
CRC32 hash (test run) : 051421A2
CRC32 hash : 051421A2
CRC32 hash (skip zero) : 4FF0CAFE
AccurateRip v1 signature : 24589311
AccurateRip v2 signature : 35E90985
->Track not present in AccurateRip database.
Statistics
Read error : 0
Jitter error (maybe fixed) : 0
Retry sector count : 0
Damaged sector count : 0

Track 09
Filename : /Users/Mayowa/Desktop/Emerson, Lake & Palmer - The Everlasting - Best Of ELP (2017) [FLAC]/09 Trilogy.flac
Pre-gap length : 00:02:34

Track gain : -7.24 dB
Peak : 1.000000
CRC32 hash (test run) : D7D37639
CRC32 hash : D7D37639
CRC32 hash (skip zero) : 6B4D76C3
AccurateRip v1 signature : CBBD1778
AccurateRip v2 signature : 420EE9A2
->Track not present in AccurateRip database.
Statistics
Read error : 0
Jitter error (maybe fixed) : 0
Retry sector count : 0
Damaged sector count : 0

Track 10
Filename : /Users/Mayowa/Desktop/Emerson, Lake & Palmer - The Everlasting - Best Of ELP (2017) [FLAC]/10 Living Sin.flac
Pre-gap length : 00:02:34

Track gain : -7.15 dB
Peak : 1.000000
CRC32 hash (test run) : 6C1BC7BD
CRC32 hash : 6C1BC7BD
CRC32 hash (skip zero) : 38161D26
AccurateRip v1 signature : D927C07F
AccurateRip v2 signature : F5B2A129
->Track not present in AccurateRip database.
Statistics
Read error : 0
Jitter error (maybe fixed) : 0
Retry sector count : 0
Damaged sector count : 0

Track 11
Filename : /Users/Mayowa/Desktop/Emerson, Lake & Palmer - The Everlasting - Best Of ELP (2017) [FLAC]/11 Jerusalem.flac
Pre-gap length : 00:02:32

Track gain : -8.54 dB
Peak : 1.000000
CRC32 hash (test run) : 36362DC4
CRC32 hash : 36362DC4
CRC32 hash (skip zero) : 775465A8
AccurateRip v1 signature : 9B1BFC52
AccurateRip v2 signature : 42525A50
->Track not present in AccurateRip database.
Statistics
Read error : 0
Jitter error (maybe fixed) : 0
Retry sector count : 0
Damaged sector count : 0

Track 12
Filename : /Users/Mayowa/Desktop/Emerson, Lake & Palmer - The Everlasting - Best Of ELP (2017) [FLAC]/12 Benny the Bouncer.flac
Pre-gap length : 00:02:34

Track gain : -7.89 dB
Peak : 1.000000
CRC32 hash (test run) : F12D0831
CRC32 hash : F12D0831
CRC32 hash (skip zero) : 203DB6D7
AccurateRip v1 signature : E6590085
AccurateRip v2 signature : AA9BE623
->Track not present in AccurateRip database.
Statistics
Read error : 0
Jitter error (maybe fixed) : 0
Retry sector count : 0
Damaged sector count : 0

Track 13
Filename : /Users/Mayowa/Desktop/Emerson, Lake & Palmer - The Everlasting - Best Of ELP (2017) [FLAC]/13 Lend Your Love to Me Tonight.flac
Pre-gap length : 00:02:33

Track gain : -8.48 dB
Peak : 1.000000
CRC32 hash (test run) : 3C009D8D
CRC32 hash : 3C009D8D
CRC32 hash (skip zero) : 38E00C9D
AccurateRip v1 signature : 393B3286
AccurateRip v2 signature : 2B7C9CEC
->Track not present in AccurateRip database.
Statistics
Read error : 0
Jitter error (maybe fixed) : 0
Retry sector count : 0
Damaged sector count : 0

Track 14
Filename : /Users/Mayowa/Desktop/Emerson, Lake & Palmer - The Everlasting - Best Of ELP (2017) [FLAC]/14 C'est La Vie.flac
Pre-gap length : 00:02:34

Track gain : -6.70 dB
Peak : 0.988495
CRC32 hash (test run) : 2C5AE38B
CRC32 hash : 2C5AE38B
CRC32 hash (skip zero) : DDB011FD
AccurateRip v1 signature : 937CFF88
AccurateRip v2 signature : E8E75F0E
->Track not present in AccurateRip database.
Statistics
Read error : 0
Jitter error (maybe fixed) : 0
Retry sector count : 0
Damaged sector count : 0

Track 15
Filename : /Users/Mayowa/Desktop/Emerson, Lake & Palmer - The Everlasting - Best Of ELP (2017) [FLAC]/15 Nobody Loves You Like I Do.flac
Pre-gap length : 00:02:34

Track gain : -6.87 dB
Peak : 1.000000
CRC32 hash (test run) : 63D70A3D
CRC32 hash : 63D70A3D
CRC32 hash (skip zero) : 6EA65068
AccurateRip v1 signature : 22B2664F
AccurateRip v2 signature : 9FBB410B
->Track not present in AccurateRip database.
Statistics
Read error : 0
Jitter error (maybe fixed) : 0
Retry sector count : 0
Damaged sector count : 0

Track 16
Filename : /Users/Mayowa/Desktop/Emerson, Lake & Palmer - The Everlasting - Best Of ELP (2017) [FLAC]/16 Pirates.flac
Pre-gap length : 00:02:32

Track gain : -8.76 dB
Peak : 1.000000
CRC32 hash (test run) : DB012C2A
CRC32 hash : DB012C2A
CRC32 hash (skip zero) : 049513EA
AccurateRip v1 signature : 2F378DEF
AccurateRip v2 signature : 93BD7BAC
->Track not present in AccurateRip database.
Statistics
Read error : 0
Jitter error (maybe fixed) : 0
Retry sector count : 0
Damaged sector count : 0

No errors occurred

End of status report

––-BEGIN XLD SIGNATURE––-
E0C2MFmFTRbNn98vT5MM6CNWH3QqewIugJZejZ6e063h7JdP0pJAQwZ_UmNWVqTHsGUf4OiOpQan4lfWH5DbMFWFy15i36BMhDf4.8K
––-END XLD SIGNATURE––-

X Lossless Decoder version 20170729 (150.3)

XLD extraction logfile from 2017-09-21 19:52:46 +0100

Emerson, Lake, And Palmer / The Everlasting - Best of ELP

Used drive : OPTIARC DVD RW AD-5690H (revision 4AH5)
Media type : Pressed CD

Ripper mode : XLD Secure Ripper
Disable audio cache : OK for the drive with a cache less than 1375KiB
Make use of C2 pointers : NO
Read offset correction : 48
Max retry count : 150
Gap status : Analyzed, Appended (except HTOA)

TOC of the extracted CD
Track | Start | Length | Start sector | End sector
––––––––––––––––––––––––––––-
1 | 00:00:00 | 04:36:20 | 0 | 20719
2 | 04:36:20 | 03:08:72 | 20720 | 34891
3 | 07:45:17 | 03:57:70 | 34892 | 52736
4 | 11:43:12 | 04:58:60 | 52737 | 75146
5 | 16:41:72 | 03:21:03 | 75147 | 90224
6 | 20:03:00 | 03:33:27 | 90225 | 106226
7 | 23:36:27 | 02:36:33 | 106227 | 117959
8 | 26:12:60 | 03:23:55 | 117960 | 133239
9 | 29:36:40 | 20:16:47 | 133240 | 224486
10 | 49:53:12 | 07:00:35 | 224487 | 256021
11 | 56:53:47 | 03:55:03 | 256022 | 273649
12 | 60:48:50 | 05:25:02 | 273650 | 298026
13 | 66:13:52 | 04:12:18 | 298027 | 316944

AccurateRip Summary
Disc not found in AccurateRip DB.

All Tracks
Album gain : -8.57 dB
Peak : 1.000000
Statistics
Read error : 0
Jitter error (maybe fixed) : 0
Retry sector count : 0
Damaged sector count : 0

Track 01
Filename : /Users/Mayowa/Desktop/Emerson, Lake, And Palmer - The Everlasting - Best of ELP (2017) [FLAC]/01 Tiger in a Spotlight.flac
Pre-gap length : 00:02:00

Track gain : -7.08 dB
Peak : 1.000000
CRC32 hash (test run) : F952F4A2
CRC32 hash : F952F4A2
CRC32 hash (skip zero) : EDF05667
AccurateRip v1 signature : 7DB0EA08
AccurateRip v2 signature : 0224E5AC
->Track not present in AccurateRip database.
Statistics
Read error : 0
Jitter error (maybe fixed) : 0
Retry sector count : 0
Damaged sector count : 0

Track 02
Filename : /Users/Mayowa/Desktop/Emerson, Lake, And Palmer - The Everlasting - Best of ELP (2017) [FLAC]/02 Brain Salad Surgery.flac
Pre-gap length : 00:02:34

Track gain : -8.11 dB
Peak : 1.000000
CRC32 hash (test run) : D05623D1
CRC32 hash : D05623D1
CRC32 hash (skip zero) : C467964E
AccurateRip v1 signature : CBB48452
AccurateRip v2 signature : 14BA248D
->Track not present in AccurateRip database.
Statistics
Read error : 0
Jitter error (maybe fixed) : 0
Retry sector count : 0
Damaged sector count : 0

Track 03
Filename : /Users/Mayowa/Desktop/Emerson, Lake, And Palmer - The Everlasting - Best of ELP (2017) [FLAC]/03 Watching Over You.flac
Pre-gap length : 00:02:33

Track gain : -4.51 dB
Peak : 1.000000
CRC32 hash (test run) : A9EBD4F6
CRC32 hash : A9EBD4F6
CRC32 hash (skip zero) : 1761D39F
AccurateRip v1 signature : B61079FF
AccurateRip v2 signature : 0BE52058
->Track not present in AccurateRip database.
Statistics
Read error : 0
Jitter error (maybe fixed) : 0
Retry sector count : 0
Damaged sector count : 0

Track 04
Filename : /Users/Mayowa/Desktop/Emerson, Lake, And Palmer - The Everlasting - Best of ELP (2017) [FLAC]/04 So Far to Fall.flac
Pre-gap length : 00:02:34

Track gain : -8.27 dB
Peak : 1.000000
CRC32 hash (test run) : E2481B3B
CRC32 hash : E2481B3B
CRC32 hash (skip zero) : 2ABAA82E
AccurateRip v1 signature : D8798117
AccurateRip v2 signature : 8FF09E03
->Track not present in AccurateRip database.
Statistics
Read error : 0
Jitter error (maybe fixed) : 0
Retry sector count : 0
Damaged sector count : 0

Track 05
Filename : /Users/Mayowa/Desktop/Emerson, Lake, And Palmer - The Everlasting - Best of ELP (2017) [FLAC]/05 I Believe in Father Christmas.flac
Pre-gap length : 00:02:34

Track gain : -4.65 dB
Peak : 0.999969
CRC32 hash (test run) : 64462E8D
CRC32 hash : 64462E8D
CRC32 hash (skip zero) : 87BD30DA
AccurateRip v1 signature : 9416240E
AccurateRip v2 signature : 4692E655
->Track not present in AccurateRip database.
Statistics
Read error : 0
Jitter error (maybe fixed) : 0
Retry sector count : 0
Damaged sector count : 0

Track 06
Filename : /Users/Mayowa/Desktop/Emerson, Lake, And Palmer - The Everlasting - Best of ELP (2017) [FLAC]/06 Show Me the Way to Go Home.flac
Pre-gap length : 00:02:32

Track gain : -4.88 dB
Peak : 0.989532
CRC32 hash (test run) : 3683A94B
CRC32 hash : 3683A94B
CRC32 hash (skip zero) : 7E420085
AccurateRip v1 signature : AC8BCB0B
AccurateRip v2 signature : 052E9C08
->Track not present in AccurateRip database.
Statistics
Read error : 0
Jitter error (maybe fixed) : 0
Retry sector count : 0
Damaged sector count : 0

Track 07
Filename : /Users/Mayowa/Desktop/Emerson, Lake, And Palmer - The Everlasting - Best of ELP (2017) [FLAC]/07 AlI I Want Is You.flac
Pre-gap length : 00:02:33

Track gain : -8.83 dB
Peak : 1.000000
CRC32 hash (test run) : 98158898
CRC32 hash : 98158898
CRC32 hash (skip zero) : 2E07BDA0
AccurateRip v1 signature : 0D368832
AccurateRip v2 signature : 34D36772
->Track not present in AccurateRip database.
Statistics
Read error : 0
Jitter error (maybe fixed) : 0
Retry sector count : 0
Damaged sector count : 0

Track 08
Filename : /Users/Mayowa/Desktop/Emerson, Lake, And Palmer - The Everlasting - Best of ELP (2017) [FLAC]/08 Gambler, The.flac
Pre-gap length : 00:02:32

Track gain : -9.18 dB
Peak : 1.000000
CRC32 hash (test run) : 79FED9EA
CRC32 hash : 79FED9EA
CRC32 hash (skip zero) : 6837B8E5
AccurateRip v1 signature : 857BD2B9
AccurateRip v2 signature : C0770A97
->Track not present in AccurateRip database.
Statistics
Read error : 0
Jitter error (maybe fixed) : 0
Retry sector count : 0
Damaged sector count : 0

Track 09
Filename : /Users/Mayowa/Desktop/Emerson, Lake, And Palmer - The Everlasting - Best of ELP (2017) [FLAC]/09 Memoirs of an Officer and a Gentleman: Prologue/The Education of a Gentleman/Love at First Sight/Letters From the Front/Honorable Company.flac
Pre-gap length : 00:02:33

Track gain : -8.49 dB
Peak : 1.000000
CRC32 hash (test run) : 55BCB66C
CRC32 hash : 55BCB66C
CRC32 hash (skip zero) : 45086296
AccurateRip v1 signature : 14FF7101
AccurateRip v2 signature : DE81B11D
->Track not present in AccurateRip database.
Statistics
Read error : 0
Jitter error (maybe fixed) : 0
Retry sector count : 0
Damaged sector count : 0

Track 10
Filename : /Users/Mayowa/Desktop/Emerson, Lake, And Palmer - The Everlasting - Best of ELP (2017) [FLAC]/10 Black Moon.flac
Pre-gap length : 00:02:32

Track gain : -7.95 dB
Peak : 1.000000
CRC32 hash (test run) : C1156B57
CRC32 hash : C1156B57
CRC32 hash (skip zero) : 33F51D18
AccurateRip v1 signature : C4DD6B4A
AccurateRip v2 signature : 704ED807
->Track not present in AccurateRip database.
Statistics
Read error : 0
Jitter error (maybe fixed) : 0
Retry sector count : 0
Damaged sector count : 0

Track 11
Filename : /Users/Mayowa/Desktop/Emerson, Lake, And Palmer - The Everlasting - Best of ELP (2017) [FLAC]/11 Footprints in the Snow.flac
Pre-gap length : 00:02:32

Track gain : -4.20 dB
Peak : 0.999969
CRC32 hash (test run) : 6F2D434E
CRC32 hash : 6F2D434E
CRC32 hash (skip zero) : 352D6928
AccurateRip v1 signature : 71CD0838
AccurateRip v2 signature : A043CF2F
->Track not present in AccurateRip database.
Statistics
Read error : 0
Jitter error (maybe fixed) : 0
Retry sector count : 0
Damaged sector count : 0

Track 12
Filename : /Users/Mayowa/Desktop/Emerson, Lake, And Palmer - The Everlasting - Best of ELP (2017) [FLAC]/12 Hand of Truth.flac
Pre-gap length : 00:02:33

Track gain : -9.50 dB
Peak : 1.000000
CRC32 hash (test run) : 7B9EAE9E
CRC32 hash : 7B9EAE9E
CRC32 hash (skip zero) : 6100135F
AccurateRip v1 signature : 0540C71B
AccurateRip v2 signature : CE96F7E1
->Track not present in AccurateRip database.
Statistics
Read error : 0
Jitter error (maybe fixed) : 0
Retry sector count : 0
Damaged sector count : 0

Track 13
Filename : /Users/Mayowa/Desktop/Emerson, Lake, And Palmer - The Everlasting - Best of ELP (2017) [FLAC]/13 Gone Too Soon.flac
Pre-gap length : 00:02:34

Track gain : -9.84 dB
Peak : 1.000000
CRC32 hash (test run) : 048C93DC
CRC32 hash : 048C93DC
CRC32 hash (skip zero) : 3DB2638D
AccurateRip v1 signature : C6BC376E
AccurateRip v2 signature : 3F70FE00
->Track not present in AccurateRip database.
Statistics
Read error : 0
Jitter error (maybe fixed) : 0
Retry sector count : 0
Damaged sector count : 0

No errors occurred

End of status report

––-BEGIN XLD SIGNATURE––-
Eq5Ki1pqETk8Nlm08lCNEF0ETNS_9PxpJciQHjflmdJhyTYqd8aqsf0PmVykpNURDID42Q2ldAhkAixRXOkvaI75pOtSmTXyiuyDHdO
––-END XLD SIGNATURE––-

X Lossless Decoder version 20170729 (150.3)

XLD extraction logfile from 2017-09-20 22:19:34 +0100

Emerson, Lake, And Palmer / The Everlasting - Best of ELP

Used drive : OPTIARC DVD RW AD-5690H (revision 4AH5)
Media type : Pressed CD

Ripper mode : XLD Secure Ripper
Disable audio cache : OK for the drive with a cache less than 1375KiB
Make use of C2 pointers : NO
Read offset correction : 48
Max retry count : 100
Gap status : Analyzed, Appended (except HTOA)

TOC of the extracted CD
Track | Start | Length | Start sector | End sector
––––––––––––––––––––––––––––-
1 | 00:00:00 | 04:33:12 | 0 | 20486
2 | 04:33:12 | 07:50:33 | 20487 | 55769
3 | 12:23:45 | 03:22:17 | 55770 | 70936
4 | 15:45:62 | 07:23:08 | 70937 | 104169
5 | 23:08:70 | 18:28:50 | 104170 | 187319
6 | 41:37:45 | 03:59:30 | 187320 | 205274
7 | 45:37:00 | 03:51:25 | 205275 | 222624
8 | 49:28:25 | 02:03:37 | 222625 | 231886
9 | 51:31:62 | 03:13:23 | 231887 | 246384
10 | 54:45:10 | 03:59:72 | 246385 | 264381
11 | 58:45:07 | 06:05:08 | 264382 | 291764
12 | 64:50:15 | 04:30:62 | 291765 | 312076
13 | 69:21:02 | 02:15:00 | 312077 | 322201
14 | 71:36:02 | 02:34:29 | 322202 | 333780

AccurateRip Summary
Disc not found in AccurateRip DB.

All Tracks
Album gain : -8.00 dB
Peak : 1.000000
Statistics
Read error : 0
Jitter error (maybe fixed) : 0
Retry sector count : 0
Damaged sector count : 0

Track 01
Filename : /Users/Mayowa/Desktop/Emerson, Lake, And Palmer - The Everlasting - Best of ELP (2017) [FLAC]/01 Barbarian, The.flac
Pre-gap length : 00:02:00

Track gain : -7.87 dB
Peak : 1.000000
CRC32 hash (test run) : 8BA331AF
CRC32 hash : 8BA331AF
CRC32 hash (skip zero) : DE2A6DFA
AccurateRip v1 signature : 09068BA7
AccurateRip v2 signature : DD49146B
->Track not present in AccurateRip database.
Statistics
Read error : 0
Jitter error (maybe fixed) : 0
Retry sector count : 0
Damaged sector count : 0

Track 02
Filename : /Users/Mayowa/Desktop/Emerson, Lake, And Palmer - The Everlasting - Best of ELP (2017) [FLAC]/02 Three Fates: Clotho/Lachesis/Atropos, The.flac
Pre-gap length : 00:02:33

Track gain : -8.69 dB
Peak : 1.000000
CRC32 hash (test run) : 10F7BC2F
CRC32 hash : 10F7BC2F
CRC32 hash (skip zero) : 7A3AF7FD
AccurateRip v1 signature : B916ADBE
AccurateRip v2 signature : AFF6BC2F
->Track not present in AccurateRip database.
Statistics
Read error : 0
Jitter error (maybe fixed) : 0
Retry sector count : 0
Damaged sector count : 0

Track 03
Filename : /Users/Mayowa/Desktop/Emerson, Lake, And Palmer - The Everlasting - Best of ELP (2017) [FLAC]/03 Infinite Space [Conclusion].flac
Pre-gap length : 00:02:34

Track gain : -8.04 dB
Peak : 1.000000
CRC32 hash (test run) : 3E627423
CRC32 hash : 3E627423
CRC32 hash (skip zero) : 593DB1FD
AccurateRip v1 signature : C89EAED5
AccurateRip v2 signature : E33B4216
->Track not present in AccurateRip database.
Statistics
Read error : 0
Jitter error (maybe fixed) : 0
Retry sector count : 0
Damaged sector count : 0

Track 04
Filename : /Users/Mayowa/Desktop/Emerson, Lake, And Palmer - The Everlasting - Best of ELP (2017) [FLAC]/04 Toccata.flac
Pre-gap length : 00:02:33

Track gain : -7.37 dB
Peak : 1.000000
CRC32 hash (test run) : F1BB2BBE
CRC32 hash : F1BB2BBE
CRC32 hash (skip zero) : F1EF5071
AccurateRip v1 signature : 92D61D1B
AccurateRip v2 signature : DC69C624
->Track not present in AccurateRip database.
Statistics
Read error : 0
Jitter error (maybe fixed) : 0
Retry sector count : 0
Damaged sector count : 0

Track 05
Filename : /Users/Mayowa/Desktop/Emerson, Lake, And Palmer - The Everlasting - Best of ELP (2017) [FLAC]/05 Piano Concerto No.1 First Movement: Allegro Giojoso/Second Movement: Andante Molto Cantabile/Third Movement:Toccata Con Fuoco.flac
Pre-gap length : 00:02:33

Track gain : -8.29 dB
Peak : 1.000000
CRC32 hash (test run) : 37322B92
CRC32 hash : 37322B92
CRC32 hash (skip zero) : DB26DA8C
AccurateRip v1 signature : 4A62D7B9
AccurateRip v2 signature : 63598FB4
->Track not present in AccurateRip database.
Statistics
Read error : 0
Jitter error (maybe fixed) : 0
Retry sector count : 0
Damaged sector count : 0

Track 06
Filename : /Users/Mayowa/Desktop/Emerson, Lake, And Palmer - The Everlasting - Best of ELP (2017) [FLAC]/06 When the Apple Blossoms Bloom in the Windmills of Your Mind, I 'll Be Your Valentine.flac
Pre-gap length : 00:02:33

Track gain : -5.82 dB
Peak : 1.000000
CRC32 hash (test run) : F3823A39
CRC32 hash : F3823A39
CRC32 hash (skip zero) : 2ECF7A72
AccurateRip v1 signature : BE5C35A7
AccurateRip v2 signature : 5A21DB1A
->Track not present in AccurateRip database.
Statistics
Read error : 0
Jitter error (maybe fixed) : 0
Retry sector count : 0
Damaged sector count : 0

Track 07
Filename : /Users/Mayowa/Desktop/Emerson, Lake, And Palmer - The Everlasting - Best of ELP (2017) [FLAC]/07 Barrelhouse Shake-Down.flac
Pre-gap length : 00:02:33

Track gain : -7.58 dB
Peak : 0.993530
CRC32 hash (test run) : 5FE35A50
CRC32 hash : 5FE35A50
CRC32 hash (skip zero) : 03C7BD02
AccurateRip v1 signature : 9ECAA93C
AccurateRip v2 signature : 1C460EA5
->Track not present in AccurateRip database.
Statistics
Read error : 0
Jitter error (maybe fixed) : 0
Retry sector count : 0
Damaged sector count : 0

Track 08
Filename : /Users/Mayowa/Desktop/Emerson, Lake, And Palmer - The Everlasting - Best of ELP (2017) [FLAC]/08 Maple Leaf Rag.flac
Pre-gap length : 00:02:34

Track gain : -6.76 dB
Peak : 0.994202
CRC32 hash (test run) : 4F0A4E82
CRC32 hash : 4F0A4E82
CRC32 hash (skip zero) : 5DEC9EF7
AccurateRip v1 signature : 40CFA322
AccurateRip v2 signature : AC8CD0A5
->Track not present in AccurateRip database.
Statistics
Read error : 0
Jitter error (maybe fixed) : 0
Retry sector count : 0
Damaged sector count : 0

Track 09
Filename : /Users/Mayowa/Desktop/Emerson, Lake, And Palmer - The Everlasting - Best of ELP (2017) [FLAC]/09 Honky Tonk Train Blues.flac
Pre-gap length : 00:02:34

Track gain : -7.49 dB
Peak : 0.999176
CRC32 hash (test run) : 39D090E3
CRC32 hash : 39D090E3
CRC32 hash (skip zero) : 641B51CD
AccurateRip v1 signature : 3EA8F851
AccurateRip v2 signature : 69B4B3FB
->Track not present in AccurateRip database.
Statistics
Read error : 0
Jitter error (maybe fixed) : 0
Retry sector count : 0
Damaged sector count : 0

Track 10
Filename : /Users/Mayowa/Desktop/Emerson, Lake, And Palmer - The Everlasting - Best of ELP (2017) [FLAC]/10 Canario.flac
Pre-gap length : 00:02:34

Track gain : -9.74 dB
Peak : 1.000000
CRC32 hash (test run) : 2007D532
CRC32 hash : 2007D532
CRC32 hash (skip zero) : 55A14527
AccurateRip v1 signature : F04DAE79
AccurateRip v2 signature : D18B4DA2
->Track not present in AccurateRip database.
Statistics
Read error : 0
Jitter error (maybe fixed) : 0
Retry sector count : 0
Damaged sector count : 0

Track 11
Filename : /Users/Mayowa/Desktop/Emerson, Lake, And Palmer - The Everlasting - Best of ELP (2017) [FLAC]/11 Changing States.flac
Pre-gap length : 00:02:32

Track gain : -6.67 dB
Peak : 1.000000
CRC32 hash (test run) : 36CE9078
CRC32 hash : 36CE9078
CRC32 hash (skip zero) : DCEF267E
AccurateRip v1 signature : CFB0F3B4
AccurateRip v2 signature : 18550E67
->Track not present in AccurateRip database.
Statistics
Read error : 0
Jitter error (maybe fixed) : 0
Retry sector count : 0
Damaged sector count : 0

Track 12
Filename : /Users/Mayowa/Desktop/Emerson, Lake, And Palmer - The Everlasting - Best of ELP (2017) [FLAC]/12 Close to Home.flac
Pre-gap length : 00:02:34

Track gain : -5.46 dB
Peak : 0.968262
CRC32 hash (test run) : FFAD9079
CRC32 hash : FFAD9079
CRC32 hash (skip zero) : FC985DB8
AccurateRip v1 signature : A74C45B1
AccurateRip v2 signature : A38D6A7E
->Track not present in AccurateRip database.
Statistics
Read error : 0
Jitter error (maybe fixed) : 0
Retry sector count : 0
Damaged sector count : 0

Track 13
Filename : /Users/Mayowa/Desktop/Emerson, Lake, And Palmer - The Everlasting - Best of ELP (2017) [FLAC]/13 Blade of Grass, A.flac
Pre-gap length : 00:02:34

Track gain : -4.42 dB
Peak : 0.964874
CRC32 hash (test run) : 1C966929
CRC32 hash : 1C966929
CRC32 hash (skip zero) : 1A5C266A
AccurateRip v1 signature : DA2463CC
AccurateRip v2 signature : 5C40E433
->Track not present in AccurateRip database.
Statistics
Read error : 0
Jitter error (maybe fixed) : 0
Retry sector count : 0
Damaged sector count : 0

Track 14
Filename : /Users/Mayowa/Desktop/Emerson, Lake, And Palmer - The Everlasting - Best of ELP (2017) [FLAC]/14 Hammer It Out .flac
Pre-gap length : 00:02:33

Track gain : -7.43 dB
Peak : 0.970947
CRC32 hash (test run) : F72F0713
CRC32 hash : F72F0713
CRC32 hash (skip zero) : 447238F7
AccurateRip v1 signature : C8D133FA
AccurateRip v2 signature : 8FF1FA51
->Track not present in AccurateRip database.
Statistics
Read error : 0
Jitter error (maybe fixed) : 0
Retry sector count : 0
Damaged sector count : 0

No errors occurred

End of status report

––-BEGIN XLD SIGNATURE––-
X.L2rT8ABmqJRVt92ipghjQJRlF5_kzZTAvEjSVHw1CFCjP7k134Wi9xXuwNsj3ucpHXfmEIgrVpo2qsWMEKivPkZql1tDW6ov4B18u
––-END XLD SIGNATURE––-

X Lossless Decoder version 20170729 (150.3)

XLD extraction logfile from 2017-09-16 10:50:56 +0100

Emerson, Lake, And Palmer / The Everlasting - Best of ELP

Used drive : OPTIARC DVD RW AD-5690H (revision 4AH5)
Media type : Pressed CD

Ripper mode : XLD Secure Ripper
Disable audio cache : OK for the drive with a cache less than 1375KiB
Make use of C2 pointers : NO
Read offset correction : 48
Max retry count : 100
Gap status : Analyzed, Appended (except HTOA)

TOC of the extracted CD
Track | Start | Length | Start sector | End sector
––––––––––––––––––––––––––––-
1 | 00:00:00 | 01:57:65 | 0 | 8839
2 | 01:57:65 | 04:20:52 | 8840 | 28391
3 | 06:18:42 | 01:29:06 | 28392 | 35072
4 | 07:47:48 | 01:12:70 | 35073 | 40542
5 | 09:00:43 | 04:10:70 | 40543 | 59362
6 | 13:11:38 | 01:06:67 | 59363 | 64379
7 | 14:18:30 | 06:40:10 | 64380 | 94389
8 | 20:58:40 | 04:57:10 | 94390 | 116674
9 | 25:55:50 | 27:33:23 | 116675 | 240672
10 | 53:28:73 | 11:06:47 | 240673 | 290669

AccurateRip Summary
Disc not found in AccurateRip DB.

All Tracks
Album gain : -9.53 dB
Peak : 1.000000
Statistics
Read error : 0
Jitter error (maybe fixed) : 0
Retry sector count : 0
Damaged sector count : 0

Track 01
Filename : /Users/Mayowa/Desktop/Emerson, Lake, And Palmer - The Everlasting - Best of ELP (2017) [FLAC]/01 Promenade.flac
Pre-gap length : 00:02:00

Track gain : -10.09 dB
Peak : 1.000000
CRC32 hash (test run) : E646E984
CRC32 hash : E646E984
CRC32 hash (skip zero) : C118F5BF
AccurateRip v1 signature : 31E56654
AccurateRip v2 signature : C39A2363
->Track not present in AccurateRip database.
Statistics
Read error : 0
Jitter error (maybe fixed) : 0
Retry sector count : 0
Damaged sector count : 0

Track 02
Filename : /Users/Mayowa/Desktop/Emerson, Lake, And Palmer - The Everlasting - Best of ELP (2017) [FLAC]/02 Gnome, The.flac

Track gain : -9.06 dB
Peak : 1.000000
CRC32 hash (test run) : A46CAE4A
CRC32 hash : A46CAE4A
CRC32 hash (skip zero) : D255A5E5
AccurateRip v1 signature : AA9573D7
AccurateRip v2 signature : 47139D24
->Track not present in AccurateRip database.
Statistics
Read error : 0
Jitter error (maybe fixed) : 0
Retry sector count : 0
Damaged sector count : 0

Track 03
Filename : /Users/Mayowa/Desktop/Emerson, Lake, And Palmer - The Everlasting - Best of ELP (2017) [FLAC]/03 Promenade.flac
Pre-gap length : 00:02:34

Track gain : -7.92 dB
Peak : 1.000000
CRC32 hash (test run) : 8B356C0F
CRC32 hash : 8B356C0F
CRC32 hash (skip zero) : 87AFF656
AccurateRip v1 signature : E98C629D
AccurateRip v2 signature : 546230A0
->Track not present in AccurateRip database.
Statistics
Read error : 0
Jitter error (maybe fixed) : 0
Retry sector count : 0
Damaged sector count : 0

Track 04
Filename : /Users/Mayowa/Desktop/Emerson, Lake, And Palmer - The Everlasting - Best of ELP (2017) [FLAC]/04 Hut of Baba Yaga, The.flac

Track gain : -9.27 dB
Peak : 1.000000
CRC32 hash (test run) : 919E32E9
CRC32 hash : 919E32E9
CRC32 hash (skip zero) : 1F503575
AccurateRip v1 signature : CD4A3A45
AccurateRip v2 signature : 4F16137B
->Track not present in AccurateRip database.
Statistics
Read error : 0
Jitter error (maybe fixed) : 0
Retry sector count : 0
Damaged sector count : 0

Track 05
Filename : /Users/Mayowa/Desktop/Emerson, Lake, And Palmer - The Everlasting - Best of ELP (2017) [FLAC]/05 Curse of Baba Yaga, The.flac

Track gain : -9.00 dB
Peak : 1.000000
CRC32 hash (test run) : AB237CB5
CRC32 hash : AB237CB5
CRC32 hash (skip zero) : 02D5BC23
AccurateRip v1 signature : 8E0DF0FF
AccurateRip v2 signature : 4CCEB7D6
->Track not present in AccurateRip database.
Statistics
Read error : 0
Jitter error (maybe fixed) : 0
Retry sector count : 0
Damaged sector count : 0

Track 06
Filename : /Users/Mayowa/Desktop/Emerson, Lake, And Palmer - The Everlasting - Best of ELP (2017) [FLAC]/06 Hut of Baba Yaga, The.flac

Track gain : -9.38 dB
Peak : 1.000000
CRC32 hash (test run) : 9EC920A7
CRC32 hash : 9EC920A7
CRC32 hash (skip zero) : 36CB6331
AccurateRip v1 signature : 36731EC2
AccurateRip v2 signature : 98E1186B
->Track not present in AccurateRip database.
Statistics
Read error : 0
Jitter error (maybe fixed) : 0
Retry sector count : 0
Damaged sector count : 0

Track 07
Filename : /Users/Mayowa/Desktop/Emerson, Lake, And Palmer - The Everlasting - Best of ELP (2017) [FLAC]/07 Great Gates of Kiev, The.flac

Track gain : -9.84 dB
Peak : 1.000000
CRC32 hash (test run) : 7C7E35E8
CRC32 hash : 7C7E35E8
CRC32 hash (skip zero) : 9497687F
AccurateRip v1 signature : EC019F8E
AccurateRip v2 signature : 048BACCC
->Track not present in AccurateRip database.
Statistics
Read error : 0
Jitter error (maybe fixed) : 0
Retry sector count : 0
Damaged sector count : 0

Track 08
Filename : /Users/Mayowa/Desktop/Emerson, Lake, And Palmer - The Everlasting - Best of ELP (2017) [FLAC]/08 Hoedown.flac
Pre-gap length : 00:02:35

Track gain : -9.62 dB
Peak : 0.985535
CRC32 hash (test run) : 1DF1249B
CRC32 hash : 1DF1249B
CRC32 hash (skip zero) : 084159F4
AccurateRip v1 signature : DD33ED4A
AccurateRip v2 signature : A955F428
->Track not present in AccurateRip database.
Statistics
Read error : 0
Jitter error (maybe fixed) : 0
Retry sector count : 0
Damaged sector count : 0

Track 09
Filename : /Users/Mayowa/Desktop/Emerson, Lake, And Palmer - The Everlasting - Best of ELP (2017) [FLAC]/09 Tarkus: Eruption/Stones of Years/Iconolast/Mass/Manticore/Battlefield (Including Epitaph)/Aquatarkus.flac
Pre-gap length : 00:02:35

Track gain : -9.91 dB
Peak : 0.984955
CRC32 hash (test run) : D06A0975
CRC32 hash : D06A0975
CRC32 hash (skip zero) : ED4C4B09
AccurateRip v1 signature : 082362D1
AccurateRip v2 signature : 32B81C4E
->Track not present in AccurateRip database.
Statistics
Read error : 0
Jitter error (maybe fixed) : 0
Retry sector count : 0
Damaged sector count : 0

Track 10
Filename : /Users/Mayowa/Desktop/Emerson, Lake, And Palmer - The Everlasting - Best of ELP (2017) [FLAC]/10 Take a Pebble (Including Still… You Turn Me on and Lucky Man).flac

Track gain : -6.89 dB
Peak : 0.982971
CRC32 hash (test run) : FAE386F9
CRC32 hash : FAE386F9
CRC32 hash (skip zero) : 045262EA
AccurateRip v1 signature : 98EAC57E
AccurateRip v2 signature : 5E08CD7B
->Track not present in AccurateRip database.
Statistics
Read error : 0
Jitter error (maybe fixed) : 0
Retry sector count : 0
Damaged sector count : 0

No errors occurred

End of status report

––-BEGIN XLD SIGNATURE––-
idDhvwn.FHmvsWYfjQPKr86kYJeaSA4gyFMsXhhEpjk5w7SapFABsu7KB49CnNi0rs4cB0rAb4R99PbRgmcGo_tF6ZojIpO2j_Geu9a
––-END XLD SIGNATURE––-

X Lossless Decoder version 20170729 (150.3)

XLD extraction logfile from 2017-09-20 19:36:55 +0100

Emerson, Lake, And Palmer / The Everlasting - Best of ELP

Used drive : OPTIARC DVD RW AD-5690H (revision 4AH5)
Media type : Pressed CD

Ripper mode : XLD Secure Ripper
Disable audio cache : OK for the drive with a cache less than 1375KiB
Make use of C2 pointers : NO
Read offset correction : 48
Max retry count : 100
Gap status : Analyzed, Appended (except HTOA)

TOC of the extracted CD
Track | Start | Length | Start sector | End sector
––––––––––––––––––––––––––––-
1 | 00:00:00 | 11:55:62 | 0 | 53686
2 | 11:55:62 | 35:29:03 | 53687 | 213364
3 | 47:24:65 | 00:52:54 | 213365 | 217318
4 | 48:17:44 | 03:40:43 | 217319 | 233861
5 | 51:58:12 | 05:33:55 | 233862 | 258891
6 | 57:31:67 | 03:25:48 | 258892 | 274314
7 | 60:57:40 | 10:09:15 | 274315 | 320004
8 | 71:06:55 | 04:25:58 | 320005 | 339937

AccurateRip Summary
Disc not found in AccurateRip DB.

All Tracks
Album gain : -8.10 dB
Peak : 1.000000
Statistics
Read error : 0
Jitter error (maybe fixed) : 0
Retry sector count : 0
Damaged sector count : 0

Track 01
Filename : /Users/Mayowa/Desktop/Emerson, Lake, And Palmer - The Everlasting - Best of ELP (2017) [FLAC]/01 Piano Improvisastions.flac
Pre-gap length : 00:02:00

Track gain : -7.06 dB
Peak : 1.000000
CRC32 hash (test run) : A436F866
CRC32 hash : A436F866
CRC32 hash (skip zero) : 4634DC16
AccurateRip v1 signature : 4F97D0D1
AccurateRip v2 signature : CA675EE2
->Track not present in AccurateRip database.
Statistics
Read error : 0
Jitter error (maybe fixed) : 0
Retry sector count : 0
Damaged sector count : 0

Track 02
Filename : /Users/Mayowa/Desktop/Emerson, Lake, And Palmer - The Everlasting - Best of ELP (2017) [FLAC]/02 Karn Evil 9: 1st Impression/2nd Impression/3rd Impression.flac
Pre-gap length : 00:02:34

Track gain : -8.31 dB
Peak : 1.000000
CRC32 hash (test run) : AA7CB377
CRC32 hash : AA7CB377
CRC32 hash (skip zero) : 3D60B78F
AccurateRip v1 signature : 5B0BAAF6
AccurateRip v2 signature : 3EFCDAA0
->Track not present in AccurateRip database.
Statistics
Read error : 0
Jitter error (maybe fixed) : 0
Retry sector count : 0
Damaged sector count : 0

Track 03
Filename : /Users/Mayowa/Desktop/Emerson, Lake, And Palmer - The Everlasting - Best of ELP (2017) [FLAC]/03 Introductory Fanfare.flac
Pre-gap length : 00:02:35

Track gain : -4.13 dB
Peak : 0.966064
CRC32 hash (test run) : B861808F
CRC32 hash : B861808F
CRC32 hash (skip zero) : 7F67510C
AccurateRip v1 signature : 3E4F1C10
AccurateRip v2 signature : 740680C5
->Track not present in AccurateRip database.
Statistics
Read error : 0
Jitter error (maybe fixed) : 0
Retry sector count : 0
Damaged sector count : 0

Track 04
Filename : /Users/Mayowa/Desktop/Emerson, Lake, And Palmer - The Everlasting - Best of ELP (2017) [FLAC]/04 Peter Gunn.flac

Track gain : -9.14 dB
Peak : 0.966095
CRC32 hash (test run) : EEF13AB3
CRC32 hash : EEF13AB3
CRC32 hash (skip zero) : 917F1F9F
AccurateRip v1 signature : 847F4B40
AccurateRip v2 signature : B63A13CD
->Track not present in AccurateRip database.
Statistics
Read error : 0
Jitter error (maybe fixed) : 0
Retry sector count : 0
Damaged sector count : 0

Track 05
Filename : /Users/Mayowa/Desktop/Emerson, Lake, And Palmer - The Everlasting - Best of ELP (2017) [FLAC]/05 Closer to Believing.flac
Pre-gap length : 00:02:42

Track gain : -4.96 dB
Peak : 0.994965
CRC32 hash (test run) : F1CAA791
CRC32 hash : F1CAA791
CRC32 hash (skip zero) : 375C3826
AccurateRip v1 signature : AD5AFB91
AccurateRip v2 signature : 086BF470
->Track not present in AccurateRip database.
Statistics
Read error : 0
Jitter error (maybe fixed) : 0
Retry sector count : 0
Damaged sector count : 0

Track 06
Filename : /Users/Mayowa/Desktop/Emerson, Lake, And Palmer - The Everlasting - Best of ELP (2017) [FLAC]/06 Touch and Go.flac
Pre-gap length : 00:02:34

Track gain : -6.32 dB
Peak : 0.891327
CRC32 hash (test run) : 95DDA273
CRC32 hash : 95DDA273
CRC32 hash (skip zero) : 410B299A
AccurateRip v1 signature : 7160653F
AccurateRip v2 signature : 951619EE
->Track not present in AccurateRip database.
Statistics
Read error : 0
Jitter error (maybe fixed) : 0
Retry sector count : 0
Damaged sector count : 0

Track 07
Filename : /Users/Mayowa/Desktop/Emerson, Lake, And Palmer - The Everlasting - Best of ELP (2017) [FLAC]/07 Medley: Fanfare for Common Man/Drum Solo/Rondo.flac
Pre-gap length : 00:02:35

Track gain : -7.84 dB
Peak : 0.891327
CRC32 hash (test run) : E64205E4
CRC32 hash : E64205E4
CRC32 hash (skip zero) : B3844954
AccurateRip v1 signature : 006469DC
AccurateRip v2 signature : BD31B854
->Track not present in AccurateRip database.
Statistics
Read error : 0
Jitter error (maybe fixed) : 0
Retry sector count : 0
Damaged sector count : 0

Track 08
Filename : /Users/Mayowa/Desktop/Emerson, Lake, And Palmer - The Everlasting - Best of ELP (2017) [FLAC]/08 Nutrocker.flac
Pre-gap length : 00:02:35

Track gain : -9.39 dB
Peak : 1.000000
CRC32 hash (test run) : 704FB974
CRC32 hash : 704FB974
CRC32 hash (skip zero) : 7934890C
AccurateRip v1 signature : 2CA5AACB
AccurateRip v2 signature : 01C04B75
->Track not present in AccurateRip database.
Statistics
Read error : 0
Jitter error (maybe fixed) : 0
Retry sector count : 0
Damaged sector count : 0

No errors occurred

End of status report

––-BEGIN XLD SIGNATURE––-
GPcGZYXT9YEXFmcBi5VLtVZRN51X7.ginrsEUZXAUbPsxPoCIDsPsvGuKGNvPo7NF4W1W5VLkiEXefy4Z5_HqMDbxruYtNDYBHElety
––-END XLD SIGNATURE––-

X Lossless Decoder version 20170729 (150.3)

XLD extraction logfile from 2017-09-20 20:38:33 +0100

Emerson, Lake, And Palmer / The Everlasting - Best of ELP

Used drive : OPTIARC DVD RW AD-5690H (revision 4AH5)
Media type : Pressed CD

Ripper mode : XLD Secure Ripper
Disable audio cache : OK for the drive with a cache less than 1375KiB
Make use of C2 pointers : NO
Read offset correction : 48
Max retry count : 100
Gap status : Analyzed, Appended (except HTOA)

TOC of the extracted CD
Track | Start | Length | Start sector | End sector
––––––––––––––––––––––––––––-
1 | 00:00:00 | 13:27:08 | 0 | 60532

AccurateRip Summary
Disc not found in AccurateRip DB.

All Tracks
Album gain : -9.80 dB
Peak : 0.954865
Statistics
Read error : 0
Jitter error (maybe fixed) : 0
Retry sector count : 0
Damaged sector count : 0

Track 01
Filename : /Users/Mayowa/Desktop/Emerson, Lake, And Palmer - The Everlasting - Best of ELP (2017) [FLAC]/01 Karn Evil 9: 1st Impression [Instrumental Mix] - (remix).flac
Pre-gap length : 00:02:00

Track gain : -9.80 dB
Peak : 0.954865
CRC32 hash (test run) : C766ADA6
CRC32 hash : C766ADA6
CRC32 hash (skip zero) : 1E03E07B
AccurateRip v1 signature : CAD7D803
AccurateRip v2 signature : 1BF54EFD
->Track not present in AccurateRip database.
Statistics
Read error : 0
Jitter error (maybe fixed) : 0
Retry sector count : 0
Damaged sector count : 0

No errors occurred

End of status report

––-BEGIN XLD SIGNATURE––-
zg_aNdcDq7z5aP9E35V.djTzM6lG1YXxvnQm6nBa9rnJuFwfUzTtqhkKpGhna2Yw7hjWTCvAB9bo8TpnkiGUlP0uu9dpnzfJOQJF7_a
––-END XLD SIGNATURE––-

Thanks to the Original ripper Flower86 !