Subcategories

Eric Clapton - Coffret 2CD Originaux: Unplugged + From The Cradle (2002) {2CD Set Warner France WE8865 rec 1992, 1994}

Posted By: ruskaval
Eric Clapton - Coffret 2CD Originaux: Unplugged + From The Cradle (2002) {2CD Set Warner France WE8865 rec 1992, 1994}

Eric Clapton - Coffret 2CD Originaux: Unplugged + From The Cradle (2002) {2CD Set Warner France WE8865 rec 1992, 1994}
EAC rip (secure mode) | FLAC (tracks)+CUE+LOG -> 802 Mb | MP3 @320 -> 288 Mb
Full Artwork @ 300 dpi (png) -> 165 Mb | 5% repair rar
© 1992, 1994, 2002 Reprise / Warner France | WE8865
Rock / Blues / Blues Rock / Classic Rock

This limited edition is released in a strong cardboard box, where the 2 CDs in jewel cases are packed. The box set consists in an inner and an outer box.

Eric Clapton - Coffret 2CD Originaux: Unplugged + From The Cradle (2002) {2CD Set Warner France WE8865 rec 1992, 1994}


Unplugged: Eric Clapton's Unplugged was responsible for making acoustic-based music, and Unplugged albums in particular, a hot trend in the early '90s. Clapton's concert was not only one of the finest Unplugged episodes, but was also some of the finest music he had recorded in years. Instead of the slick productions that tainted his '80s albums, the music was straightforward and direct, alternating between his pop numbers and traditional blues songs. The result was some of the most genuine, heartfelt music the guitarist has ever committed to tape. And some of his most popular – the album sold over seven million copies in the U.S. and won several Grammies.

From The Cradle: For years, fans craved an all-blues album from Eric Clapton; he waited until 1994 to deliver From the Cradle. The album manages to re-create the ambience of postwar electric blues, right down to the bottomless thump of the rhythm section. If it wasn't for Clapton's labored vocals, everything would be perfect. As long as he plays his guitar, he can't fail – his solos are white-hot and evocative, original and captivating. When he sings, Clapton loses that sense of originality, choosing to mimic the vocals of the original recordings. At times, his overemotive singing is painful; he doesn't have the strength to pull off Howlin' Wolf's growl or the confidence to replicate Muddy Waters' assured phrasing. Yet, whenever he plays, it's easier to forget his vocal shortcomings. Even with its faults, From the Cradle is one of Clapton's finest moments.

Track Listing

CD1
Eric Clapton - Unplugged (1992) {Reprise Records, FRANCE WE 833, 9362-45024-2}


1 Signe 3:13
2 Before You Accuse Me 3:44
3 Hey Hey 3:16
4 Tears In Heaven 4:34
5 Lonely Stranger 5:28
6 Nobody Knows You When You're Down & Out 3:51
7 Layla 4:50
8 Running On Faith 6:22
9 Walkin' Blues 3:37
10 Alberta 3:42
11 San Francisco Bay Blues 3:23
12 Malted Milk 3:36
13 Old Love 7:53
14 Rollin' & Tumblin' 4:11

Eric Clapton - Coffret 2CD Originaux: Unplugged + From The Cradle (2002) {2CD Set Warner France WE8865 rec 1992, 1994}

Eric Clapton - Coffret 2CD Originaux: Unplugged + From The Cradle (2002) {2CD Set Warner France WE8865 rec 1992, 1994}


CD2
Eric Clapton - From The Cradle (1994) {Reprise Records, FRANCE WE 833, 9362-45735-2}


1 Blues Before Sunrise 2:58
2 Third Degree 5:09
3 Reconsider Baby 3:20
4 Hoochie Coochie Man 3:16
5 Five Long Years 4:48
6 I'm Tore Down 3:03
7 How Long Blues 3:08
8 Goin' Away Baby 4:01
9 Blues Leave Me Alone 3:37
10 Sinner's Prayer 3:21
11 Motherless Child 2:57
12 It Hurts Me Too 3:19
13 Someday After A While 4:28
14 Standin' Round Crying 3:38
15 Driftin' 3:09
16 Groaning The Blues 6:07

Eric Clapton - Coffret 2CD Originaux: Unplugged + From The Cradle (2002) {2CD Set Warner France WE8865 rec 1992, 1994}

Eric Clapton - Coffret 2CD Originaux: Unplugged + From The Cradle (2002) {2CD Set Warner France WE8865 rec 1992, 1994}


Exact Audio Copy V1.0 beta 1 from 15. November 2010

EAC extraction logfile from 14. May 2011, 2:22

Eric Clapton / Unplugged

Used drive : HL-DT-STDVDRAM_GT30N Adapter: 1 ID: 0

Read mode : Secure
Utilize accurate stream : Yes
Defeat audio cache : Yes
Make use of C2 pointers : No

Read offset correction : 103
Overread into Lead-In and Lead-Out : No
Fill up missing offset samples with silence : Yes
Delete leading and trailing silent blocks : No
Null samples used in CRC calculations : Yes
Used interface : Native Win32 interface for Win NT & 2000
Gap handling : Appended to previous track

Used output format : User Defined Encoder
Selected bitrate : 640 kBit/s
Quality : High
Add ID3 tag : No
Command line compressor : C:\Program Files\Exact Audio Copy 1.0beta1\Flac\flac.exe
Additional command line options : -8 -V -T "ARTIST=%a" -T "TITLE=%t" -T "ALBUM=%g" -T "DATE=%y" -T "TRACKNUMBER=%n" -T "TOTALTRACKS=%x" -T "GENRE=%m" -T "ALBUMARTIST=%v" -T "ALBUM ARTIST=%v" -T "COMMENT=EAC Secure Mode, Test & Copy, AccurateRip, FLAC -8" %s


TOC of the extracted CD

Track | Start | Length | Start sector | End sector
––––––––––––––––––––––––––––-
1 | 0:00.00 | 3:14.13 | 0 | 14562
2 | 3:14.13 | 3:44.15 | 14563 | 31377
3 | 6:58.28 | 3:16.27 | 31378 | 46104
4 | 10:14.55 | 4:36.08 | 46105 | 66812
5 | 14:50.63 | 5:27.20 | 66813 | 91357
6 | 20:18.08 | 3:49.12 | 91358 | 108544
7 | 24:07.20 | 4:46.10 | 108545 | 130004
8 | 28:53.30 | 6:29.50 | 130005 | 159229
9 | 35:23.05 | 3:37.28 | 159230 | 175532
10 | 39:00.33 | 3:42.25 | 175533 | 192207
11 | 42:42.58 | 3:23.25 | 192208 | 207457
12 | 46:06.08 | 3:36.35 | 207458 | 223692
13 | 49:42.43 | 7:53.02 | 223693 | 259169
14 | 57:35.45 | 4:11.53 | 259170 | 278047


Track 1

Filename I:\my upload\Eric Clapton - Coffret 2CD Originaux (2002) [FLAC] {Unplugged + From The Cradle, FRANCE WE8865}\Eric Clapton - Unplugged (1992) [FLAC] {Reprise Records, WE 833, 9362-45024-2}\01 - Signe.wav

Pre-gap length 0:00:02.00

Peak level 99.7 %
Extraction speed 1.2 X
Track quality 100.0 %
Test CRC 23F32018
Copy CRC 23F32018
Accurately ripped (confidence 18) [1BAD68BA]
Copy OK

Track 2

Filename I:\my upload\Eric Clapton - Coffret 2CD Originaux (2002) [FLAC] {Unplugged + From The Cradle, FRANCE WE8865}\Eric Clapton - Unplugged (1992) [FLAC] {Reprise Records, WE 833, 9362-45024-2}\02 - Before You Accuse Me.wav

Peak level 98.9 %
Extraction speed 1.3 X
Track quality 100.0 %
Test CRC 96472F98
Copy CRC 96472F98
Accurately ripped (confidence 18) [742AAE33]
Copy OK

Track 3

Filename I:\my upload\Eric Clapton - Coffret 2CD Originaux (2002) [FLAC] {Unplugged + From The Cradle, FRANCE WE8865}\Eric Clapton - Unplugged (1992) [FLAC] {Reprise Records, WE 833, 9362-45024-2}\03 - Hey Hey.wav

Peak level 99.8 %
Extraction speed 1.4 X
Track quality 100.0 %
Test CRC 37865F65
Copy CRC 37865F65
Accurately ripped (confidence 18) [F309EE19]
Copy OK

Track 4

Filename I:\my upload\Eric Clapton - Coffret 2CD Originaux (2002) [FLAC] {Unplugged + From The Cradle, FRANCE WE8865}\Eric Clapton - Unplugged (1992) [FLAC] {Reprise Records, WE 833, 9362-45024-2}\04 - Tears In Heaven.wav

Peak level 99.8 %
Extraction speed 1.6 X
Track quality 100.0 %
Test CRC 861A19A7
Copy CRC 861A19A7
Accurately ripped (confidence 18) [3735EEE7]
Copy OK

Track 5

Filename I:\my upload\Eric Clapton - Coffret 2CD Originaux (2002) [FLAC] {Unplugged + From The Cradle, FRANCE WE8865}\Eric Clapton - Unplugged (1992) [FLAC] {Reprise Records, WE 833, 9362-45024-2}\05 - Lonely Stranger.wav

Peak level 99.8 %
Extraction speed 1.7 X
Track quality 100.0 %
Test CRC 70C8AB5C
Copy CRC 70C8AB5C
Accurately ripped (confidence 18) [E12A8A08]
Copy OK

Track 6

Filename I:\my upload\Eric Clapton - Coffret 2CD Originaux (2002) [FLAC] {Unplugged + From The Cradle, FRANCE WE8865}\Eric Clapton - Unplugged (1992) [FLAC] {Reprise Records, WE 833, 9362-45024-2}\06 - Nobody Knows You When You're Down And Out.wav

Peak level 99.8 %
Extraction speed 1.7 X
Track quality 100.0 %
Test CRC 823E60B2
Copy CRC 823E60B2
Accurately ripped (confidence 18) [7F740475]
Copy OK

Track 7

Filename I:\my upload\Eric Clapton - Coffret 2CD Originaux (2002) [FLAC] {Unplugged + From The Cradle, FRANCE WE8865}\Eric Clapton - Unplugged (1992) [FLAC] {Reprise Records, WE 833, 9362-45024-2}\07 - Layla.wav

Peak level 99.8 %
Extraction speed 1.9 X
Track quality 100.0 %
Test CRC 2E073F10
Copy CRC 2E073F10
Accurately ripped (confidence 18) [8028AF91]
Copy OK

Track 8

Filename I:\my upload\Eric Clapton - Coffret 2CD Originaux (2002) [FLAC] {Unplugged + From The Cradle, FRANCE WE8865}\Eric Clapton - Unplugged (1992) [FLAC] {Reprise Records, WE 833, 9362-45024-2}\08 - Running On Faith.wav

Peak level 99.0 %
Extraction speed 2.1 X
Track quality 100.0 %
Test CRC 8079483E
Copy CRC 8079483E
Accurately ripped (confidence 18) [EA3BAEDB]
Copy OK

Track 9

Filename I:\my upload\Eric Clapton - Coffret 2CD Originaux (2002) [FLAC] {Unplugged + From The Cradle, FRANCE WE8865}\Eric Clapton - Unplugged (1992) [FLAC] {Reprise Records, WE 833, 9362-45024-2}\09 - Walkin' Blues.wav

Peak level 91.0 %
Extraction speed 2.1 X
Track quality 100.0 %
Test CRC 6D99352E
Copy CRC 6D99352E
Accurately ripped (confidence 18) [E136742F]
Copy OK

Track 10

Filename I:\my upload\Eric Clapton - Coffret 2CD Originaux (2002) [FLAC] {Unplugged + From The Cradle, FRANCE WE8865}\Eric Clapton - Unplugged (1992) [FLAC] {Reprise Records, WE 833, 9362-45024-2}\10 - Alberta.wav

Peak level 99.8 %
Extraction speed 2.1 X
Track quality 100.0 %
Test CRC 495BC27A
Copy CRC 495BC27A
Accurately ripped (confidence 18) [B0DEDD40]
Copy OK

Track 11

Filename I:\my upload\Eric Clapton - Coffret 2CD Originaux (2002) [FLAC] {Unplugged + From The Cradle, FRANCE WE8865}\Eric Clapton - Unplugged (1992) [FLAC] {Reprise Records, WE 833, 9362-45024-2}\11 - San Francisco Bay Blues.wav

Peak level 99.8 %
Extraction speed 2.2 X
Track quality 100.0 %
Test CRC 5EA797D9
Copy CRC 5EA797D9
Accurately ripped (confidence 18) [0B363145]
Copy OK

Track 12

Filename I:\my upload\Eric Clapton - Coffret 2CD Originaux (2002) [FLAC] {Unplugged + From The Cradle, FRANCE WE8865}\Eric Clapton - Unplugged (1992) [FLAC] {Reprise Records, WE 833, 9362-45024-2}\12 - Malted Milk.wav

Peak level 89.6 %
Extraction speed 2.3 X
Track quality 100.0 %
Test CRC D9323E2C
Copy CRC D9323E2C
Accurately ripped (confidence 18) [FE296411]
Copy OK

Track 13

Filename I:\my upload\Eric Clapton - Coffret 2CD Originaux (2002) [FLAC] {Unplugged + From The Cradle, FRANCE WE8865}\Eric Clapton - Unplugged (1992) [FLAC] {Reprise Records, WE 833, 9362-45024-2}\13 - Old Love.wav

Peak level 99.8 %
Extraction speed 2.6 X
Track quality 100.0 %
Test CRC CECE71AD
Copy CRC CECE71AD
Accurately ripped (confidence 18) [F66A0C51]
Copy OK

Track 14

Filename I:\my upload\Eric Clapton - Coffret 2CD Originaux (2002) [FLAC] {Unplugged + From The Cradle, FRANCE WE8865}\Eric Clapton - Unplugged (1992) [FLAC] {Reprise Records, WE 833, 9362-45024-2}\14 - Rollin' And Tumblin'.wav

Pre-gap length 0:00:01.05

Peak level 98.9 %
Extraction speed 2.2 X
Track quality 99.9 %
Test CRC C0E615E1
Copy CRC C0E615E1
Accurately ripped (confidence 18) [4391E68E]
Copy OK


All tracks accurately ripped

No errors occurred

End of status report

==== Log checksum 858BF3BF25AEEAB745CC5DA171DA44A8BE5BE6C08D4D5CF820C949ED99AE13EB ====



Exact Audio Copy V1.0 beta 1 from 15. November 2010

EAC extraction logfile from 10. May 2011, 15:30

Eric Clapton / From The Cradle

Used drive : HL-DT-STDVDRAM_GT30N Adapter: 1 ID: 0

Read mode : Secure
Utilize accurate stream : Yes
Defeat audio cache : Yes
Make use of C2 pointers : No

Read offset correction : 103
Overread into Lead-In and Lead-Out : No
Fill up missing offset samples with silence : Yes
Delete leading and trailing silent blocks : No
Null samples used in CRC calculations : Yes
Used interface : Native Win32 interface for Win NT & 2000
Gap handling : Appended to previous track

Used output format : User Defined Encoder
Selected bitrate : 640 kBit/s
Quality : High
Add ID3 tag : No
Command line compressor : C:\Program Files\Exact Audio Copy 1.0beta1\Flac\flac.exe
Additional command line options : -8 -V -T "ARTIST=%a" -T "TITLE=%t" -T "ALBUM=%g" -T "DATE=%y" -T "TRACKNUMBER=%n" -T "TOTALTRACKS=%x" -T "GENRE=%m" -T "ALBUMARTIST=%v" -T "ALBUM ARTIST=%v" -T "COMMENT=EAC Secure Mode, Test & Copy, AccurateRip, FLAC -8" %s


TOC of the extracted CD

Track | Start | Length | Start sector | End sector
––––––––––––––––––––––––––––-
1 | 0:00.00 | 2:57.53 | 0 | 13327
2 | 2:57.53 | 5:08.60 | 13328 | 36487
3 | 8:06.38 | 3:20.22 | 36488 | 51509
4 | 11:26.60 | 3:15.60 | 51510 | 66194
5 | 14:42.45 | 4:47.70 | 66195 | 87789
6 | 19:30.40 | 3:02.40 | 87790 | 101479
7 | 22:33.05 | 3:08.33 | 101480 | 115612
8 | 25:41.38 | 4:01.15 | 115613 | 133702
9 | 29:42.53 | 3:37.05 | 133703 | 149982
10 | 33:19.58 | 3:20.60 | 149983 | 165042
11 | 36:40.43 | 2:57.12 | 165043 | 178329
12 | 39:37.55 | 3:19.25 | 178330 | 193279
13 | 42:57.05 | 4:28.05 | 193280 | 213384
14 | 47:25.10 | 3:38.23 | 213385 | 229757
15 | 51:03.33 | 3:08.42 | 229758 | 243899
16 | 54:12.00 | 6:06.60 | 243900 | 271409


Track 1

Filename I:\my upload\Eric Clapton - Coffret 2CD Originaux (1992) [FLAC] {Unplugged + From The Cradle, FRANCE WE8865}\Eric Clapton - From The Cradle (1994) [FLAC] {Reprise Records, FRANCE WE 833, 9362-45735-2}\01 - Blues Before Sunrise.wav

Pre-gap length 0:00:02.00

Peak level 100.0 %
Extraction speed 1.2 X
Track quality 100.0 %
Test CRC 71B7D406
Copy CRC 71B7D406
Accurately ripped (confidence 18) [ECB607F5]
Copy OK

Track 2

Filename I:\my upload\Eric Clapton - Coffret 2CD Originaux (1992) [FLAC] {Unplugged + From The Cradle, FRANCE WE8865}\Eric Clapton - From The Cradle (1994) [FLAC] {Reprise Records, FRANCE WE 833, 9362-45735-2}\02 - Third Degree.wav

Peak level 100.0 %
Extraction speed 1.2 X
Track quality 99.9 %
Test CRC 782F4F39
Copy CRC 782F4F39
Accurately ripped (confidence 18) [CFC0F368]
Copy OK

Track 3

Filename I:\my upload\Eric Clapton - Coffret 2CD Originaux (1992) [FLAC] {Unplugged + From The Cradle, FRANCE WE8865}\Eric Clapton - From The Cradle (1994) [FLAC] {Reprise Records, FRANCE WE 833, 9362-45735-2}\03 - Reconsider Baby.wav

Peak level 100.0 %
Extraction speed 1.4 X
Track quality 100.0 %
Test CRC 74E801E5
Copy CRC 74E801E5
Accurately ripped (confidence 18) [70C91402]
Copy OK

Track 4

Filename I:\my upload\Eric Clapton - Coffret 2CD Originaux (1992) [FLAC] {Unplugged + From The Cradle, FRANCE WE8865}\Eric Clapton - From The Cradle (1994) [FLAC] {Reprise Records, FRANCE WE 833, 9362-45735-2}\04 - Hoochie Coochie Man.wav

Peak level 100.0 %
Extraction speed 1.5 X
Track quality 100.0 %
Test CRC 577B6A77
Copy CRC 577B6A77
Accurately ripped (confidence 18) [EB683714]
Copy OK

Track 5

Filename I:\my upload\Eric Clapton - Coffret 2CD Originaux (1992) [FLAC] {Unplugged + From The Cradle, FRANCE WE8865}\Eric Clapton - From The Cradle (1994) [FLAC] {Reprise Records, FRANCE WE 833, 9362-45735-2}\05 - Five Long Years.wav

Peak level 100.0 %
Extraction speed 1.7 X
Track quality 100.0 %
Test CRC 03ADE9BA
Copy CRC 03ADE9BA
Accurately ripped (confidence 18) [E3C3A3A7]
Copy OK

Track 6

Filename I:\my upload\Eric Clapton - Coffret 2CD Originaux (1992) [FLAC] {Unplugged + From The Cradle, FRANCE WE8865}\Eric Clapton - From The Cradle (1994) [FLAC] {Reprise Records, FRANCE WE 833, 9362-45735-2}\06 - I'm Tore Down.wav

Peak level 100.0 %
Extraction speed 1.7 X
Track quality 100.0 %
Test CRC 4A9F2DA2
Copy CRC 4A9F2DA2
Accurately ripped (confidence 18) [E33608DA]
Copy OK

Track 7

Filename I:\my upload\Eric Clapton - Coffret 2CD Originaux (1992) [FLAC] {Unplugged + From The Cradle, FRANCE WE8865}\Eric Clapton - From The Cradle (1994) [FLAC] {Reprise Records, FRANCE WE 833, 9362-45735-2}\07 - How Long Blues.wav

Peak level 100.0 %
Extraction speed 1.7 X
Track quality 100.0 %
Test CRC 797585B3
Copy CRC 797585B3
Accurately ripped (confidence 18) [40904499]
Copy OK

Track 8

Filename I:\my upload\Eric Clapton - Coffret 2CD Originaux (1992) [FLAC] {Unplugged + From The Cradle, FRANCE WE8865}\Eric Clapton - From The Cradle (1994) [FLAC] {Reprise Records, FRANCE WE 833, 9362-45735-2}\08 - Goin' Away Baby.wav

Peak level 100.0 %
Extraction speed 1.9 X
Track quality 100.0 %
Test CRC 94A28E48
Copy CRC 94A28E48
Accurately ripped (confidence 18) [6C147A6F]
Copy OK

Track 9

Filename I:\my upload\Eric Clapton - Coffret 2CD Originaux (1992) [FLAC] {Unplugged + From The Cradle, FRANCE WE8865}\Eric Clapton - From The Cradle (1994) [FLAC] {Reprise Records, FRANCE WE 833, 9362-45735-2}\09 - Blues Leave Me Alone.wav

Peak level 100.0 %
Extraction speed 1.9 X
Track quality 100.0 %
Test CRC 6ECED8B7
Copy CRC 6ECED8B7
Accurately ripped (confidence 18) [F6025995]
Copy OK

Track 10

Filename I:\my upload\Eric Clapton - Coffret 2CD Originaux (1992) [FLAC] {Unplugged + From The Cradle, FRANCE WE8865}\Eric Clapton - From The Cradle (1994) [FLAC] {Reprise Records, FRANCE WE 833, 9362-45735-2}\10 - Sinner's Prayer.wav

Peak level 100.0 %
Extraction speed 2.0 X
Track quality 100.0 %
Test CRC E64FAD63
Copy CRC E64FAD63
Accurately ripped (confidence 18) [8D2CC0CA]
Copy OK

Track 11

Filename I:\my upload\Eric Clapton - Coffret 2CD Originaux (1992) [FLAC] {Unplugged + From The Cradle, FRANCE WE8865}\Eric Clapton - From The Cradle (1994) [FLAC] {Reprise Records, FRANCE WE 833, 9362-45735-2}\11 - Motherless Child.wav

Peak level 100.0 %
Extraction speed 2.0 X
Track quality 100.0 %
Test CRC 9F6493E9
Copy CRC 9F6493E9
Accurately ripped (confidence 18) [7E82A0F2]
Copy OK

Track 12

Filename I:\my upload\Eric Clapton - Coffret 2CD Originaux (1992) [FLAC] {Unplugged + From The Cradle, FRANCE WE8865}\Eric Clapton - From The Cradle (1994) [FLAC] {Reprise Records, FRANCE WE 833, 9362-45735-2}\12 - It Hurts Me Too.wav

Peak level 100.0 %
Extraction speed 2.1 X
Track quality 100.0 %
Test CRC 05BEB5AE
Copy CRC 05BEB5AE
Accurately ripped (confidence 18) [A28272B6]
Copy OK

Track 13

Filename I:\my upload\Eric Clapton - Coffret 2CD Originaux (1992) [FLAC] {Unplugged + From The Cradle, FRANCE WE8865}\Eric Clapton - From The Cradle (1994) [FLAC] {Reprise Records, FRANCE WE 833, 9362-45735-2}\13 - Someday After a While.wav

Peak level 100.0 %
Extraction speed 2.3 X
Track quality 100.0 %
Test CRC 04767C58
Copy CRC 04767C58
Accurately ripped (confidence 18) [0327D6C0]
Copy OK

Track 14

Filename I:\my upload\Eric Clapton - Coffret 2CD Originaux (1992) [FLAC] {Unplugged + From The Cradle, FRANCE WE8865}\Eric Clapton - From The Cradle (1994) [FLAC] {Reprise Records, FRANCE WE 833, 9362-45735-2}\14 - Standin' Round Crying.wav

Peak level 100.0 %
Extraction speed 2.3 X
Track quality 100.0 %
Test CRC CA2F94CC
Copy CRC CA2F94CC
Accurately ripped (confidence 18) [8515163E]
Copy OK

Track 15

Filename I:\my upload\Eric Clapton - Coffret 2CD Originaux (1992) [FLAC] {Unplugged + From The Cradle, FRANCE WE8865}\Eric Clapton - From The Cradle (1994) [FLAC] {Reprise Records, FRANCE WE 833, 9362-45735-2}\15 - Driftin'.wav

Peak level 100.0 %
Extraction speed 2.3 X
Track quality 100.0 %
Test CRC 4C9AF694
Copy CRC 4C9AF694
Accurately ripped (confidence 18) [1835273D]
Copy OK

Track 16

Filename I:\my upload\Eric Clapton - Coffret 2CD Originaux (1992) [FLAC] {Unplugged + From The Cradle, FRANCE WE8865}\Eric Clapton - From The Cradle (1994) [FLAC] {Reprise Records, FRANCE WE 833, 9362-45735-2}\16 - Groaning the Blues.wav

Peak level 100.0 %
Extraction speed 2.6 X
Track quality 100.0 %
Test CRC 0E91472F
Copy CRC 0E91472F
Accurately ripped (confidence 18) [88F2F023]
Copy OK


All tracks accurately ripped

No errors occurred

End of status report

==== Log checksum FB78E2A924E71EA0171D35E087C2093A34436F661302241EB774C0ED4906488E ====


Eric Clapton - Coffret 2CD Originaux: Unplugged + From The Cradle (2002) {2CD Set Warner France WE8865 rec 1992, 1994}



===