Subcategories

Erik Satie - Oeuvres Pour Piano - Piano Works - Aldo Ciccolini (1991) {2CD Set EMI Classics rec 1966-1971}

Posted By: ruskaval
Erik Satie - Oeuvres Pour Piano - Piano Works - Aldo Ciccolini (1991) {2CD Set EMI Classics rec 1966-1971}

Erik Satie - Oeuvres Pour Piano - Piano Works - Aldo Ciccolini (1991) {2CD Set EMI Classics rec 1966-1971}
XLD rip (secure mode) | FLAC (tracks)+CUE+LOG -> 536 Mb | MP3 @320 -> 339 Mb
Full Artwork @ 300 dpi (png) -> 37 Mb | 5% repair rar
© 1966-71, 1991 EMI France | EMI Classics | CZS 7 67282 2
Classical / Modern / Early 20th Century / Piano

It's simple: in his various realizations of the piano music of Erik Satie, Aldo Ciccolini set a standard that has yet to be bettered. This compilation, drawn from recordings made between 1966 and 1971, is consequently the best of the best. Ciccolini always played Satie's music as though it had been written by Claude Debussy, not by some cheap charlatan or uneducated primitive (which, to an extent that is still debatable, Satie was). The result is that these seemingly simple piano pieces acquire a tonal allure that is as surprising as it is undeniable. They possess an understated sophistication that points directly toward Ravel and Poulenc, at the same time providing an opening to the minimalist aesthetic of the later 20th century. Ciccolini's playing is pliant and graceful, and under his fingers the music seems to breathe and come alive. What more could a composer or a listener want? –Ted Libbey

Musicians
Aldo Ciccolini - piano

Track Listing

CD1

01 - Trois Gymnopedies - I. Lent et douloureux
02 - Trois Gymnopedies - II. Lent et triste
03 - Trois Gymnopedies - III. Lent et grave
04 - Les Trois Valses distinguees du precieux degoute - I. Sa taille
05 - Les Trois Valses distinguees du precieux degoute - II. Son binocle
06 - Les Trois Valses distinguees du precieux degoute - III. Ses jambes
07 - Trois Gnossiennes - I. Lent
08 - Trois Gnossiennes - II. Avec etonnement
09 - Trois Gnossiennes - III. Lent
10 - Trois Gnossiennes - IV. Lent
11 - Trois Gnossiennes - V. Modere
12 - Trois Gnossiennes - VI. Avec conviction et avec une tristesse rigoureuse
13 - Trois Mouvements en forme de poire, a quatre mains - Maniere de commencement
14 - Trois Mouvements en forme de poire, a quatre mains - Prolongation du meme
15 - Trois Mouvements en forme de poire, a quatre mains - I
16 - Trois Mouvements en forme de poire, a quatre mains - II
17 - Trois Mouvements en forme de poire, a quatre mains - III
18 - Trois Mouvements en forme de poire, a quatre mains - En plus
19 - Trois Mouvements en forme de poire, a quatre mains - Redite
20 - Croquis et agaceries d'un gros bonhomme en bois - I. Tyrolienne turque
21 - Croquis et agaceries d'un gros bonhomme en bois - II. Danse maigre (a la maniere de ces messieurs)
22 - Croquis et agaceries d'un gros bonhomme en bois - III. Espanana (sorte de valse)
23 - Croquis et agaceries d'un gros bonhomme en bois - Sonatine bureaucratique
24 - Trois Nocturnes - I. Doux et calme
25 - Trois Nocturnes - II. Simplement
26 - Trois Nocturnes - III. Un peu mouvemente
27 - Premiere pensee et sonneries de la Rose + Croix - I. Air de l'Ordre
28 - Premiere pensee et sonneries de la Rose + Croix - II. Air du Grand Maitre
29 - Premiere pensee et sonneries de la Rose + Croix - III. Air du Grand Prieur
30 - Le Fils des etoiles, wagnerie kaldeenne du Sar Peladan - Prelude du 1er acte. La Vocation
31 - Le Fils des etoiles, wagnerie kaldeenne du Sar Peladan - Prelude du 2e acte. L'Initiation
32 - Le Fils des etoiles, wagnerie kaldeenne du Sar Peladan - Prelude du 3e acte. L'Incantation

Erik Satie - Oeuvres Pour Piano - Piano Works - Aldo Ciccolini (1991) {2CD Set EMI Classics rec 1966-1971}


CD2
01 - Jack in the box - Prelude
02 - Jack in the box - Entracte
03 - Jack in the box - Final
04 - Sports et divertissements - Choral inappetissant
05 - Sports et divertissements - La Balancoire
06 - Sports et divertissements - La Chasse
07 - Sports et divertissements - La Comedie italienne (a la napolitaine)
08 - Sports et divertissements - Le Reveil de la Mariee
09 - Sports et divertissements - Colin-Maillard
10 - Sports et divertissements - La Peche
11 - Sports et divertissements - Le Yachting
12 - Sports et divertissements - Le Bain de mer
13 - Sports et divertissements - Le Carnaval
14 - Sports et divertissements - Le Golf
15 - Sports et divertissements - La Pieuvre
16 - Sports et divertissements - Les Courses
17 - Sports et divertissements - Les Quatre-Coins
18 - Sports et divertissements - Le Pique-nique
19 - Sports et divertissements - Le Water-chute
20 - Sports et divertissements - Le Tango
21 - Sports et divertissements - Le Traineau
22 - Sports et divertissements - Le Flirt
23 - Sports et divertissements - Le Feu d'artifice
24 - Sports et divertissements - Le Tennis
25 - Embryons desseches - I. D'Holothurie
26 - Embryons desseches - II. D'Edriophtalma
27 - Embryons desseches - III. De Podophtalma
28 - Preludes flasques (pour un chien) - I. Voix d'interieur
29 - Preludes flasques (pour un chien) - II. Idylle cynique
30 - Preludes flasques (pour un chien) - III. Chanson canine
31 - Preludes flasques (pour un chien) - IV. Avec camaraderie
32 - En habit de cheval (a 4 mains) - I. Choral
33 - En habit de cheval (a 4 mains) - II. Fugue litanique
34 - En habit de cheval (a 4 mains) - III. Autre chose
35 - En habit de cheval (a 4 mains) - IV. Fugue de papier
36 - Apercus desagreables - I. Pastorale
37 - Apercus desagreables - II. Choral
38 - Apercus desagreables - III. Fugue
39 - Descriptions automatiques - I. Sur un vaisseau
40 - Descriptions automatiques - II. Sur une lanterne
41 - Descriptions automatiques - III. Sur un casque
42 - Trois Petites pieces montees (a 4 mains) - De l'enfance de Pantagruel (Reverie)
43 - Trois Petites pieces montees (a 4 mains) - Marche de Cocagne (Demarche)
44 - Trois Petites pieces montees (a 4 mains) - Jeux de Gargantua (Coin de Polka)
45 - Peccadilles importunes - Etre jaloux de son camarade qui a une grosse tete)
46 - Peccadilles importunes - Lui manger sa tartine
47 - Peccadilles importunes - Profiter de ce qu'il a des cors aux pieds pour lui voler son cerceau
48 - Pieces froides. No.1. Airs a faire fuir. I. D'une maniere particuliere
49 - Pieces froides. No.1. Airs a faire fuir. II. Modestement
50 - Pieces froides. No.1. Airs a faire fuir. III. S'inviter
51 - Pieces froides. No.2. Danses de travers. I. En y regardent par deux fois
52 - Pieces froides. No.2. Danses de travers. II. Passer
53 - Pieces froides. No.2. Danses de travers. III. Encore
54 - La belle excentrique, fantaisie serieuse pour piano a 4 mains - I. Grande ritournelle
55 - La belle excentrique, fantaisie serieuse pour piano a 4 mains - II. Marche franco-lunaire
56 - La belle excentrique, fantaisie serieuse pour piano a 4 mains - III. Valse du 'Mysterieux baiser dans l'oeil'
57 - La belle excentrique, fantaisie serieuse pour piano a 4 mains - IV. Can-can grand-mondain
58 - Trois Sarabandes - No. 1
59 - Trois Sarabandes - No. 2
60 - Trois Sarabandes - No. 3

Erik Satie - Oeuvres Pour Piano - Piano Works - Aldo Ciccolini (1991) {2CD Set EMI Classics rec 1966-1971}


X Lossless Decoder version 20130407 (143.0)

XLD extraction logfile from 2014-03-03 08:56:31 -0800

Aldo Ciccolini / Satie - Oeuvres pour piano CD1

Used drive : HL-DT-ST DVDRW GA32N (revision KE06)
Media type : Pressed CD

Ripper mode : XLD Secure Ripper
Disable audio cache : OK for the drive with a cache less than 1375KiB
Make use of C2 pointers : NO
Read offset correction : 103
Max retry count : 100
Gap status : Analyzed, Appended (except HTOA)

TOC of the extracted CD
Track | Start | Length | Start sector | End sector
––––––––––––––––––––––––––––-
1 | 00:00:32 | 03:02:48 | 32 | 13729
2 | 03:03:05 | 02:22:55 | 13730 | 24434
3 | 05:25:60 | 02:14:55 | 24435 | 34539
4 | 07:40:40 | 00:57:12 | 34540 | 38826
5 | 08:37:52 | 00:58:25 | 38827 | 43201
6 | 09:36:02 | 00:40:45 | 43202 | 46246
7 | 10:16:47 | 02:45:73 | 46247 | 58694
8 | 13:02:45 | 01:32:72 | 58695 | 65666
9 | 14:35:42 | 02:23:55 | 65667 | 76446
10 | 16:59:22 | 02:05:68 | 76447 | 85889
11 | 19:05:15 | 03:10:27 | 85890 | 100166
12 | 22:15:42 | 01:07:73 | 100167 | 105264
13 | 23:23:40 | 02:19:10 | 105265 | 115699
14 | 25:42:50 | 00:55:07 | 115700 | 119831
15 | 26:37:57 | 01:24:18 | 119832 | 126149
16 | 28:02:00 | 02:25:57 | 126150 | 137081
17 | 30:27:57 | 02:00:33 | 137082 | 146114
18 | 32:28:15 | 01:43:37 | 146115 | 153876
19 | 34:11:52 | 01:28:60 | 153877 | 160536
20 | 35:40:37 | 01:11:10 | 160537 | 165871
21 | 36:51:47 | 01:24:18 | 165872 | 172189
22 | 38:15:65 | 01:10:45 | 172190 | 177484
23 | 39:26:35 | 03:37:00 | 177485 | 193759
24 | 43:03:35 | 03:03:25 | 193760 | 207509
25 | 46:06:60 | 01:53:27 | 207510 | 216011
26 | 48:00:12 | 02:42:23 | 216012 | 228184
27 | 50:42:35 | 04:08:42 | 228185 | 246826
28 | 54:51:02 | 04:27:35 | 246827 | 266886
29 | 59:18:37 | 02:40:50 | 266887 | 278936
30 | 61:59:12 | 03:16:68 | 278937 | 293704
31 | 65:16:05 | 02:50:45 | 293705 | 306499
32 | 68:06:50 | 04:06:60 | 306500 | 325009

List of alternate offset correction values
# | Absolute | Relative | Confidence
–––––––––––––––––––––
1 | -9 | -112 | 16
2 | 145 | 42 | 2

AccurateRip Summary (DiscID: 004831b5-0677c6ca-ea10ed20)
Track 01 : OK (v1+v2, confidence 8/28)
Track 02 : OK (v1+v2, confidence 7/26)
Track 03 : OK (v1+v2, confidence 7/27)
Track 04 : OK (v1+v2, confidence 7/27)
Track 05 : OK (v1+v2, confidence 7/27)
Track 06 : OK (v1+v2, confidence 7/27)
Track 07 : OK (v1+v2, confidence 8/29)
Track 08 : OK (v1+v2, confidence 8/28)
Track 09 : OK (v1+v2, confidence 8/28)
Track 10 : OK (v1+v2, confidence 8/29)
Track 11 : OK (v1+v2, confidence 8/29)
Track 12 : OK (v1+v2, confidence 8/29)
Track 13 : OK (v1+v2, confidence 7/28)
Track 14 : OK (v1+v2, confidence 6/27)
Track 15 : OK (v1+v2, confidence 7/28)
Track 16 : OK (v1+v2, confidence 7/27)
Track 17 : OK (v1+v2, confidence 7/27)
Track 18 : OK (v1+v2, confidence 7/28)
Track 19 : OK (v1+v2, confidence 7/28)
Track 20 : OK (v1+v2, confidence 7/28)
Track 21 : OK (v1+v2, confidence 7/28)
Track 22 : OK (v1+v2, confidence 7/28)
Track 23 : OK (v1+v2, confidence 7/28)
Track 24 : OK (v1+v2, confidence 7/28)
Track 25 : OK (v1+v2, confidence 7/28)
Track 26 : OK (v1+v2, confidence 7/28)
Track 27 : OK (v1+v2, confidence 7/28)
Track 28 : OK (v1+v2, confidence 7/28)
Track 29 : OK (v1+v2, confidence 7/28)
Track 30 : OK (v1+v2, confidence 7/26)
Track 31 : OK (v1+v2, confidence 7/28)
Track 32 : OK (v1+v2, confidence 7/28)
->All tracks accurately ripped.

All Tracks
Album gain : 3.96 dB
Peak : 0.761292
Statistics
Read error : 0
Jitter error (maybe fixed) : 0
Retry sector count : 0
Damaged sector count : 0

Track 01
Filename : /Volumes/OWC Mercury Elite Pro - #2/Needs something/ Music/Eric Satie - Piano Works (1991) [FLAC] {EMI CZS 7 67282 2}/CD1/01 - Trois Gymnopedies - I. Lent et douloureux.flac
Pre-gap length : 00:02:32

Track gain : 11.27 dB
Peak : 0.176697
CRC32 hash (test run) : 7FABA818
CRC32 hash : 7FABA818
CRC32 hash (skip zero) : 8FDBF74C
AccurateRip v1 signature : EA226418
AccurateRip v2 signature : 381E26EC
->Accurately ripped (v1+v2, confidence 4+4/28)
Statistics
Read error : 0
Jitter error (maybe fixed) : 0
Retry sector count : 0
Damaged sector count : 0

Track 02
Filename : /Volumes/OWC Mercury Elite Pro - #2/Needs something/ Music/Eric Satie - Piano Works (1991) [FLAC] {EMI CZS 7 67282 2}/CD1/02 - Trois Gymnopedies - II. Lent et triste.flac
Pre-gap length : 00:02:33

Track gain : 10.67 dB
Peak : 0.318237
CRC32 hash (test run) : 9DE9BF04
CRC32 hash : 9DE9BF04
CRC32 hash (skip zero) : 58CF180B
AccurateRip v1 signature : 5ED147B2
AccurateRip v2 signature : 79FB5D81
->Accurately ripped (v1+v2, confidence 4+3/26)
Statistics
Read error : 0
Jitter error (maybe fixed) : 0
Retry sector count : 0
Damaged sector count : 0

Track 03
Filename : /Volumes/OWC Mercury Elite Pro - #2/Needs something/ Music/Eric Satie - Piano Works (1991) [FLAC] {EMI CZS 7 67282 2}/CD1/03 - Trois Gymnopedies - III. Lent et grave.flac
Pre-gap length : 00:02:33

Track gain : 10.64 dB
Peak : 0.230957
CRC32 hash (test run) : FAB88740
CRC32 hash : FAB88740
CRC32 hash (skip zero) : 9AF40DA3
AccurateRip v1 signature : 9F16BDAF
AccurateRip v2 signature : FC681B9E
->Accurately ripped (v1+v2, confidence 4+3/27)
Statistics
Read error : 0
Jitter error (maybe fixed) : 0
Retry sector count : 0
Damaged sector count : 0

Track 04
Filename : /Volumes/OWC Mercury Elite Pro - #2/Needs something/ Music/Eric Satie - Piano Works (1991) [FLAC] {EMI CZS 7 67282 2}/CD1/04 - Les Trois Valses distinguees du precieux degoute - I. Sa taille.flac
Pre-gap length : 00:05:18

Track gain : -2.60 dB
Peak : 0.737915
CRC32 hash (test run) : 4E7B42D5
CRC32 hash : 4E7B42D5
CRC32 hash (skip zero) : A618BA3E
AccurateRip v1 signature : 205C510A
AccurateRip v2 signature : BF7920C1
->Accurately ripped (v1+v2, confidence 3+4/27)
Statistics
Read error : 0
Jitter error (maybe fixed) : 0
Retry sector count : 0
Damaged sector count : 0

Track 05
Filename : /Volumes/OWC Mercury Elite Pro - #2/Needs something/ Music/Eric Satie - Piano Works (1991) [FLAC] {EMI CZS 7 67282 2}/CD1/05 - Les Trois Valses distinguees du precieux degoute - II. Son binocle.flac

Track gain : 10.49 dB
Peak : 0.175598
CRC32 hash (test run) : 4433137A
CRC32 hash : 4433137A
CRC32 hash (skip zero) : 17D5E79A
AccurateRip v1 signature : B9A2AB93
AccurateRip v2 signature : 3AAE56C3
->Accurately ripped (v1+v2, confidence 3+4/27)
Statistics
Read error : 0
Jitter error (maybe fixed) : 0
Retry sector count : 0
Damaged sector count : 0

Track 06
Filename : /Volumes/OWC Mercury Elite Pro - #2/Needs something/ Music/Eric Satie - Piano Works (1991) [FLAC] {EMI CZS 7 67282 2}/CD1/06 - Les Trois Valses distinguees du precieux degoute - III. Ses jambes.flac

Track gain : -2.03 dB
Peak : 0.755646
CRC32 hash (test run) : A2C1ACF0
CRC32 hash : A2C1ACF0
CRC32 hash (skip zero) : C75BDD54
AccurateRip v1 signature : C34C1D94
AccurateRip v2 signature : 67BF7050
->Accurately ripped (v1+v2, confidence 3+4/27)
Statistics
Read error : 0
Jitter error (maybe fixed) : 0
Retry sector count : 0
Damaged sector count : 0

Track 07
Filename : /Volumes/OWC Mercury Elite Pro - #2/Needs something/ Music/Eric Satie - Piano Works (1991) [FLAC] {EMI CZS 7 67282 2}/CD1/07 - Trois Gnossiennes - I. Lent.flac
Pre-gap length : 00:04:62

Track gain : 6.39 dB
Peak : 0.333771
CRC32 hash (test run) : 7E17BCF3
CRC32 hash : 7E17BCF3
CRC32 hash (skip zero) : C82C3052
AccurateRip v1 signature : 10FEED90
AccurateRip v2 signature : 7644FFC8
->Accurately ripped (v1+v2, confidence 4+4/29)
Statistics
Read error : 0
Jitter error (maybe fixed) : 0
Retry sector count : 0
Damaged sector count : 0

Track 08
Filename : /Volumes/OWC Mercury Elite Pro - #2/Needs something/ Music/Eric Satie - Piano Works (1991) [FLAC] {EMI CZS 7 67282 2}/CD1/08 - Trois Gnossiennes - II. Avec etonnement.flac
Pre-gap length : 00:02:33

Track gain : 8.84 dB
Peak : 0.229553
CRC32 hash (test run) : 1FDA5AD8
CRC32 hash : 1FDA5AD8
CRC32 hash (skip zero) : AAAD9EB9
AccurateRip v1 signature : 60985277
AccurateRip v2 signature : 67F5CA44
->Accurately ripped (v1+v2, confidence 4+4/28)
Statistics
Read error : 0
Jitter error (maybe fixed) : 0
Retry sector count : 0
Damaged sector count : 0

Track 09
Filename : /Volumes/OWC Mercury Elite Pro - #2/Needs something/ Music/Eric Satie - Piano Works (1991) [FLAC] {EMI CZS 7 67282 2}/CD1/09 - Trois Gnossiennes - III. Lent.flac
Pre-gap length : 00:02:32

Track gain : 9.93 dB
Peak : 0.232697
CRC32 hash (test run) : EEEA7FF5
CRC32 hash : EEEA7FF5
CRC32 hash (skip zero) : 5E584D24
AccurateRip v1 signature : 181E7F55
AccurateRip v2 signature : FAF33E1B
->Accurately ripped (v1+v2, confidence 4+4/28)
Statistics
Read error : 0
Jitter error (maybe fixed) : 0
Retry sector count : 0
Damaged sector count : 0

Track 10
Filename : /Volumes/OWC Mercury Elite Pro - #2/Needs something/ Music/Eric Satie - Piano Works (1991) [FLAC] {EMI CZS 7 67282 2}/CD1/10 - Trois Gnossiennes - IV. Lent.flac
Pre-gap length : 00:02:32

Track gain : 11.40 dB
Peak : 0.235168
CRC32 hash (test run) : AF282177
CRC32 hash : AF282177
CRC32 hash (skip zero) : 36DF5BF7
AccurateRip v1 signature : 64662F98
AccurateRip v2 signature : 8CA4F004
->Accurately ripped (v1+v2, confidence 4+4/29)
Statistics
Read error : 0
Jitter error (maybe fixed) : 0
Retry sector count : 0
Damaged sector count : 0

Track 11
Filename : /Volumes/OWC Mercury Elite Pro - #2/Needs something/ Music/Eric Satie - Piano Works (1991) [FLAC] {EMI CZS 7 67282 2}/CD1/11 - Trois Gnossiennes - V. Modere.flac
Pre-gap length : 00:02:33

Track gain : 12.15 dB
Peak : 0.210114
CRC32 hash (test run) : 4C7D2BC3
CRC32 hash : 4C7D2BC3
CRC32 hash (skip zero) : 387C0F46
AccurateRip v1 signature : 94B5BAA6
AccurateRip v2 signature : 55728F16
->Accurately ripped (v1+v2, confidence 4+4/29)
Statistics
Read error : 0
Jitter error (maybe fixed) : 0
Retry sector count : 0
Damaged sector count : 0

Track 12
Filename : /Volumes/OWC Mercury Elite Pro - #2/Needs something/ Music/Eric Satie - Piano Works (1991) [FLAC] {EMI CZS 7 67282 2}/CD1/12 - Trois Gnossiennes - VI. Avec conviction et avec une tristesse rigoureuse.flac
Pre-gap length : 00:02:32

Track gain : 9.50 dB
Peak : 0.237823
CRC32 hash (test run) : 9813FAF3
CRC32 hash : 9813FAF3
CRC32 hash (skip zero) : 77BF9941
AccurateRip v1 signature : D3C679CB
AccurateRip v2 signature : D312BFC8
->Accurately ripped (v1+v2, confidence 4+4/29)
Statistics
Read error : 0
Jitter error (maybe fixed) : 0
Retry sector count : 0
Damaged sector count : 0

Track 13
Filename : /Volumes/OWC Mercury Elite Pro - #2/Needs something/ Music/Eric Satie - Piano Works (1991) [FLAC] {EMI CZS 7 67282 2}/CD1/13 - Trois Mouvements en forme de poire, a quatre mains - Maniere de commencement.flac
Pre-gap length : 00:04:70

Track gain : 3.06 dB
Peak : 0.665222
CRC32 hash (test run) : 75112DC5
CRC32 hash : 75112DC5
CRC32 hash (skip zero) : 897CF457
AccurateRip v1 signature : D584F1D2
AccurateRip v2 signature : 7B7907F6
->Accurately ripped (v1+v2, confidence 3+4/28)
Statistics
Read error : 0
Jitter error (maybe fixed) : 0
Retry sector count : 0
Damaged sector count : 0

Track 14
Filename : /Volumes/OWC Mercury Elite Pro - #2/Needs something/ Music/Eric Satie - Piano Works (1991) [FLAC] {EMI CZS 7 67282 2}/CD1/14 - Trois Mouvements en forme de poire, a quatre mains - Prolongation du meme.flac

Track gain : -1.58 dB
Peak : 0.679321
CRC32 hash (test run) : DFEDA427
CRC32 hash : DFEDA427
CRC32 hash (skip zero) : 0CB314CD
AccurateRip v1 signature : AE835781
AccurateRip v2 signature : B0A88AE7
->Accurately ripped (v1+v2, confidence 3+3/27)
Statistics
Read error : 0
Jitter error (maybe fixed) : 0
Retry sector count : 0
Damaged sector count : 0

Track 15
Filename : /Volumes/OWC Mercury Elite Pro - #2/Needs something/ Music/Eric Satie - Piano Works (1991) [FLAC] {EMI CZS 7 67282 2}/CD1/15 - Trois Mouvements en forme de poire, a quatre mains - I.flac

Track gain : 4.54 dB
Peak : 0.622803
CRC32 hash (test run) : 3DB6EABF
CRC32 hash : 3DB6EABF
CRC32 hash (skip zero) : 140996C9
AccurateRip v1 signature : 85B741DC
AccurateRip v2 signature : C7844021
->Accurately ripped (v1+v2, confidence 3+4/28)
Statistics
Read error : 0
Jitter error (maybe fixed) : 0
Retry sector count : 0
Damaged sector count : 0

Track 16
Filename : /Volumes/OWC Mercury Elite Pro - #2/Needs something/ Music/Eric Satie - Piano Works (1991) [FLAC] {EMI CZS 7 67282 2}/CD1/16 - Trois Mouvements en forme de poire, a quatre mains - II.flac

Track gain : -0.07 dB
Peak : 0.648224
CRC32 hash (test run) : 44E5A079
CRC32 hash : 44E5A079
CRC32 hash (skip zero) : BD2C831E
AccurateRip v1 signature : B8D3EF92
AccurateRip v2 signature : C1E4FFE8
->Accurately ripped (v1+v2, confidence 3+4/27)
Statistics
Read error : 0
Jitter error (maybe fixed) : 0
Retry sector count : 0
Damaged sector count : 0

Track 17
Filename : /Volumes/OWC Mercury Elite Pro - #2/Needs something/ Music/Eric Satie - Piano Works (1991) [FLAC] {EMI CZS 7 67282 2}/CD1/17 - Trois Mouvements en forme de poire, a quatre mains - III.flac

Track gain : -0.04 dB
Peak : 0.761292
CRC32 hash (test run) : 6670F78E
CRC32 hash : 6670F78E
CRC32 hash (skip zero) : 1E2D0543
AccurateRip v1 signature : D16D4433
AccurateRip v2 signature : DF5E5EDD
->Accurately ripped (v1+v2, confidence 3+4/27)
Statistics
Read error : 0
Jitter error (maybe fixed) : 0
Retry sector count : 0
Damaged sector count : 0

Track 18
Filename : /Volumes/OWC Mercury Elite Pro - #2/Needs something/ Music/Eric Satie - Piano Works (1991) [FLAC] {EMI CZS 7 67282 2}/CD1/18 - Trois Mouvements en forme de poire, a quatre mains - En plus.flac

Track gain : 10.93 dB
Peak : 0.236145
CRC32 hash (test run) : 6FE5E585
CRC32 hash : 6FE5E585
CRC32 hash (skip zero) : B687D831
AccurateRip v1 signature : 254165FC
AccurateRip v2 signature : 4C1B2ED1
->Accurately ripped (v1+v2, confidence 3+4/28)
Statistics
Read error : 0
Jitter error (maybe fixed) : 0
Retry sector count : 0
Damaged sector count : 0

Track 19
Filename : /Volumes/OWC Mercury Elite Pro - #2/Needs something/ Music/Eric Satie - Piano Works (1991) [FLAC] {EMI CZS 7 67282 2}/CD1/19 - Trois Mouvements en forme de poire, a quatre mains - Redite.flac

Track gain : 9.19 dB
Peak : 0.442871
CRC32 hash (test run) : 4B75F163
CRC32 hash : 4B75F163
CRC32 hash (skip zero) : 6726D083
AccurateRip v1 signature : A799096A
AccurateRip v2 signature : B59F43F7
->Accurately ripped (v1+v2, confidence 3+4/28)
Statistics
Read error : 0
Jitter error (maybe fixed) : 0
Retry sector count : 0
Damaged sector count : 0

Track 20
Filename : /Volumes/OWC Mercury Elite Pro - #2/Needs something/ Music/Eric Satie - Piano Works (1991) [FLAC] {EMI CZS 7 67282 2}/CD1/20 - Croquis et agaceries d'un gros bonhomme en bois - I. Tyrolienne turque.flac
Pre-gap length : 00:05:47

Track gain : -0.84 dB
Peak : 0.631439
CRC32 hash (test run) : D3657E0B
CRC32 hash : D3657E0B
CRC32 hash (skip zero) : E676F660
AccurateRip v1 signature : D97FBFA2
AccurateRip v2 signature : D44D446C
->Accurately ripped (v1+v2, confidence 3+4/28)
Statistics
Read error : 0
Jitter error (maybe fixed) : 0
Retry sector count : 0
Damaged sector count : 0

Track 21
Filename : /Volumes/OWC Mercury Elite Pro - #2/Needs something/ Music/Eric Satie - Piano Works (1991) [FLAC] {EMI CZS 7 67282 2}/CD1/21 - Croquis et agaceries d'un gros bonhomme en bois - II. Danse maigre (a la maniere de ces messieurs).flac

Track gain : 1.47 dB
Peak : 0.630646
CRC32 hash (test run) : 5600263E
CRC32 hash : 5600263E
CRC32 hash (skip zero) : 5C21358B
AccurateRip v1 signature : 0F020510
AccurateRip v2 signature : 16DFA24E
->Accurately ripped (v1+v2, confidence 3+4/28)
Statistics
Read error : 0
Jitter error (maybe fixed) : 0
Retry sector count : 0
Damaged sector count : 0

Track 22
Filename : /Volumes/OWC Mercury Elite Pro - #2/Needs something/ Music/Eric Satie - Piano Works (1991) [FLAC] {EMI CZS 7 67282 2}/CD1/22 - Croquis et agaceries d'un gros bonhomme en bois - III. Espanana (sorte de valse).flac

Track gain : -0.50 dB
Peak : 0.617065
CRC32 hash (test run) : 7A92EF9A
CRC32 hash : 7A92EF9A
CRC32 hash (skip zero) : 44C7DFAB
AccurateRip v1 signature : 7C4759F2
AccurateRip v2 signature : B3B8C159
->Accurately ripped (v1+v2, confidence 3+4/28)
Statistics
Read error : 0
Jitter error (maybe fixed) : 0
Retry sector count : 0
Damaged sector count : 0

Track 23
Filename : /Volumes/OWC Mercury Elite Pro - #2/Needs something/ Music/Eric Satie - Piano Works (1991) [FLAC] {EMI CZS 7 67282 2}/CD1/23 - Croquis et agaceries d'un gros bonhomme en bois - Sonatine bureaucratique.flac
Pre-gap length : 00:04:53

Track gain : 5.80 dB
Peak : 0.575684
CRC32 hash (test run) : 012C9992
CRC32 hash : 012C9992
CRC32 hash (skip zero) : EC12D627
AccurateRip v1 signature : 18B7E9BD
AccurateRip v2 signature : E4B4858E
->Accurately ripped (v1+v2, confidence 3+4/28)
Statistics
Read error : 0
Jitter error (maybe fixed) : 0
Retry sector count : 0
Damaged sector count : 0

Track 24
Filename : /Volumes/OWC Mercury Elite Pro - #2/Needs something/ Music/Eric Satie - Piano Works (1991) [FLAC] {EMI CZS 7 67282 2}/CD1/24 - Trois Nocturnes - I. Doux et calme.flac
Pre-gap length : 00:04:48

Track gain : 3.20 dB
Peak : 0.591370
CRC32 hash (test run) : 2ED7D2AA
CRC32 hash : 2ED7D2AA
CRC32 hash (skip zero) : C3F5C906
AccurateRip v1 signature : CB29BF5F
AccurateRip v2 signature : 409CB1F7
->Accurately ripped (v1+v2, confidence 3+4/28)
Statistics
Read error : 0
Jitter error (maybe fixed) : 0
Retry sector count : 0
Damaged sector count : 0

Track 25
Filename : /Volumes/OWC Mercury Elite Pro - #2/Needs something/ Music/Eric Satie - Piano Works (1991) [FLAC] {EMI CZS 7 67282 2}/CD1/25 - Trois Nocturnes - II. Simplement.flac

Track gain : 3.83 dB
Peak : 0.474152
CRC32 hash (test run) : F343C2EE
CRC32 hash : F343C2EE
CRC32 hash (skip zero) : B4FA8B36
AccurateRip v1 signature : B0A0F1B2
AccurateRip v2 signature : 4D674430
->Accurately ripped (v1+v2, confidence 3+4/28)
Statistics
Read error : 0
Jitter error (maybe fixed) : 0
Retry sector count : 0
Damaged sector count : 0

Track 26
Filename : /Volumes/OWC Mercury Elite Pro - #2/Needs something/ Music/Eric Satie - Piano Works (1991) [FLAC] {EMI CZS 7 67282 2}/CD1/26 - Trois Nocturnes - III. Un peu mouvemente.flac

Track gain : 6.32 dB
Peak : 0.357208
CRC32 hash (test run) : F28A6A40
CRC32 hash : F28A6A40
CRC32 hash (skip zero) : B47467FD
AccurateRip v1 signature : F9A9B3D6
AccurateRip v2 signature : 318CE77D
->Accurately ripped (v1+v2, confidence 3+4/28)
Statistics
Read error : 0
Jitter error (maybe fixed) : 0
Retry sector count : 0
Damaged sector count : 0

Track 27
Filename : /Volumes/OWC Mercury Elite Pro - #2/Needs something/ Music/Eric Satie - Piano Works (1991) [FLAC] {EMI CZS 7 67282 2}/CD1/27 - Premiere pensee et sonneries de la Rose + Croix - I. Air de l'Ordre.flac
Pre-gap length : 00:04:43

Track gain : 3.01 dB
Peak : 0.562927
CRC32 hash (test run) : 7BFB3D6D
CRC32 hash : 7BFB3D6D
CRC32 hash (skip zero) : C5A31087
AccurateRip v1 signature : 6AB0F1EC
AccurateRip v2 signature : EE47B19A
->Accurately ripped (v1+v2, confidence 3+4/28)
Statistics
Read error : 0
Jitter error (maybe fixed) : 0
Retry sector count : 0
Damaged sector count : 0

Track 28
Filename : /Volumes/OWC Mercury Elite Pro - #2/Needs something/ Music/Eric Satie - Piano Works (1991) [FLAC] {EMI CZS 7 67282 2}/CD1/28 - Premiere pensee et sonneries de la Rose + Croix - II. Air du Grand Maitre.flac

Track gain : 4.55 dB
Peak : 0.488953
CRC32 hash (test run) : CEE1E632
CRC32 hash : CEE1E632
CRC32 hash (skip zero) : A062B081
AccurateRip v1 signature : 2A4D67B7
AccurateRip v2 signature : FC63AE0F
->Accurately ripped (v1+v2, confidence 3+4/28)
Statistics
Read error : 0
Jitter error (maybe fixed) : 0
Retry sector count : 0
Damaged sector count : 0

Track 29
Filename : /Volumes/OWC Mercury Elite Pro - #2/Needs something/ Music/Eric Satie - Piano Works (1991) [FLAC] {EMI CZS 7 67282 2}/CD1/29 - Premiere pensee et sonneries de la Rose + Croix - III. Air du Grand Prieur.flac

Track gain : 5.72 dB
Peak : 0.412903
CRC32 hash (test run) : 5BA7EECE
CRC32 hash : 5BA7EECE
CRC32 hash (skip zero) : B24C8D28
AccurateRip v1 signature : F4F7DA26
AccurateRip v2 signature : D10FF34A
->Accurately ripped (v1+v2, confidence 3+4/28)
Statistics
Read error : 0
Jitter error (maybe fixed) : 0
Retry sector count : 0
Damaged sector count : 0

Track 30
Filename : /Volumes/OWC Mercury Elite Pro - #2/Needs something/ Music/Eric Satie - Piano Works (1991) [FLAC] {EMI CZS 7 67282 2}/CD1/30 - Le Fils des etoiles, wagnerie kaldeenne du Sar Peladan - Prelude du 1er acte. La Vocation.flac
Pre-gap length : 00:05:67

Track gain : 5.96 dB
Peak : 0.452393
CRC32 hash (test run) : D7FB36E0
CRC32 hash : D7FB36E0
CRC32 hash (skip zero) : 81B71937
AccurateRip v1 signature : 41BEF74C
AccurateRip v2 signature : 092713C1
->Accurately ripped (v1+v2, confidence 3+4/26)
Statistics
Read error : 0
Jitter error (maybe fixed) : 0
Retry sector count : 0
Damaged sector count : 0

Track 31
Filename : /Volumes/OWC Mercury Elite Pro - #2/Needs something/ Music/Eric Satie - Piano Works (1991) [FLAC] {EMI CZS 7 67282 2}/CD1/31 - Le Fils des etoiles, wagnerie kaldeenne du Sar Peladan - Prelude du 2e acte. L'Initiation.flac

Track gain : 12.86 dB
Peak : 0.280243
CRC32 hash (test run) : 8CEF5EC7
CRC32 hash : 8CEF5EC7
CRC32 hash (skip zero) : A6EEBC95
AccurateRip v1 signature : 0411202C
AccurateRip v2 signature : 34EBEC0D
->Accurately ripped (v1+v2, confidence 3+4/28)
Statistics
Read error : 0
Jitter error (maybe fixed) : 0
Retry sector count : 0
Damaged sector count : 0

Track 32
Filename : /Volumes/OWC Mercury Elite Pro - #2/Needs something/ Music/Eric Satie - Piano Works (1991) [FLAC] {EMI CZS 7 67282 2}/CD1/32 - Le Fils des etoiles, wagnerie kaldeenne du Sar Peladan - Prelude du 3e acte. L'Incantation.flac

Track gain : 3.23 dB
Peak : 0.421997
CRC32 hash (test run) : 9D7F2D7F
CRC32 hash : 9D7F2D7F
CRC32 hash (skip zero) : C49D843C
AccurateRip v1 signature : 11B411EC
AccurateRip v2 signature : 1094EA3A
->Accurately ripped (v1+v2, confidence 3+4/28)
Statistics
Read error : 0
Jitter error (maybe fixed) : 0
Retry sector count : 0
Damaged sector count : 0

No errors occurred

End of status report

––-BEGIN XLD SIGNATURE––-
ikeUKf7W5xbjocMiI70tbA4zJp03Lb8U6SpyfEr40Oci_b4sajEpKTZek8_8ld_1n8bLRdWFenIB_PUCQgBNAuIqOCDw5qbbEF3Ve8G
––-END XLD SIGNATURE––-
X Lossless Decoder version 20130407 (143.0)

XLD extraction logfile from 2014-03-04 12:44:47 -0800

Aldo Ciccolini / Satie - Oeuvres pour piano CD2

Used drive : HL-DT-ST DVDRW GA32N (revision KE06)
Media type : Pressed CD

Ripper mode : XLD Secure Ripper
Disable audio cache : OK for the drive with a cache less than 1375KiB
Make use of C2 pointers : NO
Read offset correction : 103
Max retry count : 100
Gap status : Analyzed, Appended (except HTOA)

TOC of the extracted CD
Track | Start | Length | Start sector | End sector
––––––––––––––––––––––––––––-
1 | 00:00:33 | 02:20:20 | 33 | 10552
2 | 02:20:53 | 02:00:67 | 10553 | 19619
3 | 04:21:45 | 02:18:65 | 19620 | 30034
4 | 06:40:35 | 00:56:53 | 30035 | 34287
5 | 07:37:13 | 00:35:72 | 34288 | 36984
6 | 08:13:10 | 00:15:23 | 36985 | 38132
7 | 08:28:33 | 00:33:60 | 38133 | 40667
8 | 09:02:18 | 00:25:62 | 40668 | 42604
9 | 09:28:05 | 00:48:33 | 42605 | 46237
10 | 10:16:38 | 00:41:55 | 46238 | 49367
11 | 10:58:18 | 00:59:60 | 49368 | 53852
12 | 11:58:03 | 00:36:07 | 53853 | 56559
13 | 12:34:10 | 00:26:43 | 56560 | 58552
14 | 13:00:53 | 00:26:45 | 58553 | 60547
15 | 13:27:23 | 00:26:67 | 60548 | 62564
16 | 13:54:15 | 00:20:43 | 62565 | 64107
17 | 14:14:58 | 00:50:25 | 64108 | 67882
18 | 15:05:08 | 00:20:25 | 67883 | 69407
19 | 15:25:33 | 00:28:50 | 69408 | 71557
20 | 15:54:08 | 01:20:17 | 71558 | 77574
21 | 17:14:25 | 00:21:20 | 77575 | 79169
22 | 17:35:45 | 00:32:25 | 79170 | 81594
23 | 18:07:70 | 00:20:53 | 81595 | 83147
24 | 18:28:48 | 00:53:72 | 83148 | 87194
25 | 19:22:45 | 01:43:63 | 87195 | 94982
26 | 21:06:33 | 01:59:00 | 94983 | 103907
27 | 23:05:33 | 01:32:10 | 103908 | 110817
28 | 24:37:43 | 00:52:37 | 110818 | 114754
29 | 25:30:05 | 00:48:25 | 114755 | 118379
30 | 26:18:30 | 01:02:45 | 118380 | 123074
31 | 27:21:00 | 00:45:45 | 123075 | 126494
32 | 28:06:45 | 00:52:15 | 126495 | 130409
33 | 28:58:60 | 02:41:00 | 130410 | 142484
34 | 31:39:60 | 00:44:20 | 142485 | 145804
35 | 32:24:05 | 02:17:35 | 145805 | 156114
36 | 34:41:40 | 01:14:30 | 156115 | 161694
37 | 35:55:70 | 01:02:45 | 161695 | 166389
38 | 36:58:40 | 01:53:03 | 166390 | 174867
39 | 38:51:43 | 01:54:17 | 174868 | 183434
40 | 40:45:60 | 01:37:15 | 183435 | 190724
41 | 42:23:00 | 01:00:43 | 190725 | 195267
42 | 43:23:43 | 01:27:50 | 195268 | 201842
43 | 44:51:18 | 01:00:52 | 201843 | 206394
44 | 45:51:70 | 01:37:50 | 206395 | 213719
45 | 47:29:45 | 00:42:15 | 213720 | 216884
46 | 48:11:60 | 01:25:03 | 216885 | 223262
47 | 49:36:63 | 00:28:45 | 223263 | 225407
48 | 50:05:33 | 02:19:42 | 225408 | 235874
49 | 52:25:00 | 01:16:23 | 235875 | 241597
50 | 53:41:23 | 02:22:07 | 241598 | 252254
51 | 56:03:30 | 01:08:70 | 252255 | 257424
52 | 57:12:25 | 00:55:05 | 257425 | 261554
53 | 58:07:30 | 01:37:20 | 261555 | 268849
54 | 59:44:50 | 01:36:00 | 268850 | 276049
55 | 61:20:50 | 01:20:70 | 276050 | 282119
56 | 62:41:45 | 01:38:10 | 282120 | 289479
57 | 64:19:55 | 01:38:58 | 289480 | 296887
58 | 65:58:38 | 03:23:00 | 296888 | 312112
59 | 69:21:38 | 03:37:17 | 312113 | 328404
60 | 72:58:55 | 02:44:33 | 328405 | 340737

List of alternate offset correction values
# | Absolute | Relative | Confidence
–––––––––––––––––––––
1 | -11 | -114 | 10
2 | -941 | -1044 | 5

AccurateRip Summary (DiscID: 0084a3f1-15e2d607-8311bf3c)
Track 01 : OK (v1+v2, confidence 7/25)
Track 02 : OK (v1+v2, confidence 8/26)
Track 03 : OK (v1+v2, confidence 7/25)
Track 04 : OK (v1+v2, confidence 8/26)
Track 05 : OK (v1+v2, confidence 8/26)
Track 06 : OK (v1+v2, confidence 8/26)
Track 07 : OK (v1+v2, confidence 8/26)
Track 08 : OK (v1+v2, confidence 8/26)
Track 09 : OK (v1+v2, confidence 8/26)
Track 10 : OK (v1+v2, confidence 8/26)
Track 11 : OK (v1+v2, confidence 8/26)
Track 12 : OK (v1+v2, confidence 8/26)
Track 13 : OK (v1+v2, confidence 8/26)
Track 14 : OK (v1+v2, confidence 8/26)
Track 15 : OK (v1+v2, confidence 8/26)
Track 16 : OK (v1+v2, confidence 8/26)
Track 17 : OK (v1+v2, confidence 8/25)
Track 18 : OK (v1+v2, confidence 8/25)
Track 19 : OK (v1+v2, confidence 8/26)
Track 20 : OK (v1+v2, confidence 8/26)
Track 21 : OK (v1+v2, confidence 8/26)
Track 22 : OK (v1+v2, confidence 8/26)
Track 23 : OK (v1+v2, confidence 8/26)
Track 24 : OK (v1+v2, confidence 8/26)
Track 25 : OK (v1+v2, confidence 8/26)
Track 26 : OK (v1+v2, confidence 8/26)
Track 27 : OK (v1+v2, confidence 8/26)
Track 28 : OK (v1+v2, confidence 8/26)
Track 29 : OK (v1+v2, confidence 8/23)
Track 30 : OK (v1+v2, confidence 8/26)
Track 31 : OK (v1+v2, confidence 8/26)
Track 32 : OK (v1+v2, confidence 8/25)
Track 33 : OK (v1+v2, confidence 7/25)
Track 34 : OK (v1+v2, confidence 8/26)
Track 35 : OK (v1+v2, confidence 8/26)
Track 36 : OK (v1+v2, confidence 8/26)
Track 37 : OK (v1+v2, confidence 8/26)
Track 38 : OK (v1+v2, confidence 8/26)
Track 39 : OK (v1+v2, confidence 8/26)
Track 40 : OK (v1+v2, confidence 8/26)
Track 41 : OK (v1+v2, confidence 8/26)
Track 42 : OK (v1+v2, confidence 8/26)
Track 43 : OK (v1+v2, confidence 8/26)
Track 44 : OK (v1+v2, confidence 8/26)
Track 45 : OK (v1+v2, confidence 8/26)
Track 46 : OK (v1+v2, confidence 8/26)
Track 47 : OK (v1+v2, confidence 8/26)
Track 48 : OK (v1+v2, confidence 8/26)
Track 49 : OK (v1+v2, confidence 7/25)
Track 50 : OK (v1+v2, confidence 8/26)
Track 51 : OK (v1+v2, confidence 8/26)
Track 52 : OK (v1+v2, confidence 8/26)
Track 53 : OK (v1+v2, confidence 8/26)
Track 54 : OK (v1+v2, confidence 8/26)
Track 55 : OK (v1+v2, confidence 8/26)
Track 56 : OK (v1+v2, confidence 8/26)
Track 57 : OK (v1+v2, confidence 8/26)
Track 58 : OK (v1+v2, confidence 8/24)
Track 59 : OK (v1+v2, confidence 8/26)
Track 60 : OK (v1+v2, confidence 8/26)
->All tracks accurately ripped.

All Tracks
Album gain : 1.10 dB
Peak : 0.866150
Statistics
Read error : 0
Jitter error (maybe fixed) : 0
Retry sector count : 0
Damaged sector count : 0

Track 01
Filename : /Volumes/OWC Mercury Elite Pro - #2/Needs something/ Music/Eric Satie - Piano Works (1991) [FLAC] {EMI CZS 7 67282 2}/CD2/01 - Jack in the box - Prelude.flac
Pre-gap length : 00:02:33

Track gain : -0.87 dB
Peak : 0.858643
CRC32 hash (test run) : A5BBB1FC
CRC32 hash : A5BBB1FC
CRC32 hash (skip zero) : D0A0A8EA
AccurateRip v1 signature : ABF7CA7E
AccurateRip v2 signature : E0DDD684
->Accurately ripped (v1+v2, confidence 2+5/25)
Statistics
Read error : 0
Jitter error (maybe fixed) : 0
Retry sector count : 0
Damaged sector count : 0

Track 02
Filename : /Volumes/OWC Mercury Elite Pro - #2/Needs something/ Music/Eric Satie - Piano Works (1991) [FLAC] {EMI CZS 7 67282 2}/CD2/02 - Jack in the box - Entracte.flac

Track gain : -1.57 dB
Peak : 0.753204
CRC32 hash (test run) : 64C496F1
CRC32 hash : 64C496F1
CRC32 hash (skip zero) : 6F5BD6D7
AccurateRip v1 signature : D8C436F3
AccurateRip v2 signature : 56C32BD7
->Accurately ripped (v1+v2, confidence 2+6/26)
Statistics
Read error : 0
Jitter error (maybe fixed) : 0
Retry sector count : 0
Damaged sector count : 0

Track 03
Filename : /Volumes/OWC Mercury Elite Pro - #2/Needs something/ Music/Eric Satie - Piano Works (1991) [FLAC] {EMI CZS 7 67282 2}/CD2/03 - Jack in the box - Final.flac

Track gain : -1.63 dB
Peak : 0.844391
CRC32 hash (test run) : A6BF7A4B
CRC32 hash : A6BF7A4B
CRC32 hash (skip zero) : EC2AF825
AccurateRip v1 signature : 8F943DAC
AccurateRip v2 signature : 05F32560
->Accurately ripped (v1+v2, confidence 2+5/25)
Statistics
Read error : 0
Jitter error (maybe fixed) : 0
Retry sector count : 0
Damaged sector count : 0

Track 04
Filename : /Volumes/OWC Mercury Elite Pro - #2/Needs something/ Music/Eric Satie - Piano Works (1991) [FLAC] {EMI CZS 7 67282 2}/CD2/04 - Sports et divertissements - Choral inappetissant.flac
Pre-gap length : 00:04:40

Track gain : 1.46 dB
Peak : 0.681152
CRC32 hash (test run) : 93BA0BBC
CRC32 hash : 93BA0BBC
CRC32 hash (skip zero) : 9AFD1749
AccurateRip v1 signature : 3112E6CF
AccurateRip v2 signature : 060BCFD3
->Accurately ripped (v1+v2, confidence 2+6/26)
Statistics
Read error : 0
Jitter error (maybe fixed) : 0
Retry sector count : 0
Damaged sector count : 0

Track 05
Filename : /Volumes/OWC Mercury Elite Pro - #2/Needs something/ Music/Eric Satie - Piano Works (1991) [FLAC] {EMI CZS 7 67282 2}/CD2/05 - Sports et divertissements - La Balancoire.flac

Track gain : 14.00 dB
Peak : 0.120819
CRC32 hash (test run) : 108D9EA8
CRC32 hash : 108D9EA8
CRC32 hash (skip zero) : E3745975
AccurateRip v1 signature : C57A4B83
AccurateRip v2 signature : 5190C420
->Accurately ripped (v1+v2, confidence 2+6/26)
Statistics
Read error : 0
Jitter error (maybe fixed) : 0
Retry sector count : 0
Damaged sector count : 0

Track 06
Filename : /Volumes/OWC Mercury Elite Pro - #2/Needs something/ Music/Eric Satie - Piano Works (1991) [FLAC] {EMI CZS 7 67282 2}/CD2/06 - Sports et divertissements - La Chasse.flac

Track gain : 0.83 dB
Peak : 0.560608
CRC32 hash (test run) : E83E2D8C
CRC32 hash : E83E2D8C
CRC32 hash (skip zero) : 61CEC4F4
AccurateRip v1 signature : F74C453D
AccurateRip v2 signature : F23D6194
->Accurately ripped (v1+v2, confidence 2+6/26)
Statistics
Read error : 0
Jitter error (maybe fixed) : 0
Retry sector count : 0
Damaged sector count : 0

Track 07
Filename : /Volumes/OWC Mercury Elite Pro - #2/Needs something/ Music/Eric Satie - Piano Works (1991) [FLAC] {EMI CZS 7 67282 2}/CD2/07 - Sports et divertissements - La Comedie italienne (a la napolitaine).flac

Track gain : -1.70 dB
Peak : 0.798920
CRC32 hash (test run) : F72E1BF2
CRC32 hash : F72E1BF2
CRC32 hash (skip zero) : 4018B22A
AccurateRip v1 signature : 4B40F993
AccurateRip v2 signature : 97390419
->Accurately ripped (v1+v2, confidence 2+6/26)
Statistics
Read error : 0
Jitter error (maybe fixed) : 0
Retry sector count : 0
Damaged sector count : 0

Track 08
Filename : /Volumes/OWC Mercury Elite Pro - #2/Needs something/ Music/Eric Satie - Piano Works (1991) [FLAC] {EMI CZS 7 67282 2}/CD2/08 - Sports et divertissements - Le Reveil de la Mariee.flac

Track gain : -0.41 dB
Peak : 0.570221
CRC32 hash (test run) : CFF29CF4
CRC32 hash : CFF29CF4
CRC32 hash (skip zero) : 7B42C1A3
AccurateRip v1 signature : D5FE8929
AccurateRip v2 signature : 2C27F09B
->Accurately ripped (v1+v2, confidence 2+6/26)
Statistics
Read error : 0
Jitter error (maybe fixed) : 0
Retry sector count : 0
Damaged sector count : 0

Track 09
Filename : /Volumes/OWC Mercury Elite Pro - #2/Needs something/ Music/Eric Satie - Piano Works (1991) [FLAC] {EMI CZS 7 67282 2}/CD2/09 - Sports et divertissements - Colin-Maillard.flac

Track gain : 3.54 dB
Peak : 0.583923
CRC32 hash (test run) : F6519B13
CRC32 hash : F6519B13
CRC32 hash (skip zero) : ED612ACA
AccurateRip v1 signature : BEB087BA
AccurateRip v2 signature : 627DD5E4
->Accurately ripped (v1+v2, confidence 2+6/26)
Statistics
Read error : 0
Jitter error (maybe fixed) : 0
Retry sector count : 0
Damaged sector count : 0

Track 10
Filename : /Volumes/OWC Mercury Elite Pro - #2/Needs something/ Music/Eric Satie - Piano Works (1991) [FLAC] {EMI CZS 7 67282 2}/CD2/10 - Sports et divertissements - La Peche.flac

Track gain : 9.34 dB
Peak : 0.272156
CRC32 hash (test run) : A906C4DD
CRC32 hash : A906C4DD
CRC32 hash (skip zero) : B1E0A09D
AccurateRip v1 signature : DBF9F3DB
AccurateRip v2 signature : B64FFB94
->Accurately ripped (v1+v2, confidence 2+6/26)
Statistics
Read error : 0
Jitter error (maybe fixed) : 0
Retry sector count : 0
Damaged sector count : 0

Track 11
Filename : /Volumes/OWC Mercury Elite Pro - #2/Needs something/ Music/Eric Satie - Piano Works (1991) [FLAC] {EMI CZS 7 67282 2}/CD2/11 - Sports et divertissements - Le Yachting.flac

Track gain : 7.27 dB
Peak : 0.419861
CRC32 hash (test run) : 58E3B7A8
CRC32 hash : 58E3B7A8
CRC32 hash (skip zero) : CB098EB6
AccurateRip v1 signature : C5B6016E
AccurateRip v2 signature : E490B245
->Accurately ripped (v1+v2, confidence 2+6/26)
Statistics
Read error : 0
Jitter error (maybe fixed) : 0
Retry sector count : 0
Damaged sector count : 0

Track 12
Filename : /Volumes/OWC Mercury Elite Pro - #2/Needs something/ Music/Eric Satie - Piano Works (1991) [FLAC] {EMI CZS 7 67282 2}/CD2/12 - Sports et divertissements - Le Bain de mer.flac

Track gain : 4.31 dB
Peak : 0.465698
CRC32 hash (test run) : 05346CBA
CRC32 hash : 05346CBA
CRC32 hash (skip zero) : 875DC96E
AccurateRip v1 signature : 9F857B54
AccurateRip v2 signature : 22CB0E9E
->Accurately ripped (v1+v2, confidence 2+6/26)
Statistics
Read error : 0
Jitter error (maybe fixed) : 0
Retry sector count : 0
Damaged sector count : 0

Track 13
Filename : /Volumes/OWC Mercury Elite Pro - #2/Needs something/ Music/Eric Satie - Piano Works (1991) [FLAC] {EMI CZS 7 67282 2}/CD2/13 - Sports et divertissements - Le Carnaval.flac

Track gain : 1.40 dB
Peak : 0.588959
CRC32 hash (test run) : 719F77F4
CRC32 hash : 719F77F4
CRC32 hash (skip zero) : E8C6615E
AccurateRip v1 signature : DB4333FE
AccurateRip v2 signature : 02A05662
->Accurately ripped (v1+v2, confidence 2+6/26)
Statistics
Read error : 0
Jitter error (maybe fixed) : 0
Retry sector count : 0
Damaged sector count : 0

Track 14
Filename : /Volumes/OWC Mercury Elite Pro - #2/Needs something/ Music/Eric Satie - Piano Works (1991) [FLAC] {EMI CZS 7 67282 2}/CD2/14 - Sports et divertissements - Le Golf.flac

Track gain : -1.10 dB
Peak : 0.747681
CRC32 hash (test run) : 6FFBE8CB
CRC32 hash : 6FFBE8CB
CRC32 hash (skip zero) : A23D95AB
AccurateRip v1 signature : DF01E924
AccurateRip v2 signature : 789B664B
->Accurately ripped (v1+v2, confidence 2+6/26)
Statistics
Read error : 0
Jitter error (maybe fixed) : 0
Retry sector count : 0
Damaged sector count : 0

Track 15
Filename : /Volumes/OWC Mercury Elite Pro - #2/Needs something/ Music/Eric Satie - Piano Works (1991) [FLAC] {EMI CZS 7 67282 2}/CD2/15 - Sports et divertissements - La Pieuvre.flac

Track gain : 2.46 dB
Peak : 0.456940
CRC32 hash (test run) : 49DCF79C
CRC32 hash : 49DCF79C
CRC32 hash (skip zero) : 499BBE96
AccurateRip v1 signature : 47E7F0AE
AccurateRip v2 signature : FE109565
->Accurately ripped (v1+v2, confidence 2+6/26)
Statistics
Read error : 0
Jitter error (maybe fixed) : 0
Retry sector count : 0
Damaged sector count : 0

Track 16
Filename : /Volumes/OWC Mercury Elite Pro - #2/Needs something/ Music/Eric Satie - Piano Works (1991) [FLAC] {EMI CZS 7 67282 2}/CD2/16 - Sports et divertissements - Les Courses.flac

Track gain : 1.78 dB
Peak : 0.444305
CRC32 hash (test run) : E61D2CED
CRC32 hash : E61D2CED
CRC32 hash (skip zero) : C664F76A
AccurateRip v1 signature : 6BB2198A
AccurateRip v2 signature : F18FC253
->Accurately ripped (v1+v2, confidence 2+6/26)
Statistics
Read error : 0
Jitter error (maybe fixed) : 0
Retry sector count : 0
Damaged sector count : 0

Track 17
Filename : /Volumes/OWC Mercury Elite Pro - #2/Needs something/ Music/Eric Satie - Piano Works (1991) [FLAC] {EMI CZS 7 67282 2}/CD2/17 - Sports et divertissements - Les Quatre-Coins.flac

Track gain : 5.73 dB
Peak : 0.619293
CRC32 hash (test run) : E459F031
CRC32 hash : E459F031
CRC32 hash (skip zero) : 0659026D
AccurateRip v1 signature : 14BE1CBB
AccurateRip v2 signature : 5E59C247
->Accurately ripped (v1+v2, confidence 2+6/25)
Statistics
Read error : 0
Jitter error (maybe fixed) : 0
Retry sector count : 0
Damaged sector count : 0

Track 18
Filename : /Volumes/OWC Mercury Elite Pro - #2/Needs something/ Music/Eric Satie - Piano Works (1991) [FLAC] {EMI CZS 7 67282 2}/CD2/18 - Sports et divertissements - Le Pique-nique.flac

Track gain : -2.24 dB
Peak : 0.745300
CRC32 hash (test run) : 8EF1FBAF
CRC32 hash : 8EF1FBAF
CRC32 hash (skip zero) : DBDAFFA3
AccurateRip v1 signature : 9A1DE04A
AccurateRip v2 signature : 312BC537
->Accurately ripped (v1+v2, confidence 2+6/25)
Statistics
Read error : 0
Jitter error (maybe fixed) : 0
Retry sector count : 0
Damaged sector count : 0

Track 19
Filename : /Volumes/OWC Mercury Elite Pro - #2/Needs something/ Music/Eric Satie - Piano Works (1991) [FLAC] {EMI CZS 7 67282 2}/CD2/19 - Sports et divertissements - Le Water-chute.flac

Track gain : 0.18 dB
Peak : 0.652466
CRC32 hash (test run) : 59B7DAEA
CRC32 hash : 59B7DAEA
CRC32 hash (skip zero) : 17553777
AccurateRip v1 signature : 9165E961
AccurateRip v2 signature : B9943029
->Accurately ripped (v1+v2, confidence 2+6/26)
Statistics
Read error : 0
Jitter error (maybe fixed) : 0
Retry sector count : 0
Damaged sector count : 0

Track 20
Filename : /Volumes/OWC Mercury Elite Pro - #2/Needs something/ Music/Eric Satie - Piano Works (1991) [FLAC] {EMI CZS 7 67282 2}/CD2/20 - Sports et divertissements - Le Tango.flac

Track gain : 9.94 dB
Peak : 0.238861
CRC32 hash (test run) : DAEF54AE
CRC32 hash : DAEF54AE
CRC32 hash (skip zero) : 80561250
AccurateRip v1 signature : A391E54D
AccurateRip v2 signature : 429307A7
->Accurately ripped (v1+v2, confidence 2+6/26)
Statistics
Read error : 0
Jitter error (maybe fixed) : 0
Retry sector count : 0
Damaged sector count : 0

Track 21
Filename : /Volumes/OWC Mercury Elite Pro - #2/Needs something/ Music/Eric Satie - Piano Works (1991) [FLAC] {EMI CZS 7 67282 2}/CD2/21 - Sports et divertissements - Le Traineau.flac

Track gain : -0.79 dB
Peak : 0.738068
CRC32 hash (test run) : EE51244C
CRC32 hash : EE51244C
CRC32 hash (skip zero) : 2F00AE4C
AccurateRip v1 signature : 8570F905
AccurateRip v2 signature : F771CD8F
->Accurately ripped (v1+v2, confidence 2+6/26)
Statistics
Read error : 0
Jitter error (maybe fixed) : 0
Retry sector count : 0
Damaged sector count : 0

Track 22
Filename : /Volumes/OWC Mercury Elite Pro - #2/Needs something/ Music/Eric Satie - Piano Works (1991) [FLAC] {EMI CZS 7 67282 2}/CD2/22 - Sports et divertissements - Le Flirt.flac

Track gain : 3.43 dB
Peak : 0.369934
CRC32 hash (test run) : 55EE6401
CRC32 hash : 55EE6401
CRC32 hash (skip zero) : 85E2D9F5
AccurateRip v1 signature : D7225B55
AccurateRip v2 signature : 9C7A2AAF
->Accurately ripped (v1+v2, confidence 2+6/26)
Statistics
Read error : 0
Jitter error (maybe fixed) : 0
Retry sector count : 0
Damaged sector count : 0

Track 23
Filename : /Volumes/OWC Mercury Elite Pro - #2/Needs something/ Music/Eric Satie - Piano Works (1991) [FLAC] {EMI CZS 7 67282 2}/CD2/23 - Sports et divertissements - Le Feu d'artifice.flac

Track gain : 1.11 dB
Peak : 0.645721
CRC32 hash (test run) : 49B3D3F3
CRC32 hash : 49B3D3F3
CRC32 hash (skip zero) : 1ECCB4CB
AccurateRip v1 signature : C282B0C6
AccurateRip v2 signature : 0A38C075
->Accurately ripped (v1+v2, confidence 2+6/26)
Statistics
Read error : 0
Jitter error (maybe fixed) : 0
Retry sector count : 0
Damaged sector count : 0

Track 24
Filename : /Volumes/OWC Mercury Elite Pro - #2/Needs something/ Music/Eric Satie - Piano Works (1991) [FLAC] {EMI CZS 7 67282 2}/CD2/24 - Sports et divertissements - Le Tennis.flac

Track gain : 5.06 dB
Peak : 0.435822
CRC32 hash (test run) : 3DAED8E2
CRC32 hash : 3DAED8E2
CRC32 hash (skip zero) : 6858B470
AccurateRip v1 signature : 4F78F494
AccurateRip v2 signature : CCECDC9A
->Accurately ripped (v1+v2, confidence 2+6/26)
Statistics
Read error : 0
Jitter error (maybe fixed) : 0
Retry sector count : 0
Damaged sector count : 0

Track 25
Filename : /Volumes/OWC Mercury Elite Pro - #2/Needs something/ Music/Eric Satie - Piano Works (1991) [FLAC] {EMI CZS 7 67282 2}/CD2/25 - Embryons desseches - I. D'Holothurie.flac
Pre-gap length : 00:03:72

Track gain : 3.61 dB
Peak : 0.541199
CRC32 hash (test run) : EFEEF953
CRC32 hash : EFEEF953
CRC32 hash (skip zero) : 9BF442B8
AccurateRip v1 signature : 4AE9C438
AccurateRip v2 signature : 983068E8
->Accurately ripped (v1+v2, confidence 2+6/26)
Statistics
Read error : 0
Jitter error (maybe fixed) : 0
Retry sector count : 0
Damaged sector count : 0

Track 26
Filename : /Volumes/OWC Mercury Elite Pro - #2/Needs something/ Music/Eric Satie - Piano Works (1991) [FLAC] {EMI CZS 7 67282 2}/CD2/26 - Embryons desseches - II. D'Edriophtalma.flac

Track gain : 8.29 dB
Peak : 0.543823
CRC32 hash (test run) : D2B46F27
CRC32 hash : D2B46F27
CRC32 hash (skip zero) : DCE997D2
AccurateRip v1 signature : 1C5B29D2
AccurateRip v2 signature : 242FB181
->Accurately ripped (v1+v2, confidence 2+6/26)
Statistics
Read error : 0
Jitter error (maybe fixed) : 0
Retry sector count : 0
Damaged sector count : 0

Track 27
Filename : /Volumes/OWC Mercury Elite Pro - #2/Needs something/ Music/Eric Satie - Piano Works (1991) [FLAC] {EMI CZS 7 67282 2}/CD2/27 - Embryons desseches - III. De Podophtalma.flac

Track gain : 1.27 dB
Peak : 0.559937
CRC32 hash (test run) : 1C725E52
CRC32 hash : 1C725E52
CRC32 hash (skip zero) : 0F79E2C1
AccurateRip v1 signature : 60935473
AccurateRip v2 signature : 6E6FC171
->Accurately ripped (v1+v2, confidence 2+6/26)
Statistics
Read error : 0
Jitter error (maybe fixed) : 0
Retry sector count : 0
Damaged sector count : 0

Track 28
Filename : /Volumes/OWC Mercury Elite Pro - #2/Needs something/ Music/Eric Satie - Piano Works (1991) [FLAC] {EMI CZS 7 67282 2}/CD2/28 - Preludes flasques (pour un chien) - I. Voix d'interieur.flac
Pre-gap length : 00:04:55

Track gain : 12.54 dB
Peak : 0.150665
CRC32 hash (test run) : 2F5F0C83
CRC32 hash : 2F5F0C83
CRC32 hash (skip zero) : 617B97FE
AccurateRip v1 signature : 44347D50
AccurateRip v2 signature : 78910AA0
->Accurately ripped (v1+v2, confidence 2+6/26)
Statistics
Read error : 0
Jitter error (maybe fixed) : 0
Retry sector count : 0
Damaged sector count : 0

Track 29
Filename : /Volumes/OWC Mercury Elite Pro - #2/Needs something/ Music/Eric Satie - Piano Works (1991) [FLAC] {EMI CZS 7 67282 2}/CD2/29 - Preludes flasques (pour un chien) - II. Idylle cynique.flac

Track gain : 9.45 dB
Peak : 0.228577
CRC32 hash (test run) : 7570856F
CRC32 hash : 7570856F
CRC32 hash (skip zero) : 0390B333
AccurateRip v1 signature : 37BA51CF
AccurateRip v2 signature : B6B0DD85
->Accurately ripped (v1+v2, confidence 2+6/23)
Statistics
Read error : 0
Jitter error (maybe fixed) : 0
Retry sector count : 0
Damaged sector count : 0

Track 30
Filename : /Volumes/OWC Mercury Elite Pro - #2/Needs something/ Music/Eric Satie - Piano Works (1991) [FLAC] {EMI CZS 7 67282 2}/CD2/30 - Preludes flasques (pour un chien) - III. Chanson canine.flac

Track gain : 3.35 dB
Peak : 0.451965
CRC32 hash (test run) : 5414D47A
CRC32 hash : 5414D47A
CRC32 hash (skip zero) : 11558561
AccurateRip v1 signature : 88250896
AccurateRip v2 signature : 2EBEB4A0
->Accurately ripped (v1+v2, confidence 2+6/26)
Statistics
Read error : 0
Jitter error (maybe fixed) : 0
Retry sector count : 0
Damaged sector count : 0

Track 31
Filename : /Volumes/OWC Mercury Elite Pro - #2/Needs something/ Music/Eric Satie - Piano Works (1991) [FLAC] {EMI CZS 7 67282 2}/CD2/31 - Preludes flasques (pour un chien) - IV. Avec camaraderie.flac

Track gain : 2.11 dB
Peak : 0.615753
CRC32 hash (test run) : 2356965E
CRC32 hash : 2356965E
CRC32 hash (skip zero) : 17E5D267
AccurateRip v1 signature : 64D0B2D8
AccurateRip v2 signature : 3D593E9E
->Accurately ripped (v1+v2, confidence 2+6/26)
Statistics
Read error : 0
Jitter error (maybe fixed) : 0
Retry sector count : 0
Damaged sector count : 0

Track 32
Filename : /Volumes/OWC Mercury Elite Pro - #2/Needs something/ Music/Eric Satie - Piano Works (1991) [FLAC] {EMI CZS 7 67282 2}/CD2/32 - En habit de cheval (a 4 mains) - I. Choral.flac
Pre-gap length : 00:04:45

Track gain : -0.19 dB
Peak : 0.700745
CRC32 hash (test run) : 6E714054
CRC32 hash : 6E714054
CRC32 hash (skip zero) : FD53A33F
AccurateRip v1 signature : 19355355
AccurateRip v2 signature : 0D53EF2D
->Accurately ripped (v1+v2, confidence 2+6/25)
Statistics
Read error : 0
Jitter error (maybe fixed) : 0
Retry sector count : 0
Damaged sector count : 0

Track 33
Filename : /Volumes/OWC Mercury Elite Pro - #2/Needs something/ Music/Eric Satie - Piano Works (1991) [FLAC] {EMI CZS 7 67282 2}/CD2/33 - En habit de cheval (a 4 mains) - II. Fugue litanique.flac

Track gain : 3.95 dB
Peak : 0.654755
CRC32 hash (test run) : 306DF424
CRC32 hash : 306DF424
CRC32 hash (skip zero) : 09E1074C
AccurateRip v1 signature : 898C73AF
AccurateRip v2 signature : 840BDBEB
->Accurately ripped (v1+v2, confidence 2+5/25)
Statistics
Read error : 0
Jitter error (maybe fixed) : 0
Retry sector count : 0
Damaged sector count : 0

Track 34
Filename : /Volumes/OWC Mercury Elite Pro - #2/Needs something/ Music/Eric Satie - Piano Works (1991) [FLAC] {EMI CZS 7 67282 2}/CD2/34 - En habit de cheval (a 4 mains) - III. Autre chose.flac

Track gain : 9.18 dB
Peak : 0.235382
CRC32 hash (test run) : 038ECC7C
CRC32 hash : 038ECC7C
CRC32 hash (skip zero) : 430BD0DF
AccurateRip v1 signature : FBEB3480
AccurateRip v2 signature : 71D900F6
->Accurately ripped (v1+v2, confidence 2+6/26)
Statistics
Read error : 0
Jitter error (maybe fixed) : 0
Retry sector count : 0
Damaged sector count : 0

Track 35
Filename : /Volumes/OWC Mercury Elite Pro - #2/Needs something/ Music/Eric Satie - Piano Works (1991) [FLAC] {EMI CZS 7 67282 2}/CD2/35 - En habit de cheval (a 4 mains) - IV. Fugue de papier.flac

Track gain : 1.64 dB
Peak : 0.754120
CRC32 hash (test run) : 1136C939
CRC32 hash : 1136C939
CRC32 hash (skip zero) : 7F658F78
AccurateRip v1 signature : D7F6A97B
AccurateRip v2 signature : 30BCD86E
->Accurately ripped (v1+v2, confidence 2+6/26)
Statistics
Read error : 0
Jitter error (maybe fixed) : 0
Retry sector count : 0
Damaged sector count : 0

Track 36
Filename : /Volumes/OWC Mercury Elite Pro - #2/Needs something/ Music/Eric Satie - Piano Works (1991) [FLAC] {EMI CZS 7 67282 2}/CD2/36 - Apercus desagreables - I. Pastorale.flac
Pre-gap length : 00:03:62

Track gain : 3.36 dB
Peak : 0.623169
CRC32 hash (test run) : D3F0322E
CRC32 hash : D3F0322E
CRC32 hash (skip zero) : 3B08D78A
AccurateRip v1 signature : 66FACB2C
AccurateRip v2 signature : 7CF5D31B
->Accurately ripped (v1+v2, confidence 2+6/26)
Statistics
Read error : 0
Jitter error (maybe fixed) : 0
Retry sector count : 0
Damaged sector count : 0

Track 37
Filename : /Volumes/OWC Mercury Elite Pro - #2/Needs something/ Music/Eric Satie - Piano Works (1991) [FLAC] {EMI CZS 7 67282 2}/CD2/37 - Apercus desagreables - II. Choral.flac

Track gain : 1.93 dB
Peak : 0.620483
CRC32 hash (test run) : A65016D9
CRC32 hash : A65016D9
CRC32 hash (skip zero) : BEAFAE9B
AccurateRip v1 signature : 567F00D0
AccurateRip v2 signature : C364B1B8
->Accurately ripped (v1+v2, confidence 2+6/26)
Statistics
Read error : 0
Jitter error (maybe fixed) : 0
Retry sector count : 0
Damaged sector count : 0

Track 38
Filename : /Volumes/OWC Mercury Elite Pro - #2/Needs something/ Music/Eric Satie - Piano Works (1991) [FLAC] {EMI CZS 7 67282 2}/CD2/38 - Apercus desagreables - III. Fugue.flac

Track gain : 3.00 dB
Peak : 0.567963
CRC32 hash (test run) : B856F27F
CRC32 hash : B856F27F
CRC32 hash (skip zero) : 1844BFE1
AccurateRip v1 signature : 54524DFB
AccurateRip v2 signature : 78DB751A
->Accurately ripped (v1+v2, confidence 2+6/26)
Statistics
Read error : 0
Jitter error (maybe fixed) : 0
Retry sector count : 0
Damaged sector count : 0

Track 39
Filename : /Volumes/OWC Mercury Elite Pro - #2/Needs something/ Music/Eric Satie - Piano Works (1991) [FLAC] {EMI CZS 7 67282 2}/CD2/39 - Descriptions automatiques - I. Sur un vaisseau.flac
Pre-gap length : 00:03:65

Track gain : 14.48 dB
Peak : 0.164978
CRC32 hash (test run) : F0C5C96C
CRC32 hash : F0C5C96C
CRC32 hash (skip zero) : 10D18E35
AccurateRip v1 signature : DCAA3726
AccurateRip v2 signature : A951C498
->Accurately ripped (v1+v2, confidence 2+6/26)
Statistics
Read error : 0
Jitter error (maybe fixed) : 0
Retry sector count : 0
Damaged sector count : 0

Track 40
Filename : /Volumes/OWC Mercury Elite Pro - #2/Needs something/ Music/Eric Satie - Piano Works (1991) [FLAC] {EMI CZS 7 67282 2}/CD2/40 - Descriptions automatiques - II. Sur une lanterne.flac

Track gain : 4.78 dB
Peak : 0.762878
CRC32 hash (test run) : 7C052314
CRC32 hash : 7C052314
CRC32 hash (skip zero) : 5E1A934D
AccurateRip v1 signature : ED254C79
AccurateRip v2 signature : 2441362A
->Accurately ripped (v1+v2, confidence 2+6/26)
Statistics
Read error : 0
Jitter error (maybe fixed) : 0
Retry sector count : 0
Damaged sector count : 0

Track 41
Filename : /Volumes/OWC Mercury Elite Pro - #2/Needs something/ Music/Eric Satie - Piano Works (1991) [FLAC] {EMI CZS 7 67282 2}/CD2/41 - Descriptions automatiques - III. Sur un casque.flac

Track gain : -1.52 dB
Peak : 0.866150
CRC32 hash (test run) : 327090E3
CRC32 hash : 327090E3
CRC32 hash (skip zero) : 7F520EB9
AccurateRip v1 signature : 9CB382C2
AccurateRip v2 signature : F4FDFF22
->Accurately ripped (v1+v2, confidence 2+6/26)
Statistics
Read error : 0
Jitter error (maybe fixed) : 0
Retry sector count : 0
Damaged sector count : 0

Track 42
Filename : /Volumes/OWC Mercury Elite Pro - #2/Needs something/ Music/Eric Satie - Piano Works (1991) [FLAC] {EMI CZS 7 67282 2}/CD2/42 - Trois Petites pieces montees (a 4 mains) - De l'enfance de Pantagruel (Reverie).flac
Pre-gap length : 00:02:70

Track gain : 7.19 dB
Peak : 0.342285
CRC32 hash (test run) : 17BF5A28
CRC32 hash : 17BF5A28
CRC32 hash (skip zero) : 4AB1A233
AccurateRip v1 signature : A1E37C8E
AccurateRip v2 signature : CB45794C
->Accurately ripped (v1+v2, confidence 2+6/26)
Statistics
Read error : 0
Jitter error (maybe fixed) : 0
Retry sector count : 0
Damaged sector count : 0

Track 43
Filename : /Volumes/OWC Mercury Elite Pro - #2/Needs something/ Music/Eric Satie - Piano Works (1991) [FLAC] {EMI CZS 7 67282 2}/CD2/43 - Trois Petites pieces montees (a 4 mains) - Marche de Cocagne (Demarche).flac

Track gain : -0.61 dB
Peak : 0.666840
CRC32 hash (test run) : 2F19EF89
CRC32 hash : 2F19EF89
CRC32 hash (skip zero) : 55E4B0B2
AccurateRip v1 signature : FCD3FCAE
AccurateRip v2 signature : C5396929
->Accurately ripped (v1+v2, confidence 2+6/26)
Statistics
Read error : 0
Jitter error (maybe fixed) : 0
Retry sector count : 0
Damaged sector count : 0

Track 44
Filename : /Volumes/OWC Mercury Elite Pro - #2/Needs something/ Music/Eric Satie - Piano Works (1991) [FLAC] {EMI CZS 7 67282 2}/CD2/44 - Trois Petites pieces montees (a 4 mains) - Jeux de Gargantua (Coin de Polka).flac

Track gain : 0.91 dB
Peak : 0.766846
CRC32 hash (test run) : 621D6154
CRC32 hash : 621D6154
CRC32 hash (skip zero) : A8A5478F
AccurateRip v1 signature : BDE2E90A
AccurateRip v2 signature : 534C5685
->Accurately ripped (v1+v2, confidence 2+6/26)
Statistics
Read error : 0
Jitter error (maybe fixed) : 0
Retry sector count : 0
Damaged sector count : 0

Track 45
Filename : /Volumes/OWC Mercury Elite Pro - #2/Needs something/ Music/Eric Satie - Piano Works (1991) [FLAC] {EMI CZS 7 67282 2}/CD2/45 - Peccadilles importunes - Etre jaloux de son camarade qui a une grosse tete).flac
Pre-gap length : 00:04:02

Track gain : 14.86 dB
Peak : 0.144531
CRC32 hash (test run) : CB065ECF
CRC32 hash : CB065ECF
CRC32 hash (skip zero) : 64A032A2
AccurateRip v1 signature : 07018170
AccurateRip v2 signature : AD49A0D4
->Accurately ripped (v1+v2, confidence 2+6/26)
Statistics
Read error : 0
Jitter error (maybe fixed) : 0
Retry sector count : 0
Damaged sector count : 0

Track 46
Filename : /Volumes/OWC Mercury Elite Pro - #2/Needs something/ Music/Eric Satie - Piano Works (1991) [FLAC] {EMI CZS 7 67282 2}/CD2/46 - Peccadilles importunes - Lui manger sa tartine.flac

Track gain : 13.16 dB
Peak : 0.136993
CRC32 hash (test run) : 4A061AB7
CRC32 hash : 4A061AB7
CRC32 hash (skip zero) : 50193B32
AccurateRip v1 signature : 77D7C485
AccurateRip v2 signature : 4C0AD01B
->Accurately ripped (v1+v2, confidence 2+6/26)
Statistics
Read error : 0
Jitter error (maybe fixed) : 0
Retry sector count : 0
Damaged sector count : 0

Track 47
Filename : /Volumes/OWC Mercury Elite Pro - #2/Needs something/ Music/Eric Satie - Piano Works (1991) [FLAC] {EMI CZS 7 67282 2}/CD2/47 - Peccadilles importunes - Profiter de ce qu'il a des cors aux pieds pour lui voler son cerceau.flac

Track gain : 5.35 dB
Peak : 0.291382
CRC32 hash (test run) : 3F55013F
CRC32 hash : 3F55013F
CRC32 hash (skip zero) : B48E042E
AccurateRip v1 signature : 2D794DDC
AccurateRip v2 signature : 79D9A344
->Accurately ripped (v1+v2, confidence 2+6/26)
Statistics
Read error : 0
Jitter error (maybe fixed) : 0
Retry sector count : 0
Damaged sector count : 0

Track 48
Filename : /Volumes/OWC Mercury Elite Pro - #2/Needs something/ Music/Eric Satie - Piano Works (1991) [FLAC] {EMI CZS 7 67282 2}/CD2/48 - Pieces froides. No.1. Airs a faire fuir. I. D'une maniere particuliere.flac
Pre-gap length : 00:04:28

Track gain : 5.06 dB
Peak : 0.442627
CRC32 hash (test run) : 19258C21
CRC32 hash : 19258C21
CRC32 hash (skip zero) : CBF59280
AccurateRip v1 signature : 25790152
AccurateRip v2 signature : D4242648
->Accurately ripped (v1+v2, confidence 2+6/26)
Statistics
Read error : 0
Jitter error (maybe fixed) : 0
Retry sector count : 0
Damaged sector count : 0

Track 49
Filename : /Volumes/OWC Mercury Elite Pro - #2/Needs something/ Music/Eric Satie - Piano Works (1991) [FLAC] {EMI CZS 7 67282 2}/CD2/49 - Pieces froides. No.1. Airs a faire fuir. II. Modestement.flac

Track gain : 8.84 dB
Peak : 0.228973
CRC32 hash (test run) : 85C7B35C
CRC32 hash : 85C7B35C
CRC32 hash (skip zero) : 7D139324
AccurateRip v1 signature : 65B62EC1
AccurateRip v2 signature : 3282D515
->Accurately ripped (v1+v2, confidence 2+5/25)
Statistics
Read error : 0
Jitter error (maybe fixed) : 0
Retry sector count : 0
Damaged sector count : 0

Track 50
Filename : /Volumes/OWC Mercury Elite Pro - #2/Needs something/ Music/Eric Satie - Piano Works (1991) [FLAC] {EMI CZS 7 67282 2}/CD2/50 - Pieces froides. No.1. Airs a faire fuir. III. S'inviter.flac

Track gain : 5.04 dB
Peak : 0.431671
CRC32 hash (test run) : B28C88A0
CRC32 hash : B28C88A0
CRC32 hash (skip zero) : CF3D2379
AccurateRip v1 signature : 2ADB05A1
AccurateRip v2 signature : A71BE449
->Accurately ripped (v1+v2, confidence 2+6/26)
Statistics
Read error : 0
Jitter error (maybe fixed) : 0
Retry sector count : 0
Damaged sector count : 0

Track 51
Filename : /Volumes/OWC Mercury Elite Pro - #2/Needs something/ Music/Eric Satie - Piano Works (1991) [FLAC] {EMI CZS 7 67282 2}/CD2/51 - Pieces froides. No.2. Danses de travers. I. En y regardent par deux fois.flac
Pre-gap length : 00:04:02

Track gain : 6.44 dB
Peak : 0.320404
CRC32 hash (test run) : C0E224DB
CRC32 hash : C0E224DB
CRC32 hash (skip zero) : BC59C6AA
AccurateRip v1 signature : 3EC689E5
AccurateRip v2 signature : DABEA4D9
->Accurately ripped (v1+v2, confidence 2+6/26)
Statistics
Read error : 0
Jitter error (maybe fixed) : 0
Retry sector count : 0
Damaged sector count : 0

Track 52
Filename : /Volumes/OWC Mercury Elite Pro - #2/Needs something/ Music/Eric Satie - Piano Works (1991) [FLAC] {EMI CZS 7 67282 2}/CD2/52 - Pieces froides. No.2. Danses de travers. II. Passer.flac

Track gain : 5.13 dB
Peak : 0.449432
CRC32 hash (test run) : D73DC0EE
CRC32 hash : D73DC0EE
CRC32 hash (skip zero) : 4FCBDD4D
AccurateRip v1 signature : 0B671544
AccurateRip v2 signature : FFBA11A6
->Accurately ripped (v1+v2, confidence 2+6/26)
Statistics
Read error : 0
Jitter error (maybe fixed) : 0
Retry sector count : 0
Damaged sector count : 0

Track 53
Filename : /Volumes/OWC Mercury Elite Pro - #2/Needs something/ Music/Eric Satie - Piano Works (1991) [FLAC] {EMI CZS 7 67282 2}/CD2/53 - Pieces froides. No.2. Danses de travers. III. Encore.flac

Track gain : 3.72 dB
Peak : 0.432892
CRC32 hash (test run) : 97D6A361
CRC32 hash : 97D6A361
CRC32 hash (skip zero) : BB5C625E
AccurateRip v1 signature : 420C537F
AccurateRip v2 signature : B2552A92
->Accurately ripped (v1+v2, confidence 2+6/26)
Statistics
Read error : 0
Jitter error (maybe fixed) : 0
Retry sector count : 0
Damaged sector count : 0

Track 54
Filename : /Volumes/OWC Mercury Elite Pro - #2/Needs something/ Music/Eric Satie - Piano Works (1991) [FLAC] {EMI CZS 7 67282 2}/CD2/54 - La belle excentrique, fantaisie serieuse pour piano a 4 mains - I. Grande ritournelle.flac
Pre-gap length : 00:04:00

Track gain : -2.35 dB
Peak : 0.786346
CRC32 hash (test run) : F0E73AC9
CRC32 hash : F0E73AC9
CRC32 hash (skip zero) : 87FCBB0C
AccurateRip v1 signature : B2CFF765
AccurateRip v2 signature : C166425F
->Accurately ripped (v1+v2, confidence 2+6/26)
Statistics
Read error : 0
Jitter error (maybe fixed) : 0
Retry sector count : 0
Damaged sector count : 0

Track 55
Filename : /Volumes/OWC Mercury Elite Pro - #2/Needs something/ Music/Eric Satie - Piano Works (1991) [FLAC] {EMI CZS 7 67282 2}/CD2/55 - La belle excentrique, fantaisie serieuse pour piano a 4 mains - II. Marche franco-lunaire.flac

Track gain : -1.50 dB
Peak : 0.673981
CRC32 hash (test run) : E1CA71F3
CRC32 hash : E1CA71F3
CRC32 hash (skip zero) : 754AFB12
AccurateRip v1 signature : 2BB357BC
AccurateRip v2 signature : F195DAAB
->Accurately ripped (v1+v2, confidence 2+6/26)
Statistics
Read error : 0
Jitter error (maybe fixed) : 0
Retry sector count : 0
Damaged sector count : 0

Track 56
Filename : /Volumes/OWC Mercury Elite Pro - #2/Needs something/ Music/Eric Satie - Piano Works (1991) [FLAC] {EMI CZS 7 67282 2}/CD2/56 - La belle excentrique, fantaisie serieuse pour piano a 4 mains - III. Valse du 'Mysterieux baiser dans l'oeil'.flac

Track gain : -1.98 dB
Peak : 0.789673
CRC32 hash (test run) : 6367D41F
CRC32 hash : 6367D41F
CRC32 hash (skip zero) : C4FD1BCA
AccurateRip v1 signature : 6F59A138
AccurateRip v2 signature : CC120EFB
->Accurately ripped (v1+v2, confidence 2+6/26)
Statistics
Read error : 0
Jitter error (maybe fixed) : 0
Retry sector count : 0
Damaged sector count : 0

Track 57
Filename : /Volumes/OWC Mercury Elite Pro - #2/Needs something/ Music/Eric Satie - Piano Works (1991) [FLAC] {EMI CZS 7 67282 2}/CD2/57 - La belle excentrique, fantaisie serieuse pour piano a 4 mains - IV. Can-can grand-mondain.flac

Track gain : -1.87 dB
Peak : 0.728821
CRC32 hash (test run) : 172F3319
CRC32 hash : 172F3319
CRC32 hash (skip zero) : F034559E
AccurateRip v1 signature : 52C01A96
AccurateRip v2 signature : E6864C6A
->Accurately ripped (v1+v2, confidence 2+6/26)
Statistics
Read error : 0
Jitter error (maybe fixed) : 0
Retry sector count : 0
Damaged sector count : 0

Track 58
Filename : /Volumes/OWC Mercury Elite Pro - #2/Needs something/ Music/Eric Satie - Piano Works (1991) [FLAC] {EMI CZS 7 67282 2}/CD2/58 - Trois Sarabandes - No. 1.flac
Pre-gap length : 00:04:10

Track gain : 9.77 dB
Peak : 0.510468
CRC32 hash (test run) : 5B30F263
CRC32 hash : 5B30F263
CRC32 hash (skip zero) : D5521F95
AccurateRip v1 signature : D34571F5
AccurateRip v2 signature : F2A117F9
->Accurately ripped (v1+v2, confidence 2+6/24)
Statistics
Read error : 0
Jitter error (maybe fixed) : 0
Retry sector count : 0
Damaged sector count : 0

Track 59
Filename : /Volumes/OWC Mercury Elite Pro - #2/Needs something/ Music/Eric Satie - Piano Works (1991) [FLAC] {EMI CZS 7 67282 2}/CD2/59 - Trois Sarabandes - No. 2.flac

Track gain : 8.98 dB
Peak : 0.398468
CRC32 hash (test run) : 18F92661
CRC32 hash : 18F92661
CRC32 hash (skip zero) : EFF007D0
AccurateRip v1 signature : 9CF557AB
AccurateRip v2 signature : 0E75DA3E
->Accurately ripped (v1+v2, confidence 2+6/26)
Statistics
Read error : 0
Jitter error (maybe fixed) : 0
Retry sector count : 0
Damaged sector count : 0

Track 60
Filename : /Volumes/OWC Mercury Elite Pro - #2/Needs something/ Music/Eric Satie - Piano Works (1991) [FLAC] {EMI CZS 7 67282 2}/CD2/60 - Trois Sarabandes - No. 3.flac

Track gain : 8.63 dB
Peak : 0.408081
CRC32 hash (test run) : 7F96DE4A
CRC32 hash : 7F96DE4A
CRC32 hash (skip zero) : 63B98BE3
AccurateRip v1 signature : 562B062D
AccurateRip v2 signature : 3BAEF612
->Accurately ripped (v1+v2, confidence 2+6/26)
Statistics
Read error : 0
Jitter error (maybe fixed) : 0
Retry sector count : 0
Damaged sector count : 0

No errors occurred

End of status report

––-BEGIN XLD SIGNATURE––-
8M5vvhbMe2OzltpN1O01aNTBV5J2W4GZe_u4_GFr5cQXzkqYnWufvCrQyrxtdZdNV25cxQxlM5AYiQ8Y6xjtEcA0PLsnjc7ZuKVuomq
––-END XLD SIGNATURE––-


Erik Satie - Oeuvres Pour Piano - Piano Works - Aldo Ciccolini (1991) {2CD Set EMI Classics rec 1966-1971}



===