Subcategories
Tags
Language
Tags

Esquire - III: No Spare Planet (2016)

Posted By: Domestos
Esquire - III: No Spare Planet (2016)

Esquire - III: No Spare Planet (2016)
EAC Rip | FLAC (image+.cue, log) ~ 320.81 Mb + 276.09 Mb (Scans) | MP3 CBR 320kbps ~ 103.86 Mb | 44:54
Prog Rock | Country: UK | Label: Esquire Music Records - ESQ003CD

Esquire is the band formed by Nikki Squire, the ex-wife of Chris Squire from Yes, and debuted on the Geffen label. The band then followed up with a second album in 1997 called Coming Home and this album, No Spare Planet completes the Esquire trilogy. The band has championed a unique and sophisticated sound and they straddled traditional music boundaries and essentially unleashed an innovative style of progressive rock that was varied, accessible and modern. An Esquire album is an event, a rare occasion when fans receive new music and this, Esquire III comes two decades after the last album and brings the band right up to date.



Track List:
01. Ministry of Life [00:08:08]
02. She Said [00:04:29]
03. Human Rhythm [00:04:58]
04. Tonight [00:04:18]
05. Friends & Enemies [00:04:38]
06. It's Over [00:04:39]
07. Where Is the Love [00:04:55]
08. Stay Low [00:04:20]
09. Heaven Blessed [00:04:25]

Nikki Squire - Vocals
Nigel McLaren - All Instruments, Vocals
Gez Murphy - Additional Guitar (1)
John Baker - Additional Guitar (8)
Robbie Blunt - Additional Guitar (2, 4, 6)
Lisa LaRue - Keyboards (8)
Isabelle Meyrignac - Flute (1, 7)

Esquire - III: No Spare Planet (2016)

Exact Audio Copy V1.3 from 2. September 2016

Отчёт EAC об извлечении, выполненном 27. сентября 2020, 15:38

Esquire / No Spare Planet

Дисковод: HL-DT-STDVDRAM GT70N Adapter: 1 ID: 0

Режим чтения : Достоверность
Использование точного потока : Да
Отключение кэша аудио : Да
Использование указателей C2 : Нет

Коррекция смещения при чтении : 103
Способность читать области Lead-in и Lead-out : Нет
Заполнение пропущенных сэмплов тишиной : Да
Удаление блоков с тишиной в начале и конце : Нет
При вычислениях CRC использовались нулевые сэмплы : Да
Интерфейс : Встроенный Win32-интерфейс для Win NT/2000

Выходной формат : Пользовательский кодировщик
Выбранный битрейт : 1024 kBit/s
Качество : Высокий
Добавление ID3-тега : Нет
Утилита сжатия : C:\Program Files (x86)\Exact Audio Copy\Flac\flac.exe
Дополнительные параметры : -V -8 -T "Date=%year%" -T "Genre=%genre%" %source%


TOC извлечённого CD

Трек | Старт | Длительность | Начальный сектор | Конечный сектор
––––––––––––––––––––––––––––––––––-
1 | 0:00.00 | 8:08.65 | 0 | 36664
2 | 8:08.65 | 4:29.16 | 36665 | 56855
3 | 12:38.06 | 4:58.17 | 56856 | 79222
4 | 17:36.23 | 4:18.45 | 79223 | 98617
5 | 21:54.68 | 4:38.29 | 98618 | 119496
6 | 26:33.22 | 4:39.17 | 119497 | 140438
7 | 31:12.39 | 4:55.59 | 140439 | 162622
8 | 36:08.23 | 4:20.47 | 162623 | 182169
9 | 40:28.70 | 4:25.65 | 182170 | 202109


Характеристики диапазона извлечения и сообщения об ошибках

Выбранный диапазон

Имя файла D:\Esquire - No Spare Planet (2016) CD\Esquire - No Spare Planet.wav

Пиковый уровень 97.5 %
Скорость извлечения 4.1 X
Качество диапазона 100.0 %
CRC теста 9EC9D001
CRC копии 9EC9D001
Копирование… OK

Ошибок не произошло


AccurateRip: сводка

Трек 1 отсутствует в базе данных
Трек 2 отсутствует в базе данных
Трек 3 отсутствует в базе данных
Трек 4 отсутствует в базе данных
Трек 5 отсутствует в базе данных
Трек 6 отсутствует в базе данных
Трек 7 отсутствует в базе данных
Трек 8 отсутствует в базе данных
Трек 9 отсутствует в базе данных

Ни одного трека нет в базе AccurateRip

Конец отчёта

–– CUETools DB Plugin V2.1.6

[CTDB TOCID: Pf7QqAbHuBfWKSgb6KQgYRN2fLg-] found
Submit result: Pf7QqAbHuBfWKSgb6KQgYRN2fLg- has been confirmed
Track | CTDB Status
1 | (2/2) Accurately ripped
2 | (2/2) Accurately ripped
3 | (2/2) Accurately ripped
4 | (2/2) Accurately ripped
5 | (2/2) Accurately ripped
6 | (2/2) Accurately ripped
7 | (2/2) Accurately ripped
8 | (2/2) Accurately ripped
9 | (2/2) Accurately ripped


==== Контрольная сумма отчёта 1FDE1349FD68A0AF9414D027BEDA3C0E9485F311C625ADF4DD1BEA85FD7E7E3D ====

All thanks go to the verbiya

More Music in My Blog
Follow My RSS Channel