Tags
Language
Tags

Esther Phillips - Brand New Day: The Lenox Atlantic & Roulette Recordings 1962-1970 (2020) {5CD Set, Soul Music QSMCR-5194BX}

Posted By: ruskaval
Esther Phillips - Brand New Day: The Lenox Atlantic & Roulette Recordings 1962-1970 (2020) {5CD Set, Soul Music QSMCR-5194BX}

Esther Phillips - Brand New Day: The Lenox Atlantic & Roulette Recordings 1962-1970 (2020) {5CD Set, Soul Music QSMCR-5194BX}
EAC rip (secure mode) | FLAC (tracks)+CUE+LOG -> 1.76 Gb | MP3 @320 -> 801 Mb
Artwork @ 300 dpi (jpg) -> 45 Mb | 5% repair rar
© 1962-70, 2020 Soul Music Records | QSMCR-5194BX
Jazz / R&B / Jazz Blues / Soul

The late Esther Phillips (1935-1984) has often been considered one of the ‘unsung’ pioneers in the world of R&B, stretching back to the early ‘50s when as a child star working with famed bandleader Johnny Otis, she enjoyed a run of chart-topping singles at the age of 15, making her the youngest female artist to ever have an No. 1 R&B hit at the time. The Texas-born vocalist returned in 1962 with a soulful version of the country hit, ‘Release Me’ for Lenox Records, subsequently signing with Atlantic Records for whom she recorded a total of four full albums between 1964-1970 with a brief spell at Roulette Records in 1969.
Esther Phillips - Brand New Day: The Lenox Atlantic & Roulette Recordings 1962-1970 (2020) {5CD Set, Soul Music QSMCR-5194BX}

Produced by SoulMusic Records founder David Nathan (who first met Esther in 1965), “Brand New Day – The Lenox/Atlantic & Roulette Recordings” is a sumptuous first-of-its-kind 5-CD box set, consisting of (102) tracks of Esther’s work in a variety of different musical settings, sequenced by session and containing a number of previously unreleased cuts as well as non-album singles making their CD debut. An 8,000-word informative and extensive essay by renowned UK writer Charles Waring, alongside superb mastering by Nick Robbins and first class artwork by Roger Williams make this box set an overdue celebration of Esther Phillips’ glorious artistry, in particular as a commemoration of her passing in August, 1984 at the age of 48.
Esther Phillips - Brand New Day: The Lenox Atlantic & Roulette Recordings 1962-1970 (2020) {5CD Set, Soul Music QSMCR-5194BX}

• Disc 1: AM I THAT EASY TO FORGET covers Esther’s recordings for Lenox Records including her 1962 hit version of ‘Release Me’, her sole LP for the label (reissued by Atlantic in 1966 as “The Country Side Of Esther Phillips”) plus nine non-album tracks including two duets with ‘Big Al’ Downing, most making their digital debut alongside Esther’s first recordings for Atlantic.

• Disc 2: JUST SAY GOODBYE (titled after the popular UK Northern soul track) includes Esther’s first two albums for Atlantic, 1965’s “And I Love Him!”, the title track of which yielded her US hit cover of the Lennon & McCartney song and the 1966 LP “Esther Phillips Sings”, with big band arrangements by Oliver Nelson, Ray Ellis & Jimmy Wisner.

• Disc 3: TOO LATE TO WORRY, TOO BLUE TO CRY features Atlantic recordings cut between 1966-1967, primarily singles’ sessions with a previously unreleased track (‘Watch Dog’) from Esther’s only session in Memphis and eight 1966 Nesuhi Ertegun-helmed, Onzy Matthews-arranged tracks including the previously unreleased ‘Rocks In My Bed’; as well as the six tracks from Esther’s 1969 sessions for Roulette Records.

• Disc 4: I’M GETTIN’ ‘LONG ALRIGHT is the first-ever release of all the tracks from Esther’s best-selling Atlantic album “Burnin’” produced by King Curtis, recorded live in January 1970 at Freddie Jett’s Pied Piper club, with two previously unissued cuts, ‘Just In Time’ and ‘Fancy’ and two outtakes.

• Disc 5: CATCH ME I’M FALLING (a UK Northern soul favourite track) completes Esther’s Atlantic legacy with four cuts from the ‘live’ 1970 sessions including the previously unissued ‘Feel Like I Want To Cry’ and two outtakes without studio overdubs; and the eleven tracks from her 1970 Miami sessions originally planned as an entire LP, only issued in 1986 as part of a posthumous retrospective entitled “Set Me Free”.
Esther Phillips - Brand New Day: The Lenox Atlantic & Roulette Recordings 1962-1970 (2020) {5CD Set, Soul Music QSMCR-5194BX}


TRACK LISTING

DISC ONE

AM I THAT EASY TO FORGET

LENOX RECORDINGS (1962-63)

1. I CAN’T HELP IT
2. AM I THAT EASY TO FORGET
3. BE HONEST WITH ME
4. I REALLY DON’T WANT TO KNOW
5. I’VE FORGOTTEN MORE THAN YOU’LL EVER KNOW ABOUT HIM
6. JUST OUT OF REACH
7. NO HEADSTONE ON MY GRAVE
8. WHY SHOULD WE TRY ANYMORE
9. AFTER LOVING YOU
10. I’D FIGHT THE WORLD
11. RELEASE ME
12. A LOVER’S HYMN
13. DON’T FEEL RAINED ON
14. GOD BLESS THE CHILD
15. HALF A HEART
16. WHY WAS I BORN
17. DON’T LET ME GO
18. WHILE IT LASTED
19. YOU NEVER MISS YOUR WATER (TILL THE WELL RUNS DRY) – with Big Al Downing
20. IF YOU WANT IT (I’VE GOT IT) with Big Al Downing

ATLANTIC RECORDINGS (1964)
21. HELLO WALLS
22. MOJO HANNAH
23. I SAW ME
24. DOUBLE CROSSIN’ BLUES – with Jimmy Ricks

DISC TWO

JUST SAY GOODBYE

ATLANTIC RECORDINGS (1964-66)

1. IF YOU LOVE ME, REALLY LOVE ME
2. MAKE BELIEVE DREAMS
3. TOO SOON TO KNOW
4. YOU’RE THE REASON I’M LIVING
5. OUT OF THE BLUE
6. MAKIN’ WHOOPEE
7. SHANGRI-LA
8. I WISH YOU LOVE
9. ‘TIS AUTUMN
10. PEOPLE
11. THE GIRL FROM IPANEMA
12. MEDLEY: MOONGLOW /
A THEME FROM PICNIC
13. AND I LOVE HIM
14. SOME THINGS YOU NEVER
GET USED TO
15. LET ME KNOW WHEN IT’S OVER
16. I COULD HAVE TOLD YOU
17. HE TOUCHED ME
18. YOU CAN’T GO HOME AGAIN
19. THE SHADOW OF YOUR SMILE
20. THE PARTY’S OVER
21. A TASTE OF HONEY
22. IT’S ALL RIGHT WITH ME
23. JUST SAY GOODBYE
24. AS TEARS GO BY
25. UPS AND DOWNS
26. EVERY TIME WE SAY GOODBYE
27. LET THERE BE LOVE
28. CRAZY HE CALLS ME

DISC THREE

TOO LATE TO WORRY,
TOO LATE TO CRY

ATLANTIC RECORDINGS (1965-67)

1. WHEN A WOMAN LOVES A MAN
2. SOMEBODY ELSE IS
TAKING MY PLACE
3. FEVER
4. TRY ME
5. WHEN LOVE COMES TO
THE HUMAN RACE
6. C.C. RIDER
7. CHERRY RED
8. CONFESSIN’ THE BLUES
9. I’M GETTIN’ ‘LONG ALRIGHT
10. ROCKS IN MY BED
(PREVIOUSLY UNRELEASED)
11. IN THE EVENING
12. ROMANCE IN THE DARK
13. I WONDER
14. CHEATER MAN
15. I’M SORRY
16. WATCH DOG
(PREVIOUSLY UNRELEASED)

ROULETTE RECORDINGS (1969)
17. TOO LATE TO WORRY, TOO BLUE TO CRY
18. I’M IN THE MOOD FOR LOVE (MOODY’S MOOD FOR LOVE)
19. TONIGHT, I’LL BE STAYING
HERE WITH YOU
20. SWEET DREAMS
21. TOO MUCH OF A MAN
(TO BE TIED DOWN)
22. NOBODY BUT YOU

DISC FOUR

I’M GETTIN’ ‘LONG ALRIGHT

ATLANTIC RECORDINGS (1970)

1. DON’T LET ME LOSE THIS DREAM (LIVE)
2. AND I LOVE HIM (LIVE)
3. I LOVE PARIS (LIVE)
4. CRY ME A RIVER BLUES (LIVE)
5. I’M GETTIN’ ‘LONG ALRIGHT (LIVE)
6. RELEASE ME (LIVE)
7. IF IT’S THE LAST THING I DO (LIVE)
8. MAKIN’ WHOOPEE (LIVE)
9. SHANGRI-LA (LIVE)
10. PLEASE SEND ME SOMEONE TO LOVE (LIVE)
11. JUST IN TIME (LIVE) (PREVIOUSLY UNRELEASED)
12. BYE BYE BLACKBIRD (LIVE OUTTAKE) (PREVIOUSLY UNRELEASED)
13. FANCY (LIVE) (PREVIOUSLY UNRELEASED)
14. BAD NEWS BLUES AKA MEDLEY: BLOW TOP BLUES/JELLY JELLY BLUES/LONG JOHN BLUES (LIVE OUTTAKE) (PREVIOUSLY UNRELEASED)

DISC FIVE
CATCH ME I’M FALLING

ATLANTIC RECORDINGS (1970 continued)

1. DON’T LET ME LOSE THIS DREAM
(LIVE OUTTAKE) (PREVIOUSLY UNRELEASED)
2. FEEL LIKE I WANT TO CRY AKA FEEL LIKE I WANNA CRY (LIVE) (PREVIOUSLY UNRELEASED)
3. PLEASE SEND ME SOMEONE TO LOVE
(LIVE OUTTAKE) (PREVIOUSLY UNRELEASED)
4. IT COULD HAPPEN TO YOU AKA LOOK WHAT HAPPENED TO ME (LIVE)
5. A WOMAN WILL DO WRONG
6. CATCH ME I’M FALLING
7. SOME CATS KNOW
8. SET ME FREE
9. BRAND NEW DAY
10. I’M IN LOVE
11. JUST LIKE A FISH
12. TOMORROW NIGHT
13. ALL GOD HAS IS US
14. HE KNOWS WHAT TO DO FOR ME
15. CRAZY LOVE

Exact Audio Copy V1.3 from 2. September 2016

EAC extraction logfile from 10. September 2020, 12:04

Esther Phillips / Brand New Day

Used drive : PLEXTOR PX-891SAF Adapter: 1 ID: 0

Read mode : Secure
Utilize accurate stream : Yes
Defeat audio cache : Yes
Make use of C2 pointers : No

Read offset correction : 6
Overread into Lead-In and Lead-Out : No
Fill up missing offset samples with silence : Yes
Delete leading and trailing silent blocks : No
Null samples used in CRC calculations : Yes
Used interface : Native Win32 interface for Win NT & 2000
Gap handling : Appended to previous track

Used output format : User Defined Encoder
Selected bitrate : 1024 kBit/s
Quality : High
Add ID3 tag : No
Command line compressor : C:\Program Files (x86)\Exact Audio Copy\Flac\flac.exe
Additional command line options : -8 -V -T "ARTIST=%artist%" -T "TITLE=%title%" -T "ALBUM=%albumtitle%" -T "DATE=%year%" -T "TRACKNUMBER=%tracknr%" -T "GENRE=%genre%" -T "PERFORMER=%albuminterpret%" -T "COMPOSER=%composer%" %haslyrics%–tag-from-file=LYRICS="%lyricsfile%"%haslyrics% -T "ALBUMARTIST=%albumartist%" -T "DISCNUMBER=%cdnumber%" -T "TOTALDISCS=%totalcds%" -T "TOTALTRACKS=%numtracks%" -T "COMMENT=%comment%" %source% -o %dest%


TOC of the extracted CD

Track | Start | Length | Start sector | End sector
––––––––––––––––––––––––––––-
1 | 0:00.00 | 3:05.06 | 0 | 13880
2 | 3:05.06 | 2:46.07 | 13881 | 26337
3 | 5:51.13 | 3:10.03 | 26338 | 40590
4 | 9:01.16 | 2:01.33 | 40591 | 49698
5 | 11:02.49 | 3:10.43 | 49699 | 63991
6 | 14:13.17 | 3:07.18 | 63992 | 78034
7 | 17:20.35 | 3:19.19 | 78035 | 92978
8 | 20:39.54 | 2:08.01 | 92979 | 102579
9 | 22:47.55 | 3:09.61 | 102580 | 116815
10 | 25:57.41 | 2:50.17 | 116816 | 129582
11 | 28:47.58 | 3:18.48 | 129583 | 144480
12 | 32:06.31 | 2:57.53 | 144481 | 157808
13 | 35:04.09 | 2:28.08 | 157809 | 168916
14 | 37:32.17 | 2:04.23 | 168917 | 178239
15 | 39:36.40 | 2:19.31 | 178240 | 188695
16 | 41:55.71 | 2:49.63 | 188696 | 201433
17 | 44:45.59 | 2:53.41 | 201434 | 214449
18 | 47:39.25 | 2:45.10 | 214450 | 226834
19 | 50:24.35 | 2:17.65 | 226835 | 237174
20 | 52:42.25 | 2:21.72 | 237175 | 247821
21 | 55:04.22 | 3:22.74 | 247822 | 263045
22 | 58:27.21 | 2:21.35 | 263046 | 273655
23 | 60:48.56 | 3:12.42 | 273656 | 288097
24 | 64:01.23 | 2:38.62 | 288098 | 300009


Track 1

Filename D:\#cdr\#wav+flac\#New\Esther Phillips - Brand New Day\cd 1\01. Esther Phillips - I Can't Help It.wav

Pre-gap length 0:00:02.00

Peak level 95.4 %
Extraction speed 4.8 X
Track quality 100.0 %
Test CRC 956B2D4D
Copy CRC 956B2D4D
Track not present in AccurateRip database
Copy OK

Track 2

Filename D:\#cdr\#wav+flac\#New\Esther Phillips - Brand New Day\cd 1\02. Esther Phillips - Am I That Easy To Forget.wav

Pre-gap length 0:00:02.04

Peak level 95.4 %
Extraction speed 5.1 X
Track quality 100.0 %
Test CRC B78243E9
Copy CRC B78243E9
Track not present in AccurateRip database
Copy OK

Track 3

Filename D:\#cdr\#wav+flac\#New\Esther Phillips - Brand New Day\cd 1\03. Esther Phillips - Be Honest With Me.wav

Pre-gap length 0:00:01.77

Peak level 95.4 %
Extraction speed 5.6 X
Track quality 100.0 %
Test CRC 57FE8AC1
Copy CRC 57FE8AC1
Track not present in AccurateRip database
Copy OK

Track 4

Filename D:\#cdr\#wav+flac\#New\Esther Phillips - Brand New Day\cd 1\04. Esther Phillips - I Really Don't Want To Know.wav

Pre-gap length 0:00:01.72

Peak level 93.6 %
Extraction speed 5.3 X
Track quality 100.0 %
Test CRC AEB4E8DF
Copy CRC AEB4E8DF
Track not present in AccurateRip database
Copy OK

Track 5

Filename D:\#cdr\#wav+flac\#New\Esther Phillips - Brand New Day\cd 1\05. Esther Phillips - I've Forgotten More Than You'll Ever Know About Him.wav

Pre-gap length 0:00:02.01

Peak level 95.4 %
Extraction speed 5.0 X
Track quality 99.9 %
Test CRC 0D8C0F8E
Copy CRC 0D8C0F8E
Track not present in AccurateRip database
Copy OK

Track 6

Filename D:\#cdr\#wav+flac\#New\Esther Phillips - Brand New Day\cd 1\06. Esther Phillips - Just Out Of Reach.wav

Pre-gap length 0:00:01.77

Peak level 95.4 %
Extraction speed 5.2 X
Track quality 99.9 %
Test CRC 7A9B25F9
Copy CRC 7A9B25F9
Track not present in AccurateRip database
Copy OK

Track 7

Filename D:\#cdr\#wav+flac\#New\Esther Phillips - Brand New Day\cd 1\07. Esther Phillips - No Headstone On My Grave.wav

Pre-gap length 0:00:01.93

Peak level 95.4 %
Extraction speed 6.9 X
Track quality 100.0 %
Test CRC FCC4FE36
Copy CRC FCC4FE36
Track not present in AccurateRip database
Copy OK

Track 8

Filename D:\#cdr\#wav+flac\#New\Esther Phillips - Brand New Day\cd 1\08. Esther Phillips - Why Should We Try Anymore.wav

Pre-gap length 0:00:01.89

Peak level 95.4 %
Extraction speed 6.5 X
Track quality 100.0 %
Test CRC 31B542FE
Copy CRC 31B542FE
Track not present in AccurateRip database
Copy OK

Track 9

Filename D:\#cdr\#wav+flac\#New\Esther Phillips - Brand New Day\cd 1\09. Esther Phillips - After Loving You.wav

Pre-gap length 0:00:01.74

Peak level 95.5 %
Extraction speed 7.3 X
Track quality 100.0 %
Test CRC E027B765
Copy CRC E027B765
Track not present in AccurateRip database
Copy OK

Track 10

Filename D:\#cdr\#wav+flac\#New\Esther Phillips - Brand New Day\cd 1\10. Esther Phillips - I'd Fight The World.wav

Pre-gap length 0:00:01.50

Peak level 91.6 %
Extraction speed 7.5 X
Track quality 100.0 %
Test CRC 496DE867
Copy CRC 496DE867
Track not present in AccurateRip database
Copy OK

Track 11

Filename D:\#cdr\#wav+flac\#New\Esther Phillips - Brand New Day\cd 1\11. Esther Phillips - Release Me.wav

Pre-gap length 0:00:01.72

Peak level 95.4 %
Extraction speed 7.7 X
Track quality 100.0 %
Test CRC D67CFE32
Copy CRC D67CFE32
Track not present in AccurateRip database
Copy OK

Track 12

Filename D:\#cdr\#wav+flac\#New\Esther Phillips - Brand New Day\cd 1\12. Esther Phillips - God Bless The Child.wav

Pre-gap length 0:00:01.65

Peak level 75.3 %
Extraction speed 8.0 X
Track quality 100.0 %
Test CRC B6213F45
Copy CRC B6213F45
Track not present in AccurateRip database
Copy OK

Track 13

Filename D:\#cdr\#wav+flac\#New\Esther Phillips - Brand New Day\cd 1\13. Esther Phillips - The Lover's Hymn.wav

Pre-gap length 0:00:01.57

Peak level 77.0 %
Extraction speed 7.9 X
Track quality 100.0 %
Test CRC E733A815
Copy CRC E733A815
Track not present in AccurateRip database
Copy OK

Track 14

Filename D:\#cdr\#wav+flac\#New\Esther Phillips - Brand New Day\cd 1\14. Esther Phillips - Don't Feel Rained On.wav

Pre-gap length 0:00:01.64

Peak level 62.9 %
Extraction speed 7.8 X
Track quality 100.0 %
Test CRC 228D3466
Copy CRC 228D3466
Track not present in AccurateRip database
Copy OK

Track 15

Filename D:\#cdr\#wav+flac\#New\Esther Phillips - Brand New Day\cd 1\15. Esther Phillips - You Never Miss Your Water.wav

Pre-gap length 0:00:02.16

Peak level 63.7 %
Extraction speed 6.0 X
Track quality 99.9 %
Test CRC 44F54146
Copy CRC 44F54146
Track not present in AccurateRip database
Copy OK

Track 16

Filename D:\#cdr\#wav+flac\#New\Esther Phillips - Brand New Day\cd 1\16. Esther Phillips - If You Want It I've Got It.wav

Pre-gap length 0:00:01.90

Peak level 73.0 %
Extraction speed 8.6 X
Track quality 100.0 %
Test CRC 7AC676E6
Copy CRC 7AC676E6
Track not present in AccurateRip database
Copy OK

Track 17

Filename D:\#cdr\#wav+flac\#New\Esther Phillips - Brand New Day\cd 1\17. Esther Phillips - Half A Heart.wav

Pre-gap length 0:00:02.02

Peak level 81.4 %
Extraction speed 8.8 X
Track quality 100.0 %
Test CRC BA455ACC
Copy CRC BA455ACC
Track not present in AccurateRip database
Copy OK

Track 18

Filename D:\#cdr\#wav+flac\#New\Esther Phillips - Brand New Day\cd 1\18. Esther Phillips - Why Was I Born.wav

Pre-gap length 0:00:01.94

Peak level 75.5 %
Extraction speed 8.8 X
Track quality 100.0 %
Test CRC EC1B16A2
Copy CRC EC1B16A2
Track not present in AccurateRip database
Copy OK

Track 19

Filename D:\#cdr\#wav+flac\#New\Esther Phillips - Brand New Day\cd 1\19. Esther Phillips - Don't Let Me Go.wav

Pre-gap length 0:00:01.62

Peak level 75.6 %
Extraction speed 8.8 X
Track quality 100.0 %
Test CRC 1969D75D
Copy CRC 1969D75D
Track not present in AccurateRip database
Copy OK

Track 20

Filename D:\#cdr\#wav+flac\#New\Esther Phillips - Brand New Day\cd 1\20. Esther Phillips - He Knows What To Do For Me.wav

Pre-gap length 0:00:01.69

Peak level 66.4 %
Extraction speed 8.9 X
Track quality 100.0 %
Test CRC 95D7C156
Copy CRC 95D7C156
Track not present in AccurateRip database
Copy OK

Track 21

Filename D:\#cdr\#wav+flac\#New\Esther Phillips - Brand New Day\cd 1\21. Esther Phillips - Hello Walls.wav

Pre-gap length 0:00:01.72

Peak level 95.4 %
Extraction speed 9.6 X
Track quality 100.0 %
Test CRC 9E061FB4
Copy CRC 9E061FB4
Track not present in AccurateRip database
Copy OK

Track 22

Filename D:\#cdr\#wav+flac\#New\Esther Phillips - Brand New Day\cd 1\22. Esther Phillips - Mo Jo Hannah.wav

Pre-gap length 0:00:01.86

Peak level 65.1 %
Extraction speed 8.3 X
Track quality 100.0 %
Test CRC FFF74A03
Copy CRC FFF74A03
Track not present in AccurateRip database
Copy OK

Track 23

Filename D:\#cdr\#wav+flac\#New\Esther Phillips - Brand New Day\cd 1\23. Esther Phillips - I Saw Me.wav

Pre-gap length 0:00:01.85

Peak level 95.5 %
Extraction speed 7.8 X
Track quality 99.9 %
Test CRC 6655EB01
Copy CRC 6655EB01
Track not present in AccurateRip database
Copy OK

Track 24

Filename D:\#cdr\#wav+flac\#New\Esther Phillips - Brand New Day\cd 1\24. Esther Phillips - Double Crossing Blues.wav

Pre-gap length 0:00:01.77

Peak level 95.0 %
Extraction speed 9.7 X
Track quality 100.0 %
Test CRC 5CC6FA47
Copy CRC 5CC6FA47
Track not present in AccurateRip database
Copy OK


None of the tracks are present in the AccurateRip database

No errors occurred

End of status report

–– CUETools DB Plugin V2.1.6

[CTDB TOCID: FAvOHQdh1Go_A1BOtQRPMlyYFek-] found
Submit result: FAvOHQdh1Go_A1BOtQRPMlyYFek- has been confirmed
Track | CTDB Status
1 | (1/1) Accurately ripped
2 | (1/1) Accurately ripped
3 | (1/1) Accurately ripped
4 | (1/1) Accurately ripped
5 | (1/1) Accurately ripped
6 | (1/1) Accurately ripped
7 | (1/1) Accurately ripped
8 | (1/1) Accurately ripped
9 | (1/1) Accurately ripped
10 | (1/1) Accurately ripped
11 | (1/1) Accurately ripped
12 | (1/1) Accurately ripped
13 | (1/1) Accurately ripped
14 | (1/1) Accurately ripped
15 | (1/1) Accurately ripped
16 | (1/1) Accurately ripped
17 | (1/1) Accurately ripped
18 | (1/1) Accurately ripped
19 | (1/1) Accurately ripped
20 | (1/1) Accurately ripped
21 | (1/1) Accurately ripped
22 | (1/1) Accurately ripped
23 | (1/1) Accurately ripped
24 | (1/1) Accurately ripped


==== Log checksum C0266774FCDE45F9EB8511C100073527950252926D9ADC359EFCCEB38185531C ====

––––––––––––––––––––––––––––––

Exact Audio Copy V1.3 from 2. September 2016

EAC extraction logfile from 10. September 2020, 12:04

Esther Phillips / Brand New Day

Used drive : PLEXTOR PX-891SAF Adapter: 1 ID: 0

Read mode : Secure
Utilize accurate stream : Yes
Defeat audio cache : Yes
Make use of C2 pointers : No

Read offset correction : 6
Overread into Lead-In and Lead-Out : No
Fill up missing offset samples with silence : Yes
Delete leading and trailing silent blocks : No
Null samples used in CRC calculations : Yes
Used interface : Native Win32 interface for Win NT & 2000
Gap handling : Appended to previous track

Used output format : User Defined Encoder
Selected bitrate : 1024 kBit/s
Quality : High
Add ID3 tag : No
Command line compressor : C:\Program Files (x86)\Exact Audio Copy\Flac\flac.exe
Additional command line options : -8 -V -T "ARTIST=%artist%" -T "TITLE=%title%" -T "ALBUM=%albumtitle%" -T "DATE=%year%" -T "TRACKNUMBER=%tracknr%" -T "GENRE=%genre%" -T "PERFORMER=%albuminterpret%" -T "COMPOSER=%composer%" %haslyrics%–tag-from-file=LYRICS="%lyricsfile%"%haslyrics% -T "ALBUMARTIST=%albumartist%" -T "DISCNUMBER=%cdnumber%" -T "TOTALDISCS=%totalcds%" -T "TOTALTRACKS=%numtracks%" -T "COMMENT=%comment%" %source% -o %dest%


TOC of the extracted CD

Track | Start | Length | Start sector | End sector
––––––––––––––––––––––––––––-
1 | 0:00.00 | 3:05.06 | 0 | 13880
2 | 3:05.06 | 2:46.07 | 13881 | 26337
3 | 5:51.13 | 3:10.03 | 26338 | 40590
4 | 9:01.16 | 2:01.33 | 40591 | 49698
5 | 11:02.49 | 3:10.43 | 49699 | 63991
6 | 14:13.17 | 3:07.18 | 63992 | 78034
7 | 17:20.35 | 3:19.19 | 78035 | 92978
8 | 20:39.54 | 2:08.01 | 92979 | 102579
9 | 22:47.55 | 3:09.61 | 102580 | 116815
10 | 25:57.41 | 2:50.17 | 116816 | 129582
11 | 28:47.58 | 3:18.48 | 129583 | 144480
12 | 32:06.31 | 2:57.53 | 144481 | 157808
13 | 35:04.09 | 2:28.08 | 157809 | 168916
14 | 37:32.17 | 2:04.23 | 168917 | 178239
15 | 39:36.40 | 2:19.31 | 178240 | 188695
16 | 41:55.71 | 2:49.63 | 188696 | 201433
17 | 44:45.59 | 2:53.41 | 201434 | 214449
18 | 47:39.25 | 2:45.10 | 214450 | 226834
19 | 50:24.35 | 2:17.65 | 226835 | 237174
20 | 52:42.25 | 2:21.72 | 237175 | 247821
21 | 55:04.22 | 3:22.74 | 247822 | 263045
22 | 58:27.21 | 2:21.35 | 263046 | 273655
23 | 60:48.56 | 3:12.42 | 273656 | 288097
24 | 64:01.23 | 2:38.62 | 288098 | 300009


Track 1

Filename D:\#cdr\#wav+flac\#New\Esther Phillips - Brand New Day\cd 1\01. Esther Phillips - I Can't Help It.wav

Pre-gap length 0:00:02.00

Peak level 95.4 %
Extraction speed 4.8 X
Track quality 100.0 %
Test CRC 956B2D4D
Copy CRC 956B2D4D
Track not present in AccurateRip database
Copy OK

Track 2

Filename D:\#cdr\#wav+flac\#New\Esther Phillips - Brand New Day\cd 1\02. Esther Phillips - Am I That Easy To Forget.wav

Pre-gap length 0:00:02.04

Peak level 95.4 %
Extraction speed 5.1 X
Track quality 100.0 %
Test CRC B78243E9
Copy CRC B78243E9
Track not present in AccurateRip database
Copy OK

Track 3

Filename D:\#cdr\#wav+flac\#New\Esther Phillips - Brand New Day\cd 1\03. Esther Phillips - Be Honest With Me.wav

Pre-gap length 0:00:01.77

Peak level 95.4 %
Extraction speed 5.6 X
Track quality 100.0 %
Test CRC 57FE8AC1
Copy CRC 57FE8AC1
Track not present in AccurateRip database
Copy OK

Track 4

Filename D:\#cdr\#wav+flac\#New\Esther Phillips - Brand New Day\cd 1\04. Esther Phillips - I Really Don't Want To Know.wav

Pre-gap length 0:00:01.72

Peak level 93.6 %
Extraction speed 5.3 X
Track quality 100.0 %
Test CRC AEB4E8DF
Copy CRC AEB4E8DF
Track not present in AccurateRip database
Copy OK

Track 5

Filename D:\#cdr\#wav+flac\#New\Esther Phillips - Brand New Day\cd 1\05. Esther Phillips - I've Forgotten More Than You'll Ever Know About Him.wav

Pre-gap length 0:00:02.01

Peak level 95.4 %
Extraction speed 5.0 X
Track quality 99.9 %
Test CRC 0D8C0F8E
Copy CRC 0D8C0F8E
Track not present in AccurateRip database
Copy OK

Track 6

Filename D:\#cdr\#wav+flac\#New\Esther Phillips - Brand New Day\cd 1\06. Esther Phillips - Just Out Of Reach.wav

Pre-gap length 0:00:01.77

Peak level 95.4 %
Extraction speed 5.2 X
Track quality 99.9 %
Test CRC 7A9B25F9
Copy CRC 7A9B25F9
Track not present in AccurateRip database
Copy OK

Track 7

Filename D:\#cdr\#wav+flac\#New\Esther Phillips - Brand New Day\cd 1\07. Esther Phillips - No Headstone On My Grave.wav

Pre-gap length 0:00:01.93

Peak level 95.4 %
Extraction speed 6.9 X
Track quality 100.0 %
Test CRC FCC4FE36
Copy CRC FCC4FE36
Track not present in AccurateRip database
Copy OK

Track 8

Filename D:\#cdr\#wav+flac\#New\Esther Phillips - Brand New Day\cd 1\08. Esther Phillips - Why Should We Try Anymore.wav

Pre-gap length 0:00:01.89

Peak level 95.4 %
Extraction speed 6.5 X
Track quality 100.0 %
Test CRC 31B542FE
Copy CRC 31B542FE
Track not present in AccurateRip database
Copy OK

Track 9

Filename D:\#cdr\#wav+flac\#New\Esther Phillips - Brand New Day\cd 1\09. Esther Phillips - After Loving You.wav

Pre-gap length 0:00:01.74

Peak level 95.5 %
Extraction speed 7.3 X
Track quality 100.0 %
Test CRC E027B765
Copy CRC E027B765
Track not present in AccurateRip database
Copy OK

Track 10

Filename D:\#cdr\#wav+flac\#New\Esther Phillips - Brand New Day\cd 1\10. Esther Phillips - I'd Fight The World.wav

Pre-gap length 0:00:01.50

Peak level 91.6 %
Extraction speed 7.5 X
Track quality 100.0 %
Test CRC 496DE867
Copy CRC 496DE867
Track not present in AccurateRip database
Copy OK

Track 11

Filename D:\#cdr\#wav+flac\#New\Esther Phillips - Brand New Day\cd 1\11. Esther Phillips - Release Me.wav

Pre-gap length 0:00:01.72

Peak level 95.4 %
Extraction speed 7.7 X
Track quality 100.0 %
Test CRC D67CFE32
Copy CRC D67CFE32
Track not present in AccurateRip database
Copy OK

Track 12

Filename D:\#cdr\#wav+flac\#New\Esther Phillips - Brand New Day\cd 1\12. Esther Phillips - God Bless The Child.wav

Pre-gap length 0:00:01.65

Peak level 75.3 %
Extraction speed 8.0 X
Track quality 100.0 %
Test CRC B6213F45
Copy CRC B6213F45
Track not present in AccurateRip database
Copy OK

Track 13

Filename D:\#cdr\#wav+flac\#New\Esther Phillips - Brand New Day\cd 1\13. Esther Phillips - The Lover's Hymn.wav

Pre-gap length 0:00:01.57

Peak level 77.0 %
Extraction speed 7.9 X
Track quality 100.0 %
Test CRC E733A815
Copy CRC E733A815
Track not present in AccurateRip database
Copy OK

Track 14

Filename D:\#cdr\#wav+flac\#New\Esther Phillips - Brand New Day\cd 1\14. Esther Phillips - Don't Feel Rained On.wav

Pre-gap length 0:00:01.64

Peak level 62.9 %
Extraction speed 7.8 X
Track quality 100.0 %
Test CRC 228D3466
Copy CRC 228D3466
Track not present in AccurateRip database
Copy OK

Track 15

Filename D:\#cdr\#wav+flac\#New\Esther Phillips - Brand New Day\cd 1\15. Esther Phillips - You Never Miss Your Water.wav

Pre-gap length 0:00:02.16

Peak level 63.7 %
Extraction speed 6.0 X
Track quality 99.9 %
Test CRC 44F54146
Copy CRC 44F54146
Track not present in AccurateRip database
Copy OK

Track 16

Filename D:\#cdr\#wav+flac\#New\Esther Phillips - Brand New Day\cd 1\16. Esther Phillips - If You Want It I've Got It.wav

Pre-gap length 0:00:01.90

Peak level 73.0 %
Extraction speed 8.6 X
Track quality 100.0 %
Test CRC 7AC676E6
Copy CRC 7AC676E6
Track not present in AccurateRip database
Copy OK

Track 17

Filename D:\#cdr\#wav+flac\#New\Esther Phillips - Brand New Day\cd 1\17. Esther Phillips - Half A Heart.wav

Pre-gap length 0:00:02.02

Peak level 81.4 %
Extraction speed 8.8 X
Track quality 100.0 %
Test CRC BA455ACC
Copy CRC BA455ACC
Track not present in AccurateRip database
Copy OK

Track 18

Filename D:\#cdr\#wav+flac\#New\Esther Phillips - Brand New Day\cd 1\18. Esther Phillips - Why Was I Born.wav

Pre-gap length 0:00:01.94

Peak level 75.5 %
Extraction speed 8.8 X
Track quality 100.0 %
Test CRC EC1B16A2
Copy CRC EC1B16A2
Track not present in AccurateRip database
Copy OK

Track 19

Filename D:\#cdr\#wav+flac\#New\Esther Phillips - Brand New Day\cd 1\19. Esther Phillips - Don't Let Me Go.wav

Pre-gap length 0:00:01.62

Peak level 75.6 %
Extraction speed 8.8 X
Track quality 100.0 %
Test CRC 1969D75D
Copy CRC 1969D75D
Track not present in AccurateRip database
Copy OK

Track 20

Filename D:\#cdr\#wav+flac\#New\Esther Phillips - Brand New Day\cd 1\20. Esther Phillips - He Knows What To Do For Me.wav

Pre-gap length 0:00:01.69

Peak level 66.4 %
Extraction speed 8.9 X
Track quality 100.0 %
Test CRC 95D7C156
Copy CRC 95D7C156
Track not present in AccurateRip database
Copy OK

Track 21

Filename D:\#cdr\#wav+flac\#New\Esther Phillips - Brand New Day\cd 1\21. Esther Phillips - Hello Walls.wav

Pre-gap length 0:00:01.72

Peak level 95.4 %
Extraction speed 9.6 X
Track quality 100.0 %
Test CRC 9E061FB4
Copy CRC 9E061FB4
Track not present in AccurateRip database
Copy OK

Track 22

Filename D:\#cdr\#wav+flac\#New\Esther Phillips - Brand New Day\cd 1\22. Esther Phillips - Mo Jo Hannah.wav

Pre-gap length 0:00:01.86

Peak level 65.1 %
Extraction speed 8.3 X
Track quality 100.0 %
Test CRC FFF74A03
Copy CRC FFF74A03
Track not present in AccurateRip database
Copy OK

Track 23

Filename D:\#cdr\#wav+flac\#New\Esther Phillips - Brand New Day\cd 1\23. Esther Phillips - I Saw Me.wav

Pre-gap length 0:00:01.85

Peak level 95.5 %
Extraction speed 7.8 X
Track quality 99.9 %
Test CRC 6655EB01
Copy CRC 6655EB01
Track not present in AccurateRip database
Copy OK

Track 24

Filename D:\#cdr\#wav+flac\#New\Esther Phillips - Brand New Day\cd 1\24. Esther Phillips - Double Crossing Blues.wav

Pre-gap length 0:00:01.77

Peak level 95.0 %
Extraction speed 9.7 X
Track quality 100.0 %
Test CRC 5CC6FA47
Copy CRC 5CC6FA47
Track not present in AccurateRip database
Copy OK


None of the tracks are present in the AccurateRip database

No errors occurred

End of status report

–– CUETools DB Plugin V2.1.6

[CTDB TOCID: FAvOHQdh1Go_A1BOtQRPMlyYFek-] found
Submit result: FAvOHQdh1Go_A1BOtQRPMlyYFek- has been confirmed
Track | CTDB Status
1 | (1/1) Accurately ripped
2 | (1/1) Accurately ripped
3 | (1/1) Accurately ripped
4 | (1/1) Accurately ripped
5 | (1/1) Accurately ripped
6 | (1/1) Accurately ripped
7 | (1/1) Accurately ripped
8 | (1/1) Accurately ripped
9 | (1/1) Accurately ripped
10 | (1/1) Accurately ripped
11 | (1/1) Accurately ripped
12 | (1/1) Accurately ripped
13 | (1/1) Accurately ripped
14 | (1/1) Accurately ripped
15 | (1/1) Accurately ripped
16 | (1/1) Accurately ripped
17 | (1/1) Accurately ripped
18 | (1/1) Accurately ripped
19 | (1/1) Accurately ripped
20 | (1/1) Accurately ripped
21 | (1/1) Accurately ripped
22 | (1/1) Accurately ripped
23 | (1/1) Accurately ripped
24 | (1/1) Accurately ripped


==== Log checksum C0266774FCDE45F9EB8511C100073527950252926D9ADC359EFCCEB38185531C ====
Exact Audio Copy V1.3 from 2. September 2016

EAC extraction logfile from 10. September 2020, 12:31

Esther Phillips / Brand New Day

Used drive : PLEXTOR PX-891SAF Adapter: 1 ID: 0

Read mode : Secure
Utilize accurate stream : Yes
Defeat audio cache : Yes
Make use of C2 pointers : No

Read offset correction : 6
Overread into Lead-In and Lead-Out : No
Fill up missing offset samples with silence : Yes
Delete leading and trailing silent blocks : No
Null samples used in CRC calculations : Yes
Used interface : Native Win32 interface for Win NT & 2000
Gap handling : Appended to previous track

Used output format : User Defined Encoder
Selected bitrate : 1024 kBit/s
Quality : High
Add ID3 tag : No
Command line compressor : C:\Program Files (x86)\Exact Audio Copy\Flac\flac.exe
Additional command line options : -8 -V -T "ARTIST=%artist%" -T "TITLE=%title%" -T "ALBUM=%albumtitle%" -T "DATE=%year%" -T "TRACKNUMBER=%tracknr%" -T "GENRE=%genre%" -T "PERFORMER=%albuminterpret%" -T "COMPOSER=%composer%" %haslyrics%–tag-from-file=LYRICS="%lyricsfile%"%haslyrics% -T "ALBUMARTIST=%albumartist%" -T "DISCNUMBER=%cdnumber%" -T "TOTALDISCS=%totalcds%" -T "TOTALTRACKS=%numtracks%" -T "COMMENT=%comment%" %source% -o %dest%


TOC of the extracted CD

Track | Start | Length | Start sector | End sector
––––––––––––––––––––––––––––-
1 | 0:00.00 | 3:26.06 | 0 | 15455
2 | 3:26.06 | 3:10.58 | 15456 | 29763
3 | 6:36.64 | 2:59.30 | 29764 | 43218
4 | 9:36.19 | 2:47.01 | 43219 | 55744
5 | 12:23.20 | 2:49.07 | 55745 | 68426
6 | 15:12.27 | 2:44.30 | 68427 | 80756
7 | 17:56.57 | 2:43.02 | 80757 | 92983
8 | 20:39.59 | 2:58.27 | 92984 | 106360
9 | 23:38.11 | 2:26.59 | 106361 | 117369
10 | 26:04.70 | 2:24.28 | 117370 | 128197
11 | 28:29.23 | 2:43.25 | 128198 | 140447
12 | 31:12.48 | 2:51.61 | 140448 | 153333
13 | 34:04.34 | 2:42.05 | 153334 | 165488
14 | 36:46.39 | 2:25.48 | 165489 | 176411
15 | 39:12.12 | 2:18.71 | 176412 | 186832
16 | 41:31.08 | 2:43.45 | 186833 | 199102
17 | 44:14.53 | 2:42.65 | 199103 | 211317
18 | 46:57.43 | 2:36.14 | 211318 | 223031
19 | 49:33.57 | 2:05.46 | 223032 | 232452
20 | 51:39.28 | 2:06.38 | 232453 | 241940
21 | 53:45.66 | 2:08.58 | 241941 | 251598
22 | 55:54.49 | 3:03.17 | 251599 | 265340
23 | 58:57.66 | 2:17.00 | 265341 | 275615
24 | 61:14.66 | 2:42.37 | 275616 | 287802
25 | 63:57.28 | 2:43.73 | 287803 | 300100
26 | 66:41.26 | 3:05.74 | 300101 | 314049
27 | 69:47.25 | 2:03.25 | 314050 | 323299
28 | 71:50.50 | 3:33.67 | 323300 | 339341


Track 1

Filename D:\#cdr\#wav+flac\#New\Esther Phillips - Brand New Day\cd 2\01. Esther Phillips - If You Love Me Really Love Me.wav

Pre-gap length 0:00:02.00

Peak level 95.2 %
Extraction speed 5.3 X
Track quality 100.0 %
Test CRC 4BAFBE64
Copy CRC 4BAFBE64
Track not present in AccurateRip database
Copy OK

Track 2

Filename D:\#cdr\#wav+flac\#New\Esther Phillips - Brand New Day\cd 2\02. Esther Phillips - Make Believe Dreams.wav

Pre-gap length 0:00:02.08

Peak level 92.5 %
Extraction speed 5.7 X
Track quality 100.0 %
Test CRC FCDF6B12
Copy CRC FCDF6B12
Track not present in AccurateRip database
Copy OK

Track 3

Filename D:\#cdr\#wav+flac\#New\Esther Phillips - Brand New Day\cd 2\03. Esther Phillips - Too Soon To Know.wav

Pre-gap length 0:00:01.62

Peak level 93.7 %
Extraction speed 6.0 X
Track quality 100.0 %
Test CRC 469C975E
Copy CRC 469C975E
Track not present in AccurateRip database
Copy OK

Track 4

Filename D:\#cdr\#wav+flac\#New\Esther Phillips - Brand New Day\cd 2\04. Esther Phillips - You're The Reason I'm Living.wav

Pre-gap length 0:00:02.04

Peak level 95.3 %
Extraction speed 6.2 X
Track quality 100.0 %
Test CRC D2A3D79D
Copy CRC D2A3D79D
Track not present in AccurateRip database
Copy OK

Track 5

Filename D:\#cdr\#wav+flac\#New\Esther Phillips - Brand New Day\cd 2\05. Esther Phillips - Out Of The Blue.wav

Pre-gap length 0:00:01.96

Peak level 95.4 %
Extraction speed 6.4 X
Track quality 100.0 %
Test CRC 90BC6499
Copy CRC 90BC6499
Track not present in AccurateRip database
Copy OK

Track 6

Filename D:\#cdr\#wav+flac\#New\Esther Phillips - Brand New Day\cd 2\06. Esther Phillips - Makin' Whoopee.wav

Pre-gap length 0:00:01.84

Peak level 95.4 %
Extraction speed 6.8 X
Track quality 100.0 %
Test CRC AFC118F1
Copy CRC AFC118F1
Track not present in AccurateRip database
Copy OK

Track 7

Filename D:\#cdr\#wav+flac\#New\Esther Phillips - Brand New Day\cd 2\07. Esther Phillips - Shangri La.wav

Pre-gap length 0:00:01.82

Peak level 95.5 %
Extraction speed 5.4 X
Track quality 99.9 %
Test CRC 71C6F102
Copy CRC 71C6F102
Track not present in AccurateRip database
Copy OK

Track 8

Filename D:\#cdr\#wav+flac\#New\Esther Phillips - Brand New Day\cd 2\08. Esther Phillips - I Wish You Love.wav

Pre-gap length 0:00:01.82

Peak level 95.4 %
Extraction speed 7.4 X
Track quality 100.0 %
Test CRC E20EC986
Copy CRC E20EC986
Track not present in AccurateRip database
Copy OK

Track 9

Filename D:\#cdr\#wav+flac\#New\Esther Phillips - Brand New Day\cd 2\09. Esther Phillips - Tis Autumn.wav

Pre-gap length 0:00:01.80

Peak level 95.4 %
Extraction speed 7.4 X
Track quality 100.0 %
Test CRC 2BC1F3D6
Copy CRC 2BC1F3D6
Track not present in AccurateRip database
Copy OK

Track 10

Filename D:\#cdr\#wav+flac\#New\Esther Phillips - Brand New Day\cd 2\10. Esther Phillips - People.wav

Pre-gap length 0:00:01.89

Peak level 85.4 %
Extraction speed 7.2 X
Track quality 100.0 %
Test CRC D58561F0
Copy CRC D58561F0
Track not present in AccurateRip database
Copy OK

Track 11

Filename D:\#cdr\#wav+flac\#New\Esther Phillips - Brand New Day\cd 2\11. Esther Phillips - The Girl From Ipanema.wav

Pre-gap length 0:00:02.08

Peak level 95.0 %
Extraction speed 6.1 X
Track quality 99.9 %
Test CRC A92DA8E7
Copy CRC A92DA8E7
Track not present in AccurateRip database
Copy OK

Track 12

Filename D:\#cdr\#wav+flac\#New\Esther Phillips - Brand New Day\cd 2\12. Esther Phillips - Moonglow And Theme From Picnic.wav

Pre-gap length 0:00:01.93

Peak level 95.5 %
Extraction speed 8.2 X
Track quality 100.0 %
Test CRC 20629E3F
Copy CRC 20629E3F
Track not present in AccurateRip database
Copy OK

Track 13

Filename D:\#cdr\#wav+flac\#New\Esther Phillips - Brand New Day\cd 2\13. Esther Phillips - And I Love Him.wav

Pre-gap length 0:00:01.62

Peak level 95.4 %
Extraction speed 8.4 X
Track quality 100.0 %
Test CRC F9CB58CC
Copy CRC F9CB58CC
Track not present in AccurateRip database
Copy OK

Track 14

Filename D:\#cdr\#wav+flac\#New\Esther Phillips - Brand New Day\cd 2\14. Esther Phillips - Some Things You Never Get Used To.wav

Pre-gap length 0:00:02.29

Peak level 92.9 %
Extraction speed 8.4 X
Track quality 100.0 %
Test CRC FA711E63
Copy CRC FA711E63
Track not present in AccurateRip database
Copy OK

Track 15

Filename D:\#cdr\#wav+flac\#New\Esther Phillips - Brand New Day\cd 2\15. Esther Phillips - Let Me Know When It's Over.wav

Pre-gap length 0:00:01.81

Peak level 95.4 %
Extraction speed 8.5 X
Track quality 100.0 %
Test CRC 38A22DFF
Copy CRC 38A22DFF
Track not present in AccurateRip database
Copy OK

Track 16

Filename D:\#cdr\#wav+flac\#New\Esther Phillips - Brand New Day\cd 2\16. Esther Phillips - I Could Have Told You.wav

Pre-gap length 0:00:01.49

Peak level 95.4 %
Extraction speed 9.0 X
Track quality 100.0 %
Test CRC 561DACB6
Copy CRC 561DACB6
Track not present in AccurateRip database
Copy OK

Track 17

Filename D:\#cdr\#wav+flac\#New\Esther Phillips - Brand New Day\cd 2\17. Esther Phillips - He Touched Me.wav

Pre-gap length 0:00:02.37

Peak level 95.4 %
Extraction speed 8.7 X
Track quality 100.0 %
Test CRC 706717BB
Copy CRC 706717BB
Track not present in AccurateRip database
Copy OK

Track 18

Filename D:\#cdr\#wav+flac\#New\Esther Phillips - Brand New Day\cd 2\18. Esther Phillips - You Can't Go Home Again.wav

Pre-gap length 0:00:02.24

Peak level 95.5 %
Extraction speed 9.1 X
Track quality 100.0 %
Test CRC 110F1E04
Copy CRC 110F1E04
Track not present in AccurateRip database
Copy OK

Track 19

Filename D:\#cdr\#wav+flac\#New\Esther Phillips - Brand New Day\cd 2\19. Esther Phillips - The Shadow Of Your Smile.wav

Pre-gap length 0:00:02.22

Peak level 89.9 %
Extraction speed 9.0 X
Track quality 100.0 %
Test CRC A61B58D4
Copy CRC A61B58D4
Track not present in AccurateRip database
Copy OK

Track 20

Filename D:\#cdr\#wav+flac\#New\Esther Phillips - Brand New Day\cd 2\20. Esther Phillips - The Party's Over.wav

Pre-gap length 0:00:01.86

Peak level 95.4 %
Extraction speed 6.6 X
Track quality 99.9 %
Test CRC A3A28939
Copy CRC A3A28939
Track not present in AccurateRip database
Copy OK

Track 21

Filename D:\#cdr\#wav+flac\#New\Esther Phillips - Brand New Day\cd 2\21. Esther Phillips - A Taste Of Honey.wav

Pre-gap length 0:00:01.82

Peak level 91.8 %
Extraction speed 6.8 X
Track quality 99.9 %
Test CRC F8225118
Copy CRC F8225118
Track not present in AccurateRip database
Copy OK

Track 22

Filename D:\#cdr\#wav+flac\#New\Esther Phillips - Brand New Day\cd 2\22. Esther Phillips - It's All Right With Me.wav

Pre-gap length 0:00:02.04

Peak level 95.1 %
Extraction speed 8.0 X
Track quality 99.9 %
Test CRC CAADD267
Copy CRC CAADD267
Track not present in AccurateRip database
Copy OK

Track 23

Filename D:\#cdr\#wav+flac\#New\Esther Phillips - Brand New Day\cd 2\23. Esther Phillips - Just Say Goodbye.wav

Pre-gap length 0:00:02.18

Peak level 92.3 %
Extraction speed 9.7 X
Track quality 100.0 %
Test CRC FC7B96E9
Copy CRC FC7B96E9
Track not present in AccurateRip database
Copy OK

Track 24

Filename D:\#cdr\#wav+flac\#New\Esther Phillips - Brand New Day\cd 2\24. Esther Phillips - As Tears Go By.wav

Pre-gap length 0:00:02.16

Peak level 93.3 %
Extraction speed 9.8 X
Track quality 100.0 %
Test CRC 45114D52
Copy CRC 45114D52
Track not present in AccurateRip database
Copy OK

Track 25

Filename D:\#cdr\#wav+flac\#New\Esther Phillips - Brand New Day\cd 2\25. Esther Phillips - Ups And Downs.wav

Pre-gap length 0:00:02.16

Peak level 95.4 %
Extraction speed 8.0 X
Track quality 99.9 %
Test CRC 3605A6F5
Copy CRC 3605A6F5
Track not present in AccurateRip database
Copy OK

Track 26

Filename D:\#cdr\#wav+flac\#New\Esther Phillips - Brand New Day\cd 2\26. Esther Phillips - Every Time We Say Goodbye.wav

Pre-gap length 0:00:02.05

Peak level 94.9 %
Extraction speed 10.3 X
Track quality 100.0 %
Test CRC 099D59E2
Copy CRC 099D59E2
Track not present in AccurateRip database
Copy OK

Track 27

Filename D:\#cdr\#wav+flac\#New\Esther Phillips - Brand New Day\cd 2\27. Esther Phillips - Let There Be Love.wav

Pre-gap length 0:00:01.96

Peak level 95.4 %
Extraction speed 9.4 X
Track quality 100.0 %
Test CRC 4B928871
Copy CRC 4B928871
Track not present in AccurateRip database
Copy OK

Track 28

Filename D:\#cdr\#wav+flac\#New\Esther Phillips - Brand New Day\cd 2\28. Esther Phillips - Crazy She Calls Me.wav

Pre-gap length 0:00:02.06

Peak level 95.5 %
Extraction speed 10.4 X
Track quality 100.0 %
Test CRC DE3ECB99
Copy CRC DE3ECB99
Track not present in AccurateRip database
Copy OK


None of the tracks are present in the AccurateRip database

No errors occurred

End of status report

–– CUETools DB Plugin V2.1.6

[CTDB TOCID: D0p.czvpTa5FxYaNo4uUopwSRKk-] disk not present in database
Submit result: D0p.czvpTa5FxYaNo4uUopwSRKk- has been uploaded


==== Log checksum 5F1DBD196370FC91B631A7CD3F1A92EC7B3BF8B3275BA3BB0BE67E3F4DA928B8 ====

––––––––––––––––––––––––––––––

Exact Audio Copy V1.3 from 2. September 2016

EAC extraction logfile from 10. September 2020, 12:31

Esther Phillips / Brand New Day

Used drive : PLEXTOR PX-891SAF Adapter: 1 ID: 0

Read mode : Secure
Utilize accurate stream : Yes
Defeat audio cache : Yes
Make use of C2 pointers : No

Read offset correction : 6
Overread into Lead-In and Lead-Out : No
Fill up missing offset samples with silence : Yes
Delete leading and trailing silent blocks : No
Null samples used in CRC calculations : Yes
Used interface : Native Win32 interface for Win NT & 2000
Gap handling : Appended to previous track

Used output format : User Defined Encoder
Selected bitrate : 1024 kBit/s
Quality : High
Add ID3 tag : No
Command line compressor : C:\Program Files (x86)\Exact Audio Copy\Flac\flac.exe
Additional command line options : -8 -V -T "ARTIST=%artist%" -T "TITLE=%title%" -T "ALBUM=%albumtitle%" -T "DATE=%year%" -T "TRACKNUMBER=%tracknr%" -T "GENRE=%genre%" -T "PERFORMER=%albuminterpret%" -T "COMPOSER=%composer%" %haslyrics%–tag-from-file=LYRICS="%lyricsfile%"%haslyrics% -T "ALBUMARTIST=%albumartist%" -T "DISCNUMBER=%cdnumber%" -T "TOTALDISCS=%totalcds%" -T "TOTALTRACKS=%numtracks%" -T "COMMENT=%comment%" %source% -o %dest%


TOC of the extracted CD

Track | Start | Length | Start sector | End sector
––––––––––––––––––––––––––––-
1 | 0:00.00 | 3:26.06 | 0 | 15455
2 | 3:26.06 | 3:10.58 | 15456 | 29763
3 | 6:36.64 | 2:59.30 | 29764 | 43218
4 | 9:36.19 | 2:47.01 | 43219 | 55744
5 | 12:23.20 | 2:49.07 | 55745 | 68426
6 | 15:12.27 | 2:44.30 | 68427 | 80756
7 | 17:56.57 | 2:43.02 | 80757 | 92983
8 | 20:39.59 | 2:58.27 | 92984 | 106360
9 | 23:38.11 | 2:26.59 | 106361 | 117369
10 | 26:04.70 | 2:24.28 | 117370 | 128197
11 | 28:29.23 | 2:43.25 | 128198 | 140447
12 | 31:12.48 | 2:51.61 | 140448 | 153333
13 | 34:04.34 | 2:42.05 | 153334 | 165488
14 | 36:46.39 | 2:25.48 | 165489 | 176411
15 | 39:12.12 | 2:18.71 | 176412 | 186832
16 | 41:31.08 | 2:43.45 | 186833 | 199102
17 | 44:14.53 | 2:42.65 | 199103 | 211317
18 | 46:57.43 | 2:36.14 | 211318 | 223031
19 | 49:33.57 | 2:05.46 | 223032 | 232452
20 | 51:39.28 | 2:06.38 | 232453 | 241940
21 | 53:45.66 | 2:08.58 | 241941 | 251598
22 | 55:54.49 | 3:03.17 | 251599 | 265340
23 | 58:57.66 | 2:17.00 | 265341 | 275615
24 | 61:14.66 | 2:42.37 | 275616 | 287802
25 | 63:57.28 | 2:43.73 | 287803 | 300100
26 | 66:41.26 | 3:05.74 | 300101 | 314049
27 | 69:47.25 | 2:03.25 | 314050 | 323299
28 | 71:50.50 | 3:33.67 | 323300 | 339341


Track 1

Filename D:\#cdr\#wav+flac\#New\Esther Phillips - Brand New Day\cd 2\01. Esther Phillips - If You Love Me Really Love Me.wav

Pre-gap length 0:00:02.00

Peak level 95.2 %
Extraction speed 5.3 X
Track quality 100.0 %
Test CRC 4BAFBE64
Copy CRC 4BAFBE64
Track not present in AccurateRip database
Copy OK

Track 2

Filename D:\#cdr\#wav+flac\#New\Esther Phillips - Brand New Day\cd 2\02. Esther Phillips - Make Believe Dreams.wav

Pre-gap length 0:00:02.08

Peak level 92.5 %
Extraction speed 5.7 X
Track quality 100.0 %
Test CRC FCDF6B12
Copy CRC FCDF6B12
Track not present in AccurateRip database
Copy OK

Track 3

Filename D:\#cdr\#wav+flac\#New\Esther Phillips - Brand New Day\cd 2\03. Esther Phillips - Too Soon To Know.wav

Pre-gap length 0:00:01.62

Peak level 93.7 %
Extraction speed 6.0 X
Track quality 100.0 %
Test CRC 469C975E
Copy CRC 469C975E
Track not present in AccurateRip database
Copy OK

Track 4

Filename D:\#cdr\#wav+flac\#New\Esther Phillips - Brand New Day\cd 2\04. Esther Phillips - You're The Reason I'm Living.wav

Pre-gap length 0:00:02.04

Peak level 95.3 %
Extraction speed 6.2 X
Track quality 100.0 %
Test CRC D2A3D79D
Copy CRC D2A3D79D
Track not present in AccurateRip database
Copy OK

Track 5

Filename D:\#cdr\#wav+flac\#New\Esther Phillips - Brand New Day\cd 2\05. Esther Phillips - Out Of The Blue.wav

Pre-gap length 0:00:01.96

Peak level 95.4 %
Extraction speed 6.4 X
Track quality 100.0 %
Test CRC 90BC6499
Copy CRC 90BC6499
Track not present in AccurateRip database
Copy OK

Track 6

Filename D:\#cdr\#wav+flac\#New\Esther Phillips - Brand New Day\cd 2\06. Esther Phillips - Makin' Whoopee.wav

Pre-gap length 0:00:01.84

Peak level 95.4 %
Extraction speed 6.8 X
Track quality 100.0 %
Test CRC AFC118F1
Copy CRC AFC118F1
Track not present in AccurateRip database
Copy OK

Track 7

Filename D:\#cdr\#wav+flac\#New\Esther Phillips - Brand New Day\cd 2\07. Esther Phillips - Shangri La.wav

Pre-gap length 0:00:01.82

Peak level 95.5 %
Extraction speed 5.4 X
Track quality 99.9 %
Test CRC 71C6F102
Copy CRC 71C6F102
Track not present in AccurateRip database
Copy OK

Track 8

Filename D:\#cdr\#wav+flac\#New\Esther Phillips - Brand New Day\cd 2\08. Esther Phillips - I Wish You Love.wav

Pre-gap length 0:00:01.82

Peak level 95.4 %
Extraction speed 7.4 X
Track quality 100.0 %
Test CRC E20EC986
Copy CRC E20EC986
Track not present in AccurateRip database
Copy OK

Track 9

Filename D:\#cdr\#wav+flac\#New\Esther Phillips - Brand New Day\cd 2\09. Esther Phillips - Tis Autumn.wav

Pre-gap length 0:00:01.80

Peak level 95.4 %
Extraction speed 7.4 X
Track quality 100.0 %
Test CRC 2BC1F3D6
Copy CRC 2BC1F3D6
Track not present in AccurateRip database
Copy OK

Track 10

Filename D:\#cdr\#wav+flac\#New\Esther Phillips - Brand New Day\cd 2\10. Esther Phillips - People.wav

Pre-gap length 0:00:01.89

Peak level 85.4 %
Extraction speed 7.2 X
Track quality 100.0 %
Test CRC D58561F0
Copy CRC D58561F0
Track not present in AccurateRip database
Copy OK

Track 11

Filename D:\#cdr\#wav+flac\#New\Esther Phillips - Brand New Day\cd 2\11. Esther Phillips - The Girl From Ipanema.wav

Pre-gap length 0:00:02.08

Peak level 95.0 %
Extraction speed 6.1 X
Track quality 99.9 %
Test CRC A92DA8E7
Copy CRC A92DA8E7
Track not present in AccurateRip database
Copy OK

Track 12

Filename D:\#cdr\#wav+flac\#New\Esther Phillips - Brand New Day\cd 2\12. Esther Phillips - Moonglow And Theme From Picnic.wav

Pre-gap length 0:00:01.93

Peak level 95.5 %
Extraction speed 8.2 X
Track quality 100.0 %
Test CRC 20629E3F
Copy CRC 20629E3F
Track not present in AccurateRip database
Copy OK

Track 13

Filename D:\#cdr\#wav+flac\#New\Esther Phillips - Brand New Day\cd 2\13. Esther Phillips - And I Love Him.wav

Pre-gap length 0:00:01.62

Peak level 95.4 %
Extraction speed 8.4 X
Track quality 100.0 %
Test CRC F9CB58CC
Copy CRC F9CB58CC
Track not present in AccurateRip database
Copy OK

Track 14

Filename D:\#cdr\#wav+flac\#New\Esther Phillips - Brand New Day\cd 2\14. Esther Phillips - Some Things You Never Get Used To.wav

Pre-gap length 0:00:02.29

Peak level 92.9 %
Extraction speed 8.4 X
Track quality 100.0 %
Test CRC FA711E63
Copy CRC FA711E63
Track not present in AccurateRip database
Copy OK

Track 15

Filename D:\#cdr\#wav+flac\#New\Esther Phillips - Brand New Day\cd 2\15. Esther Phillips - Let Me Know When It's Over.wav

Pre-gap length 0:00:01.81

Peak level 95.4 %
Extraction speed 8.5 X
Track quality 100.0 %
Test CRC 38A22DFF
Copy CRC 38A22DFF
Track not present in AccurateRip database
Copy OK

Track 16

Filename D:\#cdr\#wav+flac\#New\Esther Phillips - Brand New Day\cd 2\16. Esther Phillips - I Could Have Told You.wav

Pre-gap length 0:00:01.49

Peak level 95.4 %
Extraction speed 9.0 X
Track quality 100.0 %
Test CRC 561DACB6
Copy CRC 561DACB6
Track not present in AccurateRip database
Copy OK

Track 17

Filename D:\#cdr\#wav+flac\#New\Esther Phillips - Brand New Day\cd 2\17. Esther Phillips - He Touched Me.wav

Pre-gap length 0:00:02.37

Peak level 95.4 %
Extraction speed 8.7 X
Track quality 100.0 %
Test CRC 706717BB
Copy CRC 706717BB
Track not present in AccurateRip database
Copy OK

Track 18

Filename D:\#cdr\#wav+flac\#New\Esther Phillips - Brand New Day\cd 2\18. Esther Phillips - You Can't Go Home Again.wav

Pre-gap length 0:00:02.24

Peak level 95.5 %
Extraction speed 9.1 X
Track quality 100.0 %
Test CRC 110F1E04
Copy CRC 110F1E04
Track not present in AccurateRip database
Copy OK

Track 19

Filename D:\#cdr\#wav+flac\#New\Esther Phillips - Brand New Day\cd 2\19. Esther Phillips - The Shadow Of Your Smile.wav

Pre-gap length 0:00:02.22

Peak level 89.9 %
Extraction speed 9.0 X
Track quality 100.0 %
Test CRC A61B58D4
Copy CRC A61B58D4
Track not present in AccurateRip database
Copy OK

Track 20

Filename D:\#cdr\#wav+flac\#New\Esther Phillips - Brand New Day\cd 2\20. Esther Phillips - The Party's Over.wav

Pre-gap length 0:00:01.86

Peak level 95.4 %
Extraction speed 6.6 X
Track quality 99.9 %
Test CRC A3A28939
Copy CRC A3A28939
Track not present in AccurateRip database
Copy OK

Track 21

Filename D:\#cdr\#wav+flac\#New\Esther Phillips - Brand New Day\cd 2\21. Esther Phillips - A Taste Of Honey.wav

Pre-gap length 0:00:01.82

Peak level 91.8 %
Extraction speed 6.8 X
Track quality 99.9 %
Test CRC F8225118
Copy CRC F8225118
Track not present in AccurateRip database
Copy OK

Track 22

Filename D:\#cdr\#wav+flac\#New\Esther Phillips - Brand New Day\cd 2\22. Esther Phillips - It's All Right With Me.wav

Pre-gap length 0:00:02.04

Peak level 95.1 %
Extraction speed 8.0 X
Track quality 99.9 %
Test CRC CAADD267
Copy CRC CAADD267
Track not present in AccurateRip database
Copy OK

Track 23

Filename D:\#cdr\#wav+flac\#New\Esther Phillips - Brand New Day\cd 2\23. Esther Phillips - Just Say Goodbye.wav

Pre-gap length 0:00:02.18

Peak level 92.3 %
Extraction speed 9.7 X
Track quality 100.0 %
Test CRC FC7B96E9
Copy CRC FC7B96E9
Track not present in AccurateRip database
Copy OK

Track 24

Filename D:\#cdr\#wav+flac\#New\Esther Phillips - Brand New Day\cd 2\24. Esther Phillips - As Tears Go By.wav

Pre-gap length 0:00:02.16

Peak level 93.3 %
Extraction speed 9.8 X
Track quality 100.0 %
Test CRC 45114D52
Copy CRC 45114D52
Track not present in AccurateRip database
Copy OK

Track 25

Filename D:\#cdr\#wav+flac\#New\Esther Phillips - Brand New Day\cd 2\25. Esther Phillips - Ups And Downs.wav

Pre-gap length 0:00:02.16

Peak level 95.4 %
Extraction speed 8.0 X
Track quality 99.9 %
Test CRC 3605A6F5
Copy CRC 3605A6F5
Track not present in AccurateRip database
Copy OK

Track 26

Filename D:\#cdr\#wav+flac\#New\Esther Phillips - Brand New Day\cd 2\26. Esther Phillips - Every Time We Say Goodbye.wav

Pre-gap length 0:00:02.05

Peak level 94.9 %
Extraction speed 10.3 X
Track quality 100.0 %
Test CRC 099D59E2
Copy CRC 099D59E2
Track not present in AccurateRip database
Copy OK

Track 27

Filename D:\#cdr\#wav+flac\#New\Esther Phillips - Brand New Day\cd 2\27. Esther Phillips - Let There Be Love.wav

Pre-gap length 0:00:01.96

Peak level 95.4 %
Extraction speed 9.4 X
Track quality 100.0 %
Test CRC 4B928871
Copy CRC 4B928871
Track not present in AccurateRip database
Copy OK

Track 28

Filename D:\#cdr\#wav+flac\#New\Esther Phillips - Brand New Day\cd 2\28. Esther Phillips - Crazy She Calls Me.wav

Pre-gap length 0:00:02.06

Peak level 95.5 %
Extraction speed 10.4 X
Track quality 100.0 %
Test CRC DE3ECB99
Copy CRC DE3ECB99
Track not present in AccurateRip database
Copy OK


None of the tracks are present in the AccurateRip database

No errors occurred

End of status report

–– CUETools DB Plugin V2.1.6

[CTDB TOCID: D0p.czvpTa5FxYaNo4uUopwSRKk-] disk not present in database
Submit result: D0p.czvpTa5FxYaNo4uUopwSRKk- has been uploaded


==== Log checksum 5F1DBD196370FC91B631A7CD3F1A92EC7B3BF8B3275BA3BB0BE67E3F4DA928B8 ====
Exact Audio Copy V1.3 from 2. September 2016

EAC extraction logfile from 10. September 2020, 13:27

Esther Phillips / Brand New Day

Used drive : PLEXTOR PX-891SAF Adapter: 1 ID: 0

Read mode : Secure
Utilize accurate stream : Yes
Defeat audio cache : Yes
Make use of C2 pointers : No

Read offset correction : 6
Overread into Lead-In and Lead-Out : No
Fill up missing offset samples with silence : Yes
Delete leading and trailing silent blocks : No
Null samples used in CRC calculations : Yes
Used interface : Native Win32 interface for Win NT & 2000
Gap handling : Appended to previous track

Used output format : User Defined Encoder
Selected bitrate : 1024 kBit/s
Quality : High
Add ID3 tag : No
Command line compressor : C:\Program Files (x86)\Exact Audio Copy\Flac\flac.exe
Additional command line options : -8 -V -T "ARTIST=%artist%" -T "TITLE=%title%" -T "ALBUM=%albumtitle%" -T "DATE=%year%" -T "TRACKNUMBER=%tracknr%" -T "GENRE=%genre%" -T "PERFORMER=%albuminterpret%" -T "COMPOSER=%composer%" %haslyrics%–tag-from-file=LYRICS="%lyricsfile%"%haslyrics% -T "ALBUMARTIST=%albumartist%" -T "DISCNUMBER=%cdnumber%" -T "TOTALDISCS=%totalcds%" -T "TOTALTRACKS=%numtracks%" -T "COMMENT=%comment%" %source% -o %dest%


TOC of the extracted CD

Track | Start | Length | Start sector | End sector
––––––––––––––––––––––––––––-
1 | 0:00.00 | 2:53.55 | 0 | 13029
2 | 2:53.55 | 2:26.07 | 13030 | 23986
3 | 5:19.62 | 2:49.37 | 23987 | 36698
4 | 8:09.24 | 2:50.65 | 36699 | 49513
5 | 11:00.14 | 3:05.21 | 49514 | 63409
6 | 14:05.35 | 2:46.57 | 63410 | 75916
7 | 16:52.17 | 3:14.20 | 75917 | 90486
8 | 20:06.37 | 3:00.08 | 90487 | 103994
9 | 23:06.45 | 3:00.07 | 103995 | 117501
10 | 26:06.52 | 3:24.10 | 117502 | 132811
11 | 29:30.62 | 2:55.53 | 132812 | 145989
12 | 32:26.40 | 3:35.27 | 145990 | 162141
13 | 36:01.67 | 2:59.69 | 162142 | 175635
14 | 39:01.61 | 2:19.58 | 175636 | 186118
15 | 41:21.44 | 2:30.51 | 186119 | 197419
16 | 43:52.20 | 2:09.69 | 197420 | 207163
17 | 46:02.14 | 2:53.34 | 207164 | 220172
18 | 48:55.48 | 3:46.24 | 220173 | 237146
19 | 52:41.72 | 2:47.29 | 237147 | 249700
20 | 55:29.26 | 3:17.48 | 249701 | 264523
21 | 58:46.74 | 3:52.04 | 264524 | 281927
22 | 62:39.03 | 2:46.28 | 281928 | 294405


Track 1

Filename D:\#cdr\#wav+flac\#New\Esther Phillips - Brand New Day\cd 3\01. Esther Phillips - When A Woman Loves A Man.wav

Pre-gap length 0:00:02.00

Peak level 87.3 %
Extraction speed 4.7 X
Track quality 100.0 %
Test CRC F58B1100
Copy CRC F58B1100
Track not present in AccurateRip database
Copy OK

Track 2

Filename D:\#cdr\#wav+flac\#New\Esther Phillips - Brand New Day\cd 3\02. Esther Phillips - Somebody Else Is Taking My Place.wav

Pre-gap length 0:00:01.73

Peak level 95.4 %
Extraction speed 3.8 X
Track quality 99.9 %
Test CRC 8F133E5C
Copy CRC 8F133E5C
Track not present in AccurateRip database
Copy OK

Track 3

Filename D:\#cdr\#wav+flac\#New\Esther Phillips - Brand New Day\cd 3\03. Esther Phillips - Fever.wav

Pre-gap length 0:00:01.72

Peak level 87.1 %
Extraction speed 5.3 X
Track quality 100.0 %
Test CRC 1FDBBD69
Copy CRC 1FDBBD69
Track not present in AccurateRip database
Copy OK

Track 4

Filename D:\#cdr\#wav+flac\#New\Esther Phillips - Brand New Day\cd 3\04. Esther Phillips - Try Me.wav

Pre-gap length 0:00:01.98

Peak level 85.9 %
Extraction speed 5.6 X
Track quality 100.0 %
Test CRC 1EE515E5
Copy CRC 1EE515E5
Track not present in AccurateRip database
Copy OK

Track 5

Filename D:\#cdr\#wav+flac\#New\Esther Phillips - Brand New Day\cd 3\05. Esther Phillips - When Love Comes To The Human Race.wav

Pre-gap length 0:00:02.37

Peak level 95.4 %
Extraction speed 4.8 X
Track quality 99.9 %
Test CRC DEAF3014
Copy CRC DEAF3014
Track not present in AccurateRip database
Copy OK

Track 6

Filename D:\#cdr\#wav+flac\#New\Esther Phillips - Brand New Day\cd 3\06. Esther Phillips - C.C. Rider.wav

Pre-gap length 0:00:01.62

Peak level 95.5 %
Extraction speed 6.1 X
Track quality 100.0 %
Test CRC E3C6323E
Copy CRC E3C6323E
Track not present in AccurateRip database
Copy OK

Track 7

Filename D:\#cdr\#wav+flac\#New\Esther Phillips - Brand New Day\cd 3\07. Esther Phillips - Cherry Red.wav

Pre-gap length 0:00:02.00

Peak level 95.5 %
Extraction speed 6.6 X
Track quality 100.0 %
Test CRC CE60D7D2
Copy CRC CE60D7D2
Track not present in AccurateRip database
Copy OK

Track 8

Filename D:\#cdr\#wav+flac\#New\Esther Phillips - Brand New Day\cd 3\08. Esther Phillips - Confessin' The Blues.wav

Pre-gap length 0:00:01.98

Peak level 95.4 %
Extraction speed 6.7 X
Track quality 100.0 %
Test CRC 6F6A2765
Copy CRC 6F6A2765
Track not present in AccurateRip database
Copy OK

Track 9

Filename D:\#cdr\#wav+flac\#New\Esther Phillips - Brand New Day\cd 3\09. Esther Phillips - I'm Gettin' 'Long Alright.wav

Pre-gap length 0:00:02.04

Peak level 95.4 %
Extraction speed 7.0 X
Track quality 100.0 %
Test CRC 5D67C9C0
Copy CRC 5D67C9C0
Track not present in AccurateRip database
Copy OK

Track 10

Filename D:\#cdr\#wav+flac\#New\Esther Phillips - Brand New Day\cd 3\10. Esther Phillips - Rocks In My Bed.wav

Pre-gap length 0:00:02.05

Peak level 86.5 %
Extraction speed 7.5 X
Track quality 100.0 %
Test CRC 0E812CEA
Copy CRC 0E812CEA
Track not present in AccurateRip database
Copy OK

Track 11

Filename D:\#cdr\#wav+flac\#New\Esther Phillips - Brand New Day\cd 3\11. Esther Phillips - In The Evenin'.wav

Pre-gap length 0:00:01.49

Peak level 87.8 %
Extraction speed 7.5 X
Track quality 100.0 %
Test CRC 2AC4A733
Copy CRC 2AC4A733
Track not present in AccurateRip database
Copy OK

Track 12

Filename D:\#cdr\#wav+flac\#New\Esther Phillips - Brand New Day\cd 3\12. Esther Phillips - Romance In The Dark.wav

Pre-gap length 0:00:01.74

Peak level 93.5 %
Extraction speed 8.0 X
Track quality 100.0 %
Test CRC E9A9D089
Copy CRC E9A9D089
Track not present in AccurateRip database
Copy OK

Track 13

Filename D:\#cdr\#wav+flac\#New\Esther Phillips - Brand New Day\cd 3\13. Esther Phillips - I Wonder.wav

Pre-gap length 0:00:01.98

Peak level 95.4 %
Extraction speed 6.3 X
Track quality 99.9 %
Test CRC 968EB40E
Copy CRC 968EB40E
Track not present in AccurateRip database
Copy OK

Track 14

Filename D:\#cdr\#wav+flac\#New\Esther Phillips - Brand New Day\cd 3\14. Esther Phillips - Cheater Man.wav

Pre-gap length 0:00:02.26

Peak level 95.0 %
Extraction speed 5.9 X
Track quality 99.9 %
Test CRC 62F00462
Copy CRC 62F00462
Track not present in AccurateRip database
Copy OK

Track 15

Filename D:\#cdr\#wav+flac\#New\Esther Phillips - Brand New Day\cd 3\15. Esther Phillips - I'm Sorry.wav

Pre-gap length 0:00:01.24

Peak level 95.4 %
Extraction speed 8.1 X
Track quality 100.0 %
Test CRC 3685F1D9
Copy CRC 3685F1D9
Track not present in AccurateRip database
Copy OK

Track 16

Filename D:\#cdr\#wav+flac\#New\Esther Phillips - Brand New Day\cd 3\16. Esther Phillips - Watch Dog.wav

Pre-gap length 0:00:01.64

Peak level 85.9 %
Extraction speed 7.9 X
Track quality 100.0 %
Test CRC 7EE1A19B
Copy CRC 7EE1A19B
Track not present in AccurateRip database
Copy OK

Track 17

Filename D:\#cdr\#wav+flac\#New\Esther Phillips - Brand New Day\cd 3\17. Esther Phillips - Too Late To Worry Too Blue To Cry.wav

Pre-gap length 0:00:01.60

Peak level 91.3 %
Extraction speed 8.5 X
Track quality 100.0 %
Test CRC C6EF5A7C
Copy CRC C6EF5A7C
Track not present in AccurateRip database
Copy OK

Track 18

Filename D:\#cdr\#wav+flac\#New\Esther Phillips - Brand New Day\cd 3\18. Esther Phillips - I'm In The Mood For Love.wav

Pre-gap length 0:00:01.92

Peak level 95.4 %
Extraction speed 9.2 X
Track quality 100.0 %
Test CRC 87BAAAD7
Copy CRC 87BAAAD7
Track not present in AccurateRip database
Copy OK

Track 19

Filename D:\#cdr\#wav+flac\#New\Esther Phillips - Brand New Day\cd 3\19. Esther Phillips - Tonight I'll Be Staying Here With You.wav

Pre-gap length 0:00:01.89

Peak level 95.4 %
Extraction speed 8.9 X
Track quality 100.0 %
Test CRC 60B2C0E0
Copy CRC 60B2C0E0
Track not present in AccurateRip database
Copy OK

Track 20

Filename D:\#cdr\#wav+flac\#New\Esther Phillips - Brand New Day\cd 3\20. Esther Phillips - Sweet Dreams.wav

Pre-gap length 0:00:01.78

Peak level 77.9 %
Extraction speed 9.3 X
Track quality 100.0 %
Test CRC EF236E45
Copy CRC EF236E45
Track not present in AccurateRip database
Copy OK

Track 21

Filename D:\#cdr\#wav+flac\#New\Esther Phillips - Brand New Day\cd 3\21. Esther Phillips - Too Much Of A Man.wav

Pre-gap length 0:00:01.84

Peak level 95.4 %
Extraction speed 8.1 X
Track quality 99.9 %
Test CRC 4E030E02
Copy CRC 4E030E02
Track not present in AccurateRip database
Copy OK

Track 22

Filename D:\#cdr\#wav+flac\#New\Esther Phillips - Brand New Day\cd 3\22. Esther Phillips - Nobody But You.wav

Pre-gap length 0:00:01.57

Peak level 89.3 %
Extraction speed 7.3 X
Track quality 99.9 %
Test CRC E47AC57A
Copy CRC E47AC57A
Track not present in AccurateRip database
Copy OK


None of the tracks are present in the AccurateRip database

No errors occurred

End of status report

–– CUETools DB Plugin V2.1.6

[CTDB TOCID: mrIqHgwGlaKBN4aS4K3a5G2JpNc-] disk not present in database
Submit result: mrIqHgwGlaKBN4aS4K3a5G2JpNc- has been uploaded


==== Log checksum 576BF01C26079907F123EE39D502282286D8A7F418AE66EBED090A83859B9B23 ====

––––––––––––––––––––––––––––––

Exact Audio Copy V1.3 from 2. September 2016

EAC extraction logfile from 10. September 2020, 13:27

Esther Phillips / Brand New Day

Used drive : PLEXTOR PX-891SAF Adapter: 1 ID: 0

Read mode : Secure
Utilize accurate stream : Yes
Defeat audio cache : Yes
Make use of C2 pointers : No

Read offset correction : 6
Overread into Lead-In and Lead-Out : No
Fill up missing offset samples with silence : Yes
Delete leading and trailing silent blocks : No
Null samples used in CRC calculations : Yes
Used interface : Native Win32 interface for Win NT & 2000
Gap handling : Appended to previous track

Used output format : User Defined Encoder
Selected bitrate : 1024 kBit/s
Quality : High
Add ID3 tag : No
Command line compressor : C:\Program Files (x86)\Exact Audio Copy\Flac\flac.exe
Additional command line options : -8 -V -T "ARTIST=%artist%" -T "TITLE=%title%" -T "ALBUM=%albumtitle%" -T "DATE=%year%" -T "TRACKNUMBER=%tracknr%" -T "GENRE=%genre%" -T "PERFORMER=%albuminterpret%" -T "COMPOSER=%composer%" %haslyrics%–tag-from-file=LYRICS="%lyricsfile%"%haslyrics% -T "ALBUMARTIST=%albumartist%" -T "DISCNUMBER=%cdnumber%" -T "TOTALDISCS=%totalcds%" -T "TOTALTRACKS=%numtracks%" -T "COMMENT=%comment%" %source% -o %dest%


TOC of the extracted CD

Track | Start | Length | Start sector | End sector
––––––––––––––––––––––––––––-
1 | 0:00.00 | 2:53.55 | 0 | 13029
2 | 2:53.55 | 2:26.07 | 13030 | 23986
3 | 5:19.62 | 2:49.37 | 23987 | 36698
4 | 8:09.24 | 2:50.65 | 36699 | 49513
5 | 11:00.14 | 3:05.21 | 49514 | 63409
6 | 14:05.35 | 2:46.57 | 63410 | 75916
7 | 16:52.17 | 3:14.20 | 75917 | 90486
8 | 20:06.37 | 3:00.08 | 90487 | 103994
9 | 23:06.45 | 3:00.07 | 103995 | 117501
10 | 26:06.52 | 3:24.10 | 117502 | 132811
11 | 29:30.62 | 2:55.53 | 132812 | 145989
12 | 32:26.40 | 3:35.27 | 145990 | 162141
13 | 36:01.67 | 2:59.69 | 162142 | 175635
14 | 39:01.61 | 2:19.58 | 175636 | 186118
15 | 41:21.44 | 2:30.51 | 186119 | 197419
16 | 43:52.20 | 2:09.69 | 197420 | 207163
17 | 46:02.14 | 2:53.34 | 207164 | 220172
18 | 48:55.48 | 3:46.24 | 220173 | 237146
19 | 52:41.72 | 2:47.29 | 237147 | 249700
20 | 55:29.26 | 3:17.48 | 249701 | 264523
21 | 58:46.74 | 3:52.04 | 264524 | 281927
22 | 62:39.03 | 2:46.28 | 281928 | 294405


Track 1

Filename D:\#cdr\#wav+flac\#New\Esther Phillips - Brand New Day\cd 3\01. Esther Phillips - When A Woman Loves A Man.wav

Pre-gap length 0:00:02.00

Peak level 87.3 %
Extraction speed 4.7 X
Track quality 100.0 %
Test CRC F58B1100
Copy CRC F58B1100
Track not present in AccurateRip database
Copy OK

Track 2

Filename D:\#cdr\#wav+flac\#New\Esther Phillips - Brand New Day\cd 3\02. Esther Phillips - Somebody Else Is Taking My Place.wav

Pre-gap length 0:00:01.73

Peak level 95.4 %
Extraction speed 3.8 X
Track quality 99.9 %
Test CRC 8F133E5C
Copy CRC 8F133E5C
Track not present in AccurateRip database
Copy OK

Track 3

Filename D:\#cdr\#wav+flac\#New\Esther Phillips - Brand New Day\cd 3\03. Esther Phillips - Fever.wav

Pre-gap length 0:00:01.72

Peak level 87.1 %
Extraction speed 5.3 X
Track quality 100.0 %
Test CRC 1FDBBD69
Copy CRC 1FDBBD69
Track not present in AccurateRip database
Copy OK

Track 4

Filename D:\#cdr\#wav+flac\#New\Esther Phillips - Brand New Day\cd 3\04. Esther Phillips - Try Me.wav

Pre-gap length 0:00:01.98

Peak level 85.9 %
Extraction speed 5.6 X
Track quality 100.0 %
Test CRC 1EE515E5
Copy CRC 1EE515E5
Track not present in AccurateRip database
Copy OK

Track 5

Filename D:\#cdr\#wav+flac\#New\Esther Phillips - Brand New Day\cd 3\05. Esther Phillips - When Love Comes To The Human Race.wav

Pre-gap length 0:00:02.37

Peak level 95.4 %
Extraction speed 4.8 X
Track quality 99.9 %
Test CRC DEAF3014
Copy CRC DEAF3014
Track not present in AccurateRip database
Copy OK

Track 6

Filename D:\#cdr\#wav+flac\#New\Esther Phillips - Brand New Day\cd 3\06. Esther Phillips - C.C. Rider.wav

Pre-gap length 0:00:01.62

Peak level 95.5 %
Extraction speed 6.1 X
Track quality 100.0 %
Test CRC E3C6323E
Copy CRC E3C6323E
Track not present in AccurateRip database
Copy OK

Track 7

Filename D:\#cdr\#wav+flac\#New\Esther Phillips - Brand New Day\cd 3\07. Esther Phillips - Cherry Red.wav

Pre-gap length 0:00:02.00

Peak level 95.5 %
Extraction speed 6.6 X
Track quality 100.0 %
Test CRC CE60D7D2
Copy CRC CE60D7D2
Track not present in AccurateRip database
Copy OK

Track 8

Filename D:\#cdr\#wav+flac\#New\Esther Phillips - Brand New Day\cd 3\08. Esther Phillips - Confessin' The Blues.wav

Pre-gap length 0:00:01.98

Peak level 95.4 %
Extraction speed 6.7 X
Track quality 100.0 %
Test CRC 6F6A2765
Copy CRC 6F6A2765
Track not present in AccurateRip database
Copy OK

Track 9

Filename D:\#cdr\#wav+flac\#New\Esther Phillips - Brand New Day\cd 3\09. Esther Phillips - I'm Gettin' 'Long Alright.wav

Pre-gap length 0:00:02.04

Peak level 95.4 %
Extraction speed 7.0 X
Track quality 100.0 %
Test CRC 5D67C9C0
Copy CRC 5D67C9C0
Track not present in AccurateRip database
Copy OK

Track 10

Filename D:\#cdr\#wav+flac\#New\Esther Phillips - Brand New Day\cd 3\10. Esther Phillips - Rocks In My Bed.wav

Pre-gap length 0:00:02.05

Peak level 86.5 %
Extraction speed 7.5 X
Track quality 100.0 %
Test CRC 0E812CEA
Copy CRC 0E812CEA
Track not present in AccurateRip database
Copy OK

Track 11

Filename D:\#cdr\#wav+flac\#New\Esther Phillips - Brand New Day\cd 3\11. Esther Phillips - In The Evenin'.wav

Pre-gap length 0:00:01.49

Peak level 87.8 %
Extraction speed 7.5 X
Track quality 100.0 %
Test CRC 2AC4A733
Copy CRC 2AC4A733
Track not present in AccurateRip database
Copy OK

Track 12

Filename D:\#cdr\#wav+flac\#New\Esther Phillips - Brand New Day\cd 3\12. Esther Phillips - Romance In The Dark.wav

Pre-gap length 0:00:01.74

Peak level 93.5 %
Extraction speed 8.0 X
Track quality 100.0 %
Test CRC E9A9D089
Copy CRC E9A9D089
Track not present in AccurateRip database
Copy OK

Track 13

Filename D:\#cdr\#wav+flac\#New\Esther Phillips - Brand New Day\cd 3\13. Esther Phillips - I Wonder.wav

Pre-gap length 0:00:01.98

Peak level 95.4 %
Extraction speed 6.3 X
Track quality 99.9 %
Test CRC 968EB40E
Copy CRC 968EB40E
Track not present in AccurateRip database
Copy OK

Track 14

Filename D:\#cdr\#wav+flac\#New\Esther Phillips - Brand New Day\cd 3\14. Esther Phillips - Cheater Man.wav

Pre-gap length 0:00:02.26

Peak level 95.0 %
Extraction speed 5.9 X
Track quality 99.9 %
Test CRC 62F00462
Copy CRC 62F00462
Track not present in AccurateRip database
Copy OK

Track 15

Filename D:\#cdr\#wav+flac\#New\Esther Phillips - Brand New Day\cd 3\15. Esther Phillips - I'm Sorry.wav

Pre-gap length 0:00:01.24

Peak level 95.4 %
Extraction speed 8.1 X
Track quality 100.0 %
Test CRC 3685F1D9
Copy CRC 3685F1D9
Track not present in AccurateRip database
Copy OK

Track 16

Filename D:\#cdr\#wav+flac\#New\Esther Phillips - Brand New Day\cd 3\16. Esther Phillips - Watch Dog.wav

Pre-gap length 0:00:01.64

Peak level 85.9 %
Extraction speed 7.9 X
Track quality 100.0 %
Test CRC 7EE1A19B
Copy CRC 7EE1A19B
Track not present in AccurateRip database
Copy OK

Track 17

Filename D:\#cdr\#wav+flac\#New\Esther Phillips - Brand New Day\cd 3\17. Esther Phillips - Too Late To Worry Too Blue To Cry.wav

Pre-gap length 0:00:01.60

Peak level 91.3 %
Extraction speed 8.5 X
Track quality 100.0 %
Test CRC C6EF5A7C
Copy CRC C6EF5A7C
Track not present in AccurateRip database
Copy OK

Track 18

Filename D:\#cdr\#wav+flac\#New\Esther Phillips - Brand New Day\cd 3\18. Esther Phillips - I'm In The Mood For Love.wav

Pre-gap length 0:00:01.92

Peak level 95.4 %
Extraction speed 9.2 X
Track quality 100.0 %
Test CRC 87BAAAD7
Copy CRC 87BAAAD7
Track not present in AccurateRip database
Copy OK

Track 19

Filename D:\#cdr\#wav+flac\#New\Esther Phillips - Brand New Day\cd 3\19. Esther Phillips - Tonight I'll Be Staying Here With You.wav

Pre-gap length 0:00:01.89

Peak level 95.4 %
Extraction speed 8.9 X
Track quality 100.0 %
Test CRC 60B2C0E0
Copy CRC 60B2C0E0
Track not present in AccurateRip database
Copy OK

Track 20

Filename D:\#cdr\#wav+flac\#New\Esther Phillips - Brand New Day\cd 3\20. Esther Phillips - Sweet Dreams.wav

Pre-gap length 0:00:01.78

Peak level 77.9 %
Extraction speed 9.3 X
Track quality 100.0 %
Test CRC EF236E45
Copy CRC EF236E45
Track not present in AccurateRip database
Copy OK

Track 21

Filename D:\#cdr\#wav+flac\#New\Esther Phillips - Brand New Day\cd 3\21. Esther Phillips - Too Much Of A Man.wav

Pre-gap length 0:00:01.84

Peak level 95.4 %
Extraction speed 8.1 X
Track quality 99.9 %
Test CRC 4E030E02
Copy CRC 4E030E02
Track not present in AccurateRip database
Copy OK

Track 22

Filename D:\#cdr\#wav+flac\#New\Esther Phillips - Brand New Day\cd 3\22. Esther Phillips - Nobody But You.wav

Pre-gap length 0:00:01.57

Peak level 89.3 %
Extraction speed 7.3 X
Track quality 99.9 %
Test CRC E47AC57A
Copy CRC E47AC57A
Track not present in AccurateRip database
Copy OK


None of the tracks are present in the AccurateRip database

No errors occurred

End of status report

–– CUETools DB Plugin V2.1.6

[CTDB TOCID: mrIqHgwGlaKBN4aS4K3a5G2JpNc-] disk not present in database
Submit result: mrIqHgwGlaKBN4aS4K3a5G2JpNc- has been uploaded


==== Log checksum 576BF01C26079907F123EE39D502282286D8A7F418AE66EBED090A83859B9B23 ====
Exact Audio Copy V1.3 from 2. September 2016

EAC extraction logfile from 10. September 2020, 13:48

Esther Phillips / Brand New Day

Used drive : PLEXTOR PX-891SAF Adapter: 1 ID: 0

Read mode : Secure
Utilize accurate stream : Yes
Defeat audio cache : Yes
Make use of C2 pointers : No

Read offset correction : 6
Overread into Lead-In and Lead-Out : No
Fill up missing offset samples with silence : Yes
Delete leading and trailing silent blocks : No
Null samples used in CRC calculations : Yes
Used interface : Native Win32 interface for Win NT & 2000
Gap handling : Appended to previous track

Used output format : User Defined Encoder
Selected bitrate : 1024 kBit/s
Quality : High
Add ID3 tag : No
Command line compressor : C:\Program Files (x86)\Exact Audio Copy\Flac\flac.exe
Additional command line options : -8 -V -T "ARTIST=%artist%" -T "TITLE=%title%" -T "ALBUM=%albumtitle%" -T "DATE=%year%" -T "TRACKNUMBER=%tracknr%" -T "GENRE=%genre%" -T "PERFORMER=%albuminterpret%" -T "COMPOSER=%composer%" %haslyrics%–tag-from-file=LYRICS="%lyricsfile%"%haslyrics% -T "ALBUMARTIST=%albumartist%" -T "DISCNUMBER=%cdnumber%" -T "TOTALDISCS=%totalcds%" -T "TOTALTRACKS=%numtracks%" -T "COMMENT=%comment%" %source% -o %dest%


TOC of the extracted CD

Track | Start | Length | Start sector | End sector
––––––––––––––––––––––––––––-
1 | 0:00.00 | 2:21.07 | 0 | 10581
2 | 2:21.07 | 6:28.67 | 10582 | 39748
3 | 8:49.74 | 4:02.66 | 39749 | 57964
4 | 12:52.65 | 5:24.62 | 57965 | 82326
5 | 18:17.52 | 5:56.04 | 82327 | 109030
6 | 24:13.56 | 4:48.70 | 109031 | 130700
7 | 29:02.51 | 3:52.45 | 130701 | 148145
8 | 32:55.21 | 4:00.11 | 148146 | 166156
9 | 36:55.32 | 2:37.04 | 166157 | 177935
10 | 39:32.36 | 5:54.22 | 177936 | 204507
11 | 45:26.58 | 3:57.08 | 204508 | 222290
12 | 49:23.66 | 5:18.32 | 222291 | 246172
13 | 54:42.23 | 4:58.07 | 246173 | 268529
14 | 59:40.30 | 11:42.22 | 268530 | 321201


Track 1

Filename D:\#cdr\#wav+flac\#New\Esther Phillips - Brand New Day\cd 4\01. Esther Phillips - Don't Let Me Lose This Dream.wav

Pre-gap length 0:00:02.00

Peak level 95.4 %
Extraction speed 3.6 X
Track quality 99.9 %
Test CRC 3F87E5A5
Copy CRC 3F87E5A5
Track not present in AccurateRip database
Copy OK

Track 2

Filename D:\#cdr\#wav+flac\#New\Esther Phillips - Brand New Day\cd 4\02. Esther Phillips - And I Love Him.wav

Peak level 95.4 %
Extraction speed 5.8 X
Track quality 100.0 %
Test CRC 6985F2C5
Copy CRC 6985F2C5
Track not present in AccurateRip database
Copy OK

Track 3

Filename D:\#cdr\#wav+flac\#New\Esther Phillips - Brand New Day\cd 4\03. Esther Phillips - I Love Paris.wav

Peak level 95.5 %
Extraction speed 6.2 X
Track quality 100.0 %
Test CRC 4A29C48E
Copy CRC 4A29C48E
Track not present in AccurateRip database
Copy OK

Track 4

Filename D:\#cdr\#wav+flac\#New\Esther Phillips - Brand New Day\cd 4\04. Esther Phillips - Cry Me A River Blues.wav

Peak level 81.6 %
Extraction speed 6.9 X
Track quality 100.0 %
Test CRC 08E3BB41
Copy CRC 08E3BB41
Track not present in AccurateRip database
Copy OK

Track 5

Filename D:\#cdr\#wav+flac\#New\Esther Phillips - Brand New Day\cd 4\05. Esther Phillips - I'm Gettin' Long Alright.wav

Peak level 95.4 %
Extraction speed 7.4 X
Track quality 100.0 %
Test CRC 2C50A32B
Copy CRC 2C50A32B
Track not present in AccurateRip database
Copy OK

Track 6

Filename D:\#cdr\#wav+flac\#New\Esther Phillips - Brand New Day\cd 4\06. Esther Phillips - Release Me.wav

Peak level 89.5 %
Extraction speed 7.7 X
Track quality 100.0 %
Test CRC 08FAD179
Copy CRC 08FAD179
Track not present in AccurateRip database
Copy OK

Track 7

Filename D:\#cdr\#wav+flac\#New\Esther Phillips - Brand New Day\cd 4\07. Esther Phillips - If It's The Last Thing I Do.wav

Peak level 90.0 %
Extraction speed 7.9 X
Track quality 100.0 %
Test CRC 50904239
Copy CRC 50904239
Track not present in AccurateRip database
Copy OK

Track 8

Filename D:\#cdr\#wav+flac\#New\Esther Phillips - Brand New Day\cd 4\08. Esther Phillips - Makin' Whoopee.wav

Peak level 95.4 %
Extraction speed 8.2 X
Track quality 100.0 %
Test CRC 72069BCB
Copy CRC 72069BCB
Track not present in AccurateRip database
Copy OK

Track 9

Filename D:\#cdr\#wav+flac\#New\Esther Phillips - Brand New Day\cd 4\09. Esther Phillips - Shangri-La.wav

Peak level 95.4 %
Extraction speed 6.2 X
Track quality 99.9 %
Test CRC B3B93B9B
Copy CRC B3B93B9B
Track not present in AccurateRip database
Copy OK

Track 10

Filename D:\#cdr\#wav+flac\#New\Esther Phillips - Brand New Day\cd 4\10. Esther Phillips - Please Send Me Someone To Love.wav

Peak level 81.2 %
Extraction speed 9.0 X
Track quality 100.0 %
Test CRC BECB2803
Copy CRC BECB2803
Track not present in AccurateRip database
Copy OK

Track 11

Filename D:\#cdr\#wav+flac\#New\Esther Phillips - Brand New Day\cd 4\11. Esther Phillips - Just In Time.wav

Pre-gap length 0:00:01.97

Peak level 95.4 %
Extraction speed 9.0 X
Track quality 100.0 %
Test CRC 5DE791E1
Copy CRC 5DE791E1
Track not present in AccurateRip database
Copy OK

Track 12

Filename D:\#cdr\#wav+flac\#New\Esther Phillips - Brand New Day\cd 4\12. Esther Phillips - Bye Bye Blackbird.wav

Peak level 95.5 %
Extraction speed 9.5 X
Track quality 100.0 %
Test CRC 67D00895
Copy CRC 67D00895
Track not present in AccurateRip database
Copy OK

Track 13

Filename D:\#cdr\#wav+flac\#New\Esther Phillips - Brand New Day\cd 4\13. Esther Phillips - Fancy.wav

Peak level 95.4 %
Extraction speed 9.9 X
Track quality 100.0 %
Test CRC 01A5F2C7
Copy CRC 01A5F2C7
Track not present in AccurateRip database
Copy OK

Track 14

Filename D:\#cdr\#wav+flac\#New\Esther Phillips - Brand New Day\cd 4\14. Esther Phillips - Blow Top Blues; Jelly Jelly Blues; Long John Blues.wav

Peak level 95.5 %
Extraction speed 10.9 X
Track quality 100.0 %
Test CRC 8D686582
Copy CRC 8D686582
Track not present in AccurateRip database
Copy OK


None of the tracks are present in the AccurateRip database

No errors occurred

End of status report

–– CUETools DB Plugin V2.1.6

[CTDB TOCID: tlCJAAIgc8svErrCIBxOF9Py52Y-] disk not present in database
Submit result: tlCJAAIgc8svErrCIBxOF9Py52Y- has been uploaded


==== Log checksum 3E9980E3237D25FD2BCFB403815BA70CD8CAD13F245133FAFE10C2D970B6C6B6 ====

––––––––––––––––––––––––––––––

Exact Audio Copy V1.3 from 2. September 2016

EAC extraction logfile from 10. September 2020, 13:48

Esther Phillips / Brand New Day

Used drive : PLEXTOR PX-891SAF Adapter: 1 ID: 0

Read mode : Secure
Utilize accurate stream : Yes
Defeat audio cache : Yes
Make use of C2 pointers : No

Read offset correction : 6
Overread into Lead-In and Lead-Out : No
Fill up missing offset samples with silence : Yes
Delete leading and trailing silent blocks : No
Null samples used in CRC calculations : Yes
Used interface : Native Win32 interface for Win NT & 2000
Gap handling : Appended to previous track

Used output format : User Defined Encoder
Selected bitrate : 1024 kBit/s
Quality : High
Add ID3 tag : No
Command line compressor : C:\Program Files (x86)\Exact Audio Copy\Flac\flac.exe
Additional command line options : -8 -V -T "ARTIST=%artist%" -T "TITLE=%title%" -T "ALBUM=%albumtitle%" -T "DATE=%year%" -T "TRACKNUMBER=%tracknr%" -T "GENRE=%genre%" -T "PERFORMER=%albuminterpret%" -T "COMPOSER=%composer%" %haslyrics%–tag-from-file=LYRICS="%lyricsfile%"%haslyrics% -T "ALBUMARTIST=%albumartist%" -T "DISCNUMBER=%cdnumber%" -T "TOTALDISCS=%totalcds%" -T "TOTALTRACKS=%numtracks%" -T "COMMENT=%comment%" %source% -o %dest%


TOC of the extracted CD

Track | Start | Length | Start sector | End sector
––––––––––––––––––––––––––––-
1 | 0:00.00 | 2:21.07 | 0 | 10581
2 | 2:21.07 | 6:28.67 | 10582 | 39748
3 | 8:49.74 | 4:02.66 | 39749 | 57964
4 | 12:52.65 | 5:24.62 | 57965 | 82326
5 | 18:17.52 | 5:56.04 | 82327 | 109030
6 | 24:13.56 | 4:48.70 | 109031 | 130700
7 | 29:02.51 | 3:52.45 | 130701 | 148145
8 | 32:55.21 | 4:00.11 | 148146 | 166156
9 | 36:55.32 | 2:37.04 | 166157 | 177935
10 | 39:32.36 | 5:54.22 | 177936 | 204507
11 | 45:26.58 | 3:57.08 | 204508 | 222290
12 | 49:23.66 | 5:18.32 | 222291 | 246172
13 | 54:42.23 | 4:58.07 | 246173 | 268529
14 | 59:40.30 | 11:42.22 | 268530 | 321201


Track 1

Filename D:\#cdr\#wav+flac\#New\Esther Phillips - Brand New Day\cd 4\01. Esther Phillips - Don't Let Me Lose This Dream.wav

Pre-gap length 0:00:02.00

Peak level 95.4 %
Extraction speed 3.6 X
Track quality 99.9 %
Test CRC 3F87E5A5
Copy CRC 3F87E5A5
Track not present in AccurateRip database
Copy OK

Track 2

Filename D:\#cdr\#wav+flac\#New\Esther Phillips - Brand New Day\cd 4\02. Esther Phillips - And I Love Him.wav

Peak level 95.4 %
Extraction speed 5.8 X
Track quality 100.0 %
Test CRC 6985F2C5
Copy CRC 6985F2C5
Track not present in AccurateRip database
Copy OK

Track 3

Filename D:\#cdr\#wav+flac\#New\Esther Phillips - Brand New Day\cd 4\03. Esther Phillips - I Love Paris.wav

Peak level 95.5 %
Extraction speed 6.2 X
Track quality 100.0 %
Test CRC 4A29C48E
Copy CRC 4A29C48E
Track not present in AccurateRip database
Copy OK

Track 4

Filename D:\#cdr\#wav+flac\#New\Esther Phillips - Brand New Day\cd 4\04. Esther Phillips - Cry Me A River Blues.wav

Peak level 81.6 %
Extraction speed 6.9 X
Track quality 100.0 %
Test CRC 08E3BB41
Copy CRC 08E3BB41
Track not present in AccurateRip database
Copy OK

Track 5

Filename D:\#cdr\#wav+flac\#New\Esther Phillips - Brand New Day\cd 4\05. Esther Phillips - I'm Gettin' Long Alright.wav

Peak level 95.4 %
Extraction speed 7.4 X
Track quality 100.0 %
Test CRC 2C50A32B
Copy CRC 2C50A32B
Track not present in AccurateRip database
Copy OK

Track 6

Filename D:\#cdr\#wav+flac\#New\Esther Phillips - Brand New Day\cd 4\06. Esther Phillips - Release Me.wav

Peak level 89.5 %
Extraction speed 7.7 X
Track quality 100.0 %
Test CRC 08FAD179
Copy CRC 08FAD179
Track not present in AccurateRip database
Copy OK

Track 7

Filename D:\#cdr\#wav+flac\#New\Esther Phillips - Brand New Day\cd 4\07. Esther Phillips - If It's The Last Thing I Do.wav

Peak level 90.0 %
Extraction speed 7.9 X
Track quality 100.0 %
Test CRC 50904239
Copy CRC 50904239
Track not present in AccurateRip database
Copy OK

Track 8

Filename D:\#cdr\#wav+flac\#New\Esther Phillips - Brand New Day\cd 4\08. Esther Phillips - Makin' Whoopee.wav

Peak level 95.4 %
Extraction speed 8.2 X
Track quality 100.0 %
Test CRC 72069BCB
Copy CRC 72069BCB
Track not present in AccurateRip database
Copy OK

Track 9

Filename D:\#cdr\#wav+flac\#New\Esther Phillips - Brand New Day\cd 4\09. Esther Phillips - Shangri-La.wav

Peak level 95.4 %
Extraction speed 6.2 X
Track quality 99.9 %
Test CRC B3B93B9B
Copy CRC B3B93B9B
Track not present in AccurateRip database
Copy OK

Track 10

Filename D:\#cdr\#wav+flac\#New\Esther Phillips - Brand New Day\cd 4\10. Esther Phillips - Please Send Me Someone To Love.wav

Peak level 81.2 %
Extraction speed 9.0 X
Track quality 100.0 %
Test CRC BECB2803
Copy CRC BECB2803
Track not present in AccurateRip database
Copy OK

Track 11

Filename D:\#cdr\#wav+flac\#New\Esther Phillips - Brand New Day\cd 4\11. Esther Phillips - Just In Time.wav

Pre-gap length 0:00:01.97

Peak level 95.4 %
Extraction speed 9.0 X
Track quality 100.0 %
Test CRC 5DE791E1
Copy CRC 5DE791E1
Track not present in AccurateRip database
Copy OK

Track 12

Filename D:\#cdr\#wav+flac\#New\Esther Phillips - Brand New Day\cd 4\12. Esther Phillips - Bye Bye Blackbird.wav

Peak level 95.5 %
Extraction speed 9.5 X
Track quality 100.0 %
Test CRC 67D00895
Copy CRC 67D00895
Track not present in AccurateRip database
Copy OK

Track 13

Filename D:\#cdr\#wav+flac\#New\Esther Phillips - Brand New Day\cd 4\13. Esther Phillips - Fancy.wav

Peak level 95.4 %
Extraction speed 9.9 X
Track quality 100.0 %
Test CRC 01A5F2C7
Copy CRC 01A5F2C7
Track not present in AccurateRip database
Copy OK

Track 14

Filename D:\#cdr\#wav+flac\#New\Esther Phillips - Brand New Day\cd 4\14. Esther Phillips - Blow Top Blues; Jelly Jelly Blues; Long John Blues.wav

Peak level 95.5 %
Extraction speed 10.9 X
Track quality 100.0 %
Test CRC 8D686582
Copy CRC 8D686582
Track not present in AccurateRip database
Copy OK


None of the tracks are present in the AccurateRip database

No errors occurred

End of status report

–– CUETools DB Plugin V2.1.6

[CTDB TOCID: tlCJAAIgc8svErrCIBxOF9Py52Y-] disk not present in database
Submit result: tlCJAAIgc8svErrCIBxOF9Py52Y- has been uploaded


==== Log checksum 3E9980E3237D25FD2BCFB403815BA70CD8CAD13F245133FAFE10C2D970B6C6B6 ====
Exact Audio Copy V1.3 from 2. September 2016

EAC extraction logfile from 10. September 2020, 14:08

Esther Phillips / Brand New Day

Used drive : PLEXTOR PX-891SAF Adapter: 1 ID: 0

Read mode : Secure
Utilize accurate stream : Yes
Defeat audio cache : Yes
Make use of C2 pointers : No

Read offset correction : 6
Overread into Lead-In and Lead-Out : No
Fill up missing offset samples with silence : Yes
Delete leading and trailing silent blocks : No
Null samples used in CRC calculations : Yes
Used interface : Native Win32 interface for Win NT & 2000
Gap handling : Appended to previous track

Used output format : User Defined Encoder
Selected bitrate : 1024 kBit/s
Quality : High
Add ID3 tag : No
Command line compressor : C:\Program Files (x86)\Exact Audio Copy\Flac\flac.exe
Additional command line options : -8 -V -T "ARTIST=%artist%" -T "TITLE=%title%" -T "ALBUM=%albumtitle%" -T "DATE=%year%" -T "TRACKNUMBER=%tracknr%" -T "GENRE=%genre%" -T "PERFORMER=%albuminterpret%" -T "COMPOSER=%composer%" %haslyrics%–tag-from-file=LYRICS="%lyricsfile%"%haslyrics% -T "ALBUMARTIST=%albumartist%" -T "DISCNUMBER=%cdnumber%" -T "TOTALDISCS=%totalcds%" -T "TOTALTRACKS=%numtracks%" -T "COMMENT=%comment%" %source% -o %dest%


TOC of the extracted CD

Track | Start | Length | Start sector | End sector
––––––––––––––––––––––––––––-
1 | 0:00.00 | 2:25.54 | 0 | 10928
2 | 2:25.54 | 7:40.74 | 10929 | 45502
3 | 10:06.53 | 7:13.00 | 45503 | 77977
4 | 17:19.53 | 4:36.16 | 77978 | 98693
5 | 21:55.69 | 2:44.61 | 98694 | 111054
6 | 24:40.55 | 2:37.00 | 111055 | 122829
7 | 27:17.55 | 3:11.25 | 122830 | 137179
8 | 30:29.05 | 4:05.63 | 137180 | 155617
9 | 34:34.68 | 4:17.42 | 155618 | 174934
10 | 38:52.35 | 2:21.52 | 174935 | 185561
11 | 41:14.12 | 2:26.20 | 185562 | 196531
12 | 43:40.32 | 3:29.66 | 196532 | 212272
13 | 47:10.23 | 3:59.11 | 212273 | 230208
14 | 51:09.34 | 3:41.19 | 230209 | 246802
15 | 54:50.53 | 2:41.64 | 246803 | 258941


Track 1

Filename D:\#cdr\#wav+flac\#New\Esther Phillips - Brand New Day\cd 5\01. Esther Phillips - Don't Let Me Lose This Dream.wav

Pre-gap length 0:00:02.00

Peak level 95.4 %
Extraction speed 3.5 X
Track quality 99.9 %
Test CRC 5F288BC3
Copy CRC 5F288BC3
Track not present in AccurateRip database
Copy OK

Track 2

Filename D:\#cdr\#wav+flac\#New\Esther Phillips - Brand New Day\cd 5\02. Esther Phillips - Feel Like I Wanna Cry.wav

Peak level 95.4 %
Extraction speed 6.0 X
Track quality 100.0 %
Test CRC 7A6C9204
Copy CRC 7A6C9204
Track not present in AccurateRip database
Copy OK

Track 3

Filename D:\#cdr\#wav+flac\#New\Esther Phillips - Brand New Day\cd 5\03. Esther Phillips - Please Send Me Somebody To Love.wav

Peak level 95.4 %
Extraction speed 6.8 X
Track quality 100.0 %
Test CRC 961F5854
Copy CRC 961F5854
Track not present in AccurateRip database
Copy OK

Track 4

Filename D:\#cdr\#wav+flac\#New\Esther Phillips - Brand New Day\cd 5\04. Esther Phillips - It Could Happen To You.wav

Peak level 95.4 %
Extraction speed 6.0 X
Track quality 99.9 %
Test CRC ADA2C7E0
Copy CRC ADA2C7E0
Track not present in AccurateRip database
Copy OK

Track 5

Filename D:\#cdr\#wav+flac\#New\Esther Phillips - Brand New Day\cd 5\05. Esther Phillips - A Woman Will Do Wrong.wav

Pre-gap length 0:00:07.98

Peak level 95.4 %
Extraction speed 6.9 X
Track quality 100.0 %
Test CRC 90772268
Copy CRC 90772268
Track not present in AccurateRip database
Copy OK

Track 6

Filename D:\#cdr\#wav+flac\#New\Esther Phillips - Brand New Day\cd 5\06. Esther Phillips - Catch Me I'm Falling.wav

Pre-gap length 0:00:01.89

Peak level 95.4 %
Extraction speed 5.4 X
Track quality 99.9 %
Test CRC 9290FC6D
Copy CRC 9290FC6D
Track not present in AccurateRip database
Copy OK

Track 7

Filename D:\#cdr\#wav+flac\#New\Esther Phillips - Brand New Day\cd 5\07. Esther Phillips - Some Cats Know.wav

Pre-gap length 0:00:01.57

Peak level 95.4 %
Extraction speed 7.5 X
Track quality 100.0 %
Test CRC 4E260117
Copy CRC 4E260117
Track not present in AccurateRip database
Copy OK

Track 8

Filename D:\#cdr\#wav+flac\#New\Esther Phillips - Brand New Day\cd 5\08. Esther Phillips - Set Me Free.wav

Pre-gap length 0:00:01.88

Peak level 95.4 %
Extraction speed 8.1 X
Track quality 100.0 %
Test CRC DD1B5927
Copy CRC DD1B5927
Track not present in AccurateRip database
Copy OK

Track 9

Filename D:\#cdr\#wav+flac\#New\Esther Phillips - Brand New Day\cd 5\09. Esther Phillips - Brand New Day.wav

Pre-gap length 0:00:01.80

Peak level 95.4 %
Extraction speed 8.4 X
Track quality 100.0 %
Test CRC 9EAEB37F
Copy CRC 9EAEB37F
Track not present in AccurateRip database
Copy OK

Track 10

Filename D:\#cdr\#wav+flac\#New\Esther Phillips - Brand New Day\cd 5\10. Esther Phillips - I'm In Love.wav

Pre-gap length 0:00:02.02

Peak level 95.4 %
Extraction speed 7.9 X
Track quality 100.0 %
Test CRC 9C094ED5
Copy CRC 9C094ED5
Track not present in AccurateRip database
Copy OK

Track 11

Filename D:\#cdr\#wav+flac\#New\Esther Phillips - Brand New Day\cd 5\11. Esther Phillips - Just Like A Fish.wav

Pre-gap length 0:00:02.02

Peak level 95.5 %
Extraction speed 8.2 X
Track quality 100.0 %
Test CRC 9B9722C2
Copy CRC 9B9722C2
Track not present in AccurateRip database
Copy OK

Track 12

Filename D:\#cdr\#wav+flac\#New\Esther Phillips - Brand New Day\cd 5\12. Esther Phillips - Tomorrow Night.wav

Pre-gap length 0:00:01.82

Peak level 95.5 %
Extraction speed 8.8 X
Track quality 100.0 %
Test CRC 03E17C77
Copy CRC 03E17C77
Track not present in AccurateRip database
Copy OK

Track 13

Filename D:\#cdr\#wav+flac\#New\Esther Phillips - Brand New Day\cd 5\13. Esther Phillips - All God Has Is Us.wav

Pre-gap length 0:00:01.72

Peak level 87.4 %
Extraction speed 9.3 X
Track quality 100.0 %
Test CRC A61A55A1
Copy CRC A61A55A1
Track not present in AccurateRip database
Copy OK

Track 14

Filename D:\#cdr\#wav+flac\#New\Esther Phillips - Brand New Day\cd 5\14. Esther Phillips - He Knows What To Do For Me.wav

Pre-gap length 0:00:01.10

Peak level 95.5 %
Extraction speed 9.4 X
Track quality 100.0 %
Test CRC 297D7AAA
Copy CRC 297D7AAA
Track not present in AccurateRip database
Copy OK

Track 15

Filename D:\#cdr\#wav+flac\#New\Esther Phillips - Brand New Day\cd 5\15. Esther Phillips - Crazy Love.wav

Pre-gap length 0:00:02.14

Peak level 95.4 %
Extraction speed 9.0 X
Track quality 100.0 %
Test CRC BC829ACE
Copy CRC BC829ACE
Track not present in AccurateRip database
Copy OK


None of the tracks are present in the AccurateRip database

No errors occurred

End of status report

–– CUETools DB Plugin V2.1.6

[CTDB TOCID: T5KRm2KMX8pRzQS_yzLYB9ezxSg-] disk not present in database
Submit result: T5KRm2KMX8pRzQS_yzLYB9ezxSg- has been uploaded


==== Log checksum 89B179B41EE9354996D9958B40C6236395F4378A53400BDAFF98241A8368D183 ====

––––––––––––––––––––––––––––––

Exact Audio Copy V1.3 from 2. September 2016

EAC extraction logfile from 10. September 2020, 14:08

Esther Phillips / Brand New Day

Used drive : PLEXTOR PX-891SAF Adapter: 1 ID: 0

Read mode : Secure
Utilize accurate stream : Yes
Defeat audio cache : Yes
Make use of C2 pointers : No

Read offset correction : 6
Overread into Lead-In and Lead-Out : No
Fill up missing offset samples with silence : Yes
Delete leading and trailing silent blocks : No
Null samples used in CRC calculations : Yes
Used interface : Native Win32 interface for Win NT & 2000
Gap handling : Appended to previous track

Used output format : User Defined Encoder
Selected bitrate : 1024 kBit/s
Quality : High
Add ID3 tag : No
Command line compressor : C:\Program Files (x86)\Exact Audio Copy\Flac\flac.exe
Additional command line options : -8 -V -T "ARTIST=%artist%" -T "TITLE=%title%" -T "ALBUM=%albumtitle%" -T "DATE=%year%" -T "TRACKNUMBER=%tracknr%" -T "GENRE=%genre%" -T "PERFORMER=%albuminterpret%" -T "COMPOSER=%composer%" %haslyrics%–tag-from-file=LYRICS="%lyricsfile%"%haslyrics% -T "ALBUMARTIST=%albumartist%" -T "DISCNUMBER=%cdnumber%" -T "TOTALDISCS=%totalcds%" -T "TOTALTRACKS=%numtracks%" -T "COMMENT=%comment%" %source% -o %dest%


TOC of the extracted CD

Track | Start | Length | Start sector | End sector
––––––––––––––––––––––––––––-
1 | 0:00.00 | 2:25.54 | 0 | 10928
2 | 2:25.54 | 7:40.74 | 10929 | 45502
3 | 10:06.53 | 7:13.00 | 45503 | 77977
4 | 17:19.53 | 4:36.16 | 77978 | 98693
5 | 21:55.69 | 2:44.61 | 98694 | 111054
6 | 24:40.55 | 2:37.00 | 111055 | 122829
7 | 27:17.55 | 3:11.25 | 122830 | 137179
8 | 30:29.05 | 4:05.63 | 137180 | 155617
9 | 34:34.68 | 4:17.42 | 155618 | 174934
10 | 38:52.35 | 2:21.52 | 174935 | 185561
11 | 41:14.12 | 2:26.20 | 185562 | 196531
12 | 43:40.32 | 3:29.66 | 196532 | 212272
13 | 47:10.23 | 3:59.11 | 212273 | 230208
14 | 51:09.34 | 3:41.19 | 230209 | 246802
15 | 54:50.53 | 2:41.64 | 246803 | 258941


Track 1

Filename D:\#cdr\#wav+flac\#New\Esther Phillips - Brand New Day\cd 5\01. Esther Phillips - Don't Let Me Lose This Dream.wav

Pre-gap length 0:00:02.00

Peak level 95.4 %
Extraction speed 3.5 X
Track quality 99.9 %
Test CRC 5F288BC3
Copy CRC 5F288BC3
Track not present in AccurateRip database
Copy OK

Track 2

Filename D:\#cdr\#wav+flac\#New\Esther Phillips - Brand New Day\cd 5\02. Esther Phillips - Feel Like I Wanna Cry.wav

Peak level 95.4 %
Extraction speed 6.0 X
Track quality 100.0 %
Test CRC 7A6C9204
Copy CRC 7A6C9204
Track not present in AccurateRip database
Copy OK

Track 3

Filename D:\#cdr\#wav+flac\#New\Esther Phillips - Brand New Day\cd 5\03. Esther Phillips - Please Send Me Somebody To Love.wav

Peak level 95.4 %
Extraction speed 6.8 X
Track quality 100.0 %
Test CRC 961F5854
Copy CRC 961F5854
Track not present in AccurateRip database
Copy OK

Track 4

Filename D:\#cdr\#wav+flac\#New\Esther Phillips - Brand New Day\cd 5\04. Esther Phillips - It Could Happen To You.wav

Peak level 95.4 %
Extraction speed 6.0 X
Track quality 99.9 %
Test CRC ADA2C7E0
Copy CRC ADA2C7E0
Track not present in AccurateRip database
Copy OK

Track 5

Filename D:\#cdr\#wav+flac\#New\Esther Phillips - Brand New Day\cd 5\05. Esther Phillips - A Woman Will Do Wrong.wav

Pre-gap length 0:00:07.98

Peak level 95.4 %
Extraction speed 6.9 X
Track quality 100.0 %
Test CRC 90772268
Copy CRC 90772268
Track not present in AccurateRip database
Copy OK

Track 6

Filename D:\#cdr\#wav+flac\#New\Esther Phillips - Brand New Day\cd 5\06. Esther Phillips - Catch Me I'm Falling.wav

Pre-gap length 0:00:01.89

Peak level 95.4 %
Extraction speed 5.4 X
Track quality 99.9 %
Test CRC 9290FC6D
Copy CRC 9290FC6D
Track not present in AccurateRip database
Copy OK

Track 7

Filename D:\#cdr\#wav+flac\#New\Esther Phillips - Brand New Day\cd 5\07. Esther Phillips - Some Cats Know.wav

Pre-gap length 0:00:01.57

Peak level 95.4 %
Extraction speed 7.5 X
Track quality 100.0 %
Test CRC 4E260117
Copy CRC 4E260117
Track not present in AccurateRip database
Copy OK

Track 8

Filename D:\#cdr\#wav+flac\#New\Esther Phillips - Brand New Day\cd 5\08. Esther Phillips - Set Me Free.wav

Pre-gap length 0:00:01.88

Peak level 95.4 %
Extraction speed 8.1 X
Track quality 100.0 %
Test CRC DD1B5927
Copy CRC DD1B5927
Track not present in AccurateRip database
Copy OK

Track 9

Filename D:\#cdr\#wav+flac\#New\Esther Phillips - Brand New Day\cd 5\09. Esther Phillips - Brand New Day.wav

Pre-gap length 0:00:01.80

Peak level 95.4 %
Extraction speed 8.4 X
Track quality 100.0 %
Test CRC 9EAEB37F
Copy CRC 9EAEB37F
Track not present in AccurateRip database
Copy OK

Track 10

Filename D:\#cdr\#wav+flac\#New\Esther Phillips - Brand New Day\cd 5\10. Esther Phillips - I'm In Love.wav

Pre-gap length 0:00:02.02

Peak level 95.4 %
Extraction speed 7.9 X
Track quality 100.0 %
Test CRC 9C094ED5
Copy CRC 9C094ED5
Track not present in AccurateRip database
Copy OK

Track 11

Filename D:\#cdr\#wav+flac\#New\Esther Phillips - Brand New Day\cd 5\11. Esther Phillips - Just Like A Fish.wav

Pre-gap length 0:00:02.02

Peak level 95.5 %
Extraction speed 8.2 X
Track quality 100.0 %
Test CRC 9B9722C2
Copy CRC 9B9722C2
Track not present in AccurateRip database
Copy OK

Track 12

Filename D:\#cdr\#wav+flac\#New\Esther Phillips - Brand New Day\cd 5\12. Esther Phillips - Tomorrow Night.wav

Pre-gap length 0:00:01.82

Peak level 95.5 %
Extraction speed 8.8 X
Track quality 100.0 %
Test CRC 03E17C77
Copy CRC 03E17C77
Track not present in AccurateRip database
Copy OK

Track 13

Filename D:\#cdr\#wav+flac\#New\Esther Phillips - Brand New Day\cd 5\13. Esther Phillips - All God Has Is Us.wav

Pre-gap length 0:00:01.72

Peak level 87.4 %
Extraction speed 9.3 X
Track quality 100.0 %
Test CRC A61A55A1
Copy CRC A61A55A1
Track not present in AccurateRip database
Copy OK

Track 14

Filename D:\#cdr\#wav+flac\#New\Esther Phillips - Brand New Day\cd 5\14. Esther Phillips - He Knows What To Do For Me.wav

Pre-gap length 0:00:01.10

Peak level 95.5 %
Extraction speed 9.4 X
Track quality 100.0 %
Test CRC 297D7AAA
Copy CRC 297D7AAA
Track not present in AccurateRip database
Copy OK

Track 15

Filename D:\#cdr\#wav+flac\#New\Esther Phillips - Brand New Day\cd 5\15. Esther Phillips - Crazy Love.wav

Pre-gap length 0:00:02.14

Peak level 95.4 %
Extraction speed 9.0 X
Track quality 100.0 %
Test CRC BC829ACE
Copy CRC BC829ACE
Track not present in AccurateRip database
Copy OK


None of the tracks are present in the AccurateRip database

No errors occurred

End of status report

–– CUETools DB Plugin V2.1.6

[CTDB TOCID: T5KRm2KMX8pRzQS_yzLYB9ezxSg-] disk not present in database
Submit result: T5KRm2KMX8pRzQS_yzLYB9ezxSg- has been uploaded


==== Log checksum 89B179B41EE9354996D9958B40C6236395F4378A53400BDAFF98241A8368D183 ====


Esther Phillips - Brand New Day: The Lenox Atlantic & Roulette Recordings 1962-1970 (2020) {5CD Set, Soul Music QSMCR-5194BX}



===