Subcategories

Bill Evans Trio - How My Heart Sings! (1962) {OJC Remasters Complete Series rel 2013, item 25of33}

Posted By: ruskaval
Bill Evans Trio - How My Heart Sings! (1962) {OJC Remasters Complete Series rel 2013, item 25of33}

Bill Evans Trio - How My Heart Sings! (1962) {OJC Remasters Complete Series rel 2013, item 25of33}
EAC rip (secure mode) | FLAC (tracks)+CUE+LOG -> 370 Mb | MP3 @320 -> 143 Mb
Full Artwork @ 600 dpi (png) -> 227 Mb | 5% repair rar | 24-bit remaster
© 1962, 2013 Riverside / Concord | 60th Anniversary of Riverside Records | 0888072345935
Jazz / Post Bop / Modal Music / Piano

Concord Music Group will release five new titles in its Original Jazz Classics Remasters series. Enhanced by 24-bit remastering by Joe Tarantino, several bonus tracks on nearly each disc (some previously unreleased) and new liner notes providing historical context to the original material, the series celebrates the 60th anniversary of Riverside Records, the prolific New York-based label that showcased some of the most influential jazz artists and recordings of the 1950s and '60s.

The five titles are:
Thelonious Monk & Gerry Mulligan: Mulligan Meets Monk | Bill Evans Trio: How My Heart Sings! | Wes Montgomery: So Much Guitar! | Cannonball Adderley & Milt Jackson: Things Are Getting Better | Chet Baker Plays the Best of Lerner and Loewe.


Riverside was launched in 1953 in New York on a shoestring budget by traditional-jazz enthusiasts Bill Grauer and Orrin Keepnews as a platform to reissue jazz and blues recordings from the 1920s by King Oliver, Jelly Roll Morton, Ma Rainey, Blind Lemon Jefferson, and others. Over the next decade, the label evolved into one of the premier purveyors of modern jazz. With Keepnews producing the sessions (and often writing the liner notes), Riverside brought jazz giants like Thelonious Monk, Bill Evans, Cannonball Adderley, and Wes Montgomery to the forefront of American music. Despite successes with these and other jazz and blues artists - including Sonny Rollins, Abbey Lincoln, Art Blakey, Mongo Santamaria, John Lee Hooker, Jimmy Heath, Charlie Byrd, and the Staple Singers - Riverside folded in 1964, a year after Grauer's death. The catalog was acquired by Fantasy in 1972, and Fantasy was in turn acquired by Concord Music Group in late 2004.

All five Riverside titles in the current round of reissues were originally produced by Keepnews and include his original liner notes. All reflect the ambitious depth and scope of influential jazz captured in the Riverside catalog over the relatively short span of 11 years.
Bill Evans Trio - How My Heart Sings! (1962) {OJC Remasters Complete Series rel 2013, item 25of33}

Bill Evans Trio: How My Heart Sings!

Recorded in New York on three separate days in May and June 1962, How My Heart Sings! features Bill Evans accompanied by bassist Chuck Israels (replacing Scott Lofaro, who had died in an automobile accident less than a year earlier) and drummer Paul Motian. The album is actually the second of two to emerge from the 1962 sessions; the first was Moonbeams, a collection of ballads. How My Heart Sings! is, by design, a bit more lively and energetic.

"The selections represented here are primarily of a more ‘moving' kind," says Doug Ramsey in his new liner notes to the reissue, "though there is in the trio's approach to all material a desire to present a singing sound. Hence, the title of the album, despite its intended program of faster swinging vehicles."

How My Heart Sings! includes three bonus tracks: an alternate take of "In Your Own Sweet Way," and previously unreleased renditions of "34 Skidoo" and "Ev'rything I Love."

Personnel:
Bill Evans - piano
Chuck Israels - bass
Paul Motian - drums

tracklist:
01 - How My Heart Sings
02 - I Should Care
03 - In Your Own Sweet Way
04 - Walking Up
05 - Summertime
06 - 34 Skidoo
07 - Ev'rything I Love
08 - Show-Type Tune
09 - In Your Own Sweet Way (Take 2) (bonus track)
10 - 34 Skidoo (Take 9) (bonus track)
11 - Ev'rything I Love (Take 2) (bonus track)

Exact Audio Copy V1.3 from 2. September 2016

EAC extraction logfile from 1. August 2019, 7:45

Bill Evans Trio / How My Heart Sings

Used drive : ATAPI iHAS122 F Adapter: 1 ID: 0

Read mode : Secure
Utilize accurate stream : Yes
Defeat audio cache : Yes
Make use of C2 pointers : No

Read offset correction : 6
Overread into Lead-In and Lead-Out : No
Fill up missing offset samples with silence : Yes
Delete leading and trailing silent blocks : No
Null samples used in CRC calculations : Yes
Used interface : Native Win32 interface for Win NT & 2000
Gap handling : Appended to previous track

Used output format : User Defined Encoder
Selected bitrate : 1024 kBit/s
Quality : High
Add ID3 tag : No
Command line compressor : C:\Program Files (x86)\Exact Audio Copy_v1.3\Flac\flac.exe
Additional command line options : -8 -V -T "ARTIST=%artist%" -T "TITLE=%title%" -T "ALBUM=%albumtitle%" -T "DATE=%year%" -T "TRACKNUMBER=%tracknr%" -T "TOTALTRACKS=%numtracks%" -T "GENRE=%genre%" -T "ALBUMARTIST=%albumartist%" -T "ALBUM ARTIST=%albumartist%" -T "COMMENT=EAC Secure Mode, Test & Copy, AccurateRip, FLAC -8" %source%


TOC of the extracted CD

Track | Start | Length | Start sector | End sector
––––––––––––––––––––––––––––-
1 | 0:00.00 | 4:59.72 | 0 | 22496
2 | 4:59.72 | 4:56.03 | 22497 | 44699
3 | 9:56.00 | 6:58.19 | 44700 | 76068
4 | 16:54.19 | 4:58.30 | 76069 | 98448
5 | 21:52.49 | 6:03.67 | 98449 | 125740
6 | 27:56.41 | 6:21.70 | 125741 | 154385
7 | 34:18.36 | 4:16.15 | 154386 | 173600
8 | 38:34.51 | 4:26.31 | 173601 | 193581
9 | 43:01.07 | 5:54.43 | 193582 | 220174
10 | 48:55.50 | 6:26.03 | 220175 | 249127
11 | 55:21.53 | 4:20.16 | 249128 | 268643


Track 1

Filename F:\_EAC\Bill Evans Trio - How My Heart Sings (1962) [FLAC] {OJC Remasters}\01 - How My Heart Sings.wav

Pre-gap length 0:00:02.00

Peak level 98.9 %
Extraction speed 5.4 X
Track quality 100.0 %
Test CRC C881D2A5
Copy CRC C881D2A5
Accurately ripped (confidence 21) [382D49DD] (AR v2)
Copy OK

Track 2

Filename F:\_EAC\Bill Evans Trio - How My Heart Sings (1962) [FLAC] {OJC Remasters}\02 - I Should Care.wav

Peak level 98.9 %
Extraction speed 6.1 X
Track quality 100.0 %
Test CRC 92A0B60B
Copy CRC 92A0B60B
Accurately ripped (confidence 21) [4B93A8F6] (AR v2)
Copy OK

Track 3

Filename F:\_EAC\Bill Evans Trio - How My Heart Sings (1962) [FLAC] {OJC Remasters}\03 - In Your Own Sweet Way.wav

Peak level 99.2 %
Extraction speed 7.0 X
Track quality 100.0 %
Test CRC 712E9CF2
Copy CRC 712E9CF2
Accurately ripped (confidence 21) [E5D1FF20] (AR v2)
Copy OK

Track 4

Filename F:\_EAC\Bill Evans Trio - How My Heart Sings (1962) [FLAC] {OJC Remasters}\04 - Walking Up.wav

Peak level 98.9 %
Extraction speed 7.4 X
Track quality 100.0 %
Test CRC 567A6023
Copy CRC 567A6023
Accurately ripped (confidence 21) [005E0D4A] (AR v2)
Copy OK

Track 5

Filename F:\_EAC\Bill Evans Trio - How My Heart Sings (1962) [FLAC] {OJC Remasters}\05 - Summertime.wav

Peak level 88.1 %
Extraction speed 7.0 X
Track quality 99.9 %
Test CRC 46D6E01B
Copy CRC 46D6E01B
Accurately ripped (confidence 20) [4A5E69A2] (AR v2)
Copy OK

Track 6

Filename F:\_EAC\Bill Evans Trio - How My Heart Sings (1962) [FLAC] {OJC Remasters}\06 - 34 Skidoo.wav

Peak level 98.8 %
Extraction speed 8.7 X
Track quality 100.0 %
Test CRC 07659241
Copy CRC 07659241
Accurately ripped (confidence 21) [9A79A2F8] (AR v2)
Copy OK

Track 7

Filename F:\_EAC\Bill Evans Trio - How My Heart Sings (1962) [FLAC] {OJC Remasters}\07 - Ev'rything I Love.wav

Peak level 98.9 %
Extraction speed 8.8 X
Track quality 100.0 %
Test CRC 0DA450B9
Copy CRC 0DA450B9
Accurately ripped (confidence 21) [0D0134A7] (AR v2)
Copy OK

Track 8

Filename F:\_EAC\Bill Evans Trio - How My Heart Sings (1962) [FLAC] {OJC Remasters}\08 - Show-Type Tune.wav

Peak level 98.8 %
Extraction speed 9.1 X
Track quality 100.0 %
Test CRC AA994CA9
Copy CRC AA994CA9
Accurately ripped (confidence 20) [189B4CA7] (AR v2)
Copy OK

Track 9

Filename F:\_EAC\Bill Evans Trio - How My Heart Sings (1962) [FLAC] {OJC Remasters}\09 - In Your Own Sweet Way (Take 2) (bonus track).wav

Peak level 98.9 %
Extraction speed 8.5 X
Track quality 99.9 %
Test CRC 48CDB332
Copy CRC 48CDB332
Accurately ripped (confidence 21) [93272477] (AR v2)
Copy OK

Track 10

Filename F:\_EAC\Bill Evans Trio - How My Heart Sings (1962) [FLAC] {OJC Remasters}\10 - 34 Skidoo (Take 9) (bonus track).wav

Peak level 89.0 %
Extraction speed 10.3 X
Track quality 100.0 %
Test CRC CF6B67FF
Copy CRC CF6B67FF
Accurately ripped (confidence 21) [B5F04566] (AR v2)
Copy OK

Track 11

Filename F:\_EAC\Bill Evans Trio - How My Heart Sings (1962) [FLAC] {OJC Remasters}\11 - Ev'rything I Love (Take 2) (bonus track).wav

Peak level 88.3 %
Extraction speed 10.2 X
Track quality 100.0 %
Test CRC D04D4A51
Copy CRC D04D4A51
Accurately ripped (confidence 21) [4C08EB1F] (AR v2)
Copy OK


All tracks accurately ripped

No errors occurred

End of status report

–– CUETools DB Plugin V2.1.6

[CTDB TOCID: A_2vJWB7FcxkgVDqghZ_NNLI0Rc-] found
Submit result: A_2vJWB7FcxkgVDqghZ_NNLI0Rc- has been confirmed
Track | CTDB Status
1 | (49/49) Accurately ripped
2 | (49/49) Accurately ripped
3 | (49/49) Accurately ripped
4 | (49/49) Accurately ripped
5 | (48/49) Accurately ripped
6 | (49/49) Accurately ripped
7 | (49/49) Accurately ripped
8 | (48/49) Accurately ripped
9 | (49/49) Accurately ripped
10 | (49/49) Accurately ripped
11 | (47/49) Accurately ripped


==== Log checksum B803BB81C698BF0959D39485C6525726D5D7FAA5B153640C7983814FF99F29D9 ====


Bill Evans Trio - How My Heart Sings! (1962) {OJC Remasters Complete Series rel 2013, item 25of33}

Bill Evans Trio - How My Heart Sings! (1962) {OJC Remasters Complete Series rel 2013, item 25of33}


see more OJC Remasters Complete Series…


===