Subcategories

Fathi Ben Yakoub & Matthieu Saglio - Danza del Sacromonte {2009}

Posted By: luckburz
Fathi Ben Yakoub & Matthieu Saglio - Danza del Sacromonte {2009}

Fathi Ben Yakoub & Matthieu Saglio - Danza del Sacromonte
EAC+LOG+CUE | FLAC: 308 MB | Full Artwork | 5% Recovery Info
Label/Cat#: Samsaoui # No Cat. | Country/Year: Spain 2009
Genre: Classical, World Music | Style: Crossover

MD5 [X] CUE [X] LOG [X] INFO TEXT [X] ARTWORK [X]

selfrip [] not my rip [X]

Fathi Ben Yakoub & Matthieu Saglio - Danza del Sacromonte {2009}


Exact Audio Copy V1.0 beta 2 from 29. April 2011

EAC extraction logfile from 28. July 2012, 13:38

Fathi Ben Yakoub & Matthieu Saglio / Danza del Sacromonte

Used drive : PLEXTOR DVDR PX-L890SA Adapter: 2 ID: 1

Read mode : Secure
Utilize accurate stream : Yes
Defeat audio cache : Yes
Make use of C2 pointers : No

Read offset correction : 6
Overread into Lead-In and Lead-Out : No
Fill up missing offset samples with silence : Yes
Delete leading and trailing silent blocks : No
Null samples used in CRC calculations : Yes
Used interface : Native Win32 interface for Win NT & 2000
Gap handling : Appended to previous track

Used output format : User Defined Encoder
Selected bitrate : 256 kBit/s
Quality : High
Add ID3 tag : No
Command line compressor : C:\Program Files (x86)\Exact Audio Copy\FLAC\FLAC.EXE
Additional command line options : -8 -V -T "ARTIST=%artist%" -T "TITLE=%title%" -T "ALBUM=%albumtitle%" -T "DATE=%year%" -T "TRACKNUMBER=%tracknr%" -T "TOTALTRACKS=%numtracks%" -T "GENRE=%genre%" -T "ALBUMARTIST=%albumartist%" -T "ALBUM ARTIST=%albumartist%


TOC of the extracted CD

Track | Start | Length | Start sector | End sector
––––––––––––––––––––––––––––-
1 | 0:00.00 | 5:20.06 | 0 | 24005
2 | 5:20.06 | 4:09.31 | 24006 | 42711
3 | 9:29.37 | 3:10.64 | 42712 | 57025
4 | 12:40.26 | 7:05.48 | 57026 | 88948
5 | 19:45.74 | 6:13.11 | 88949 | 116934
6 | 25:59.10 | 6:36.72 | 116935 | 146706
7 | 32:36.07 | 5:31.14 | 146707 | 171545
8 | 38:07.21 | 4:10.09 | 171546 | 190304
9 | 42:17.30 | 3:25.00 | 190305 | 205679
10 | 45:42.30 | 3:35.43 | 205680 | 221847
11 | 49:17.73 | 5:07.24 | 221848 | 244896


Track 1

Filename F:\Flac Rips\01 - Fantasia Nigriz.wav

Pre-gap length 0:00:02.00

Peak level 100.0 %
Extraction speed 4.0 X
Track quality 100.0 %
Test CRC E4735640
Copy CRC E4735640
Track not present in AccurateRip database
Copy OK

Track 2

Filename F:\Flac Rips\02 - Entre Espinas.wav

Peak level 99.8 %
Extraction speed 4.3 X
Track quality 100.0 %
Test CRC 025260FB
Copy CRC 025260FB
Track not present in AccurateRip database
Copy OK

Track 3

Filename F:\Flac Rips\03 - Primavera de Tetuan.wav

Peak level 100.0 %
Extraction speed 4.4 X
Track quality 100.0 %
Test CRC E0F9D209
Copy CRC E0F9D209
Track not present in AccurateRip database
Copy OK

Track 4

Filename F:\Flac Rips\04 - Dialogos.wav

Peak level 100.0 %
Extraction speed 5.2 X
Track quality 100.0 %
Test CRC 41E016A4
Copy CRC 41E016A4
Track not present in AccurateRip database
Copy OK

Track 5

Filename F:\Flac Rips\05 - Capricho.wav

Peak level 95.0 %
Extraction speed 4.8 X
Track quality 99.9 %
Test CRC 0F6EA7F2
Copy CRC 0F6EA7F2
Track not present in AccurateRip database
Copy OK

Track 6

Filename F:\Flac Rips\06 - Danza del Sacromonte.wav

Peak level 100.0 %
Extraction speed 6.1 X
Track quality 100.0 %
Test CRC B0B381B1
Copy CRC B0B381B1
Track not present in AccurateRip database
Copy OK

Track 7

Filename F:\Flac Rips\07 - Mon Petit.wav

Peak level 91.1 %
Extraction speed 6.4 X
Track quality 100.0 %
Test CRC 09215131
Copy CRC 09215131
Track not present in AccurateRip database
Copy OK

Track 8

Filename F:\Flac Rips\08 - Romanza Nahawand.wav

Peak level 100.0 %
Extraction speed 6.4 X
Track quality 100.0 %
Test CRC 9FCB09C8
Copy CRC 9FCB09C8
Track not present in AccurateRip database
Copy OK

Track 9

Filename F:\Flac Rips\09 - Yurgo.wav

Peak level 100.0 %
Extraction speed 6.4 X
Track quality 100.0 %
Test CRC EFF74E23
Copy CRC EFF74E23
Track not present in AccurateRip database
Copy OK

Track 10

Filename F:\Flac Rips\10 - Jawater.wav

Peak level 99.5 %
Extraction speed 6.6 X
Track quality 100.0 %
Test CRC 95020093
Copy CRC 95020093
Track not present in AccurateRip database
Copy OK

Track 11

Filename F:\Flac Rips\11 - Longa Hicaz Kar.wav

Peak level 100.0 %
Extraction speed 7.1 X
Track quality 100.0 %
Test CRC D1939A76
Copy CRC D1939A76
Track not present in AccurateRip database
Copy OK


None of the tracks are present in the AccurateRip database

No errors occurred

End of status report

==== Log checksum B394E0549C77394388498F1848BD1BE806ED377A54251FF0F7EB0415BF225AFC ====

auCDtect: CD records authenticity detector, version 0.8.2
Copyright © 2004 Oleg Berngardt. All rights reserved.
Copyright © 2004 Alexander Djourik. All rights reserved.

Detect mode (0..40 with 0 = most accurate): 8 (default)


––––––––––––––––––––––––––––––
[01 - Fantasia Nigriz.wav]
Detected average hi-boundary frequency: 2.048953e+004 Hz
Detected average lo-boundary frequency: 1.423479e+004 Hz
Detected average hi-cut frequency: 2.179163e+004 Hz
Detected average lo-cut frequency: 1.383743e+004 Hz
Maximum probablis boundary frequency: 2.189100e+004 Hz
Coefficient of nonlinearity of a phase: 1.100388e+000
First order smothness: 4.000000e-001
Second order smothness: 7.526316e-001
––––––––––––––––––––––––––––––
This track looks like CDDA with probability 100%.

––––––––––––––––––––––––––––––
[02 - Entre Espinas.wav]
Detected average hi-boundary frequency: 2.027803e+004 Hz
Detected average lo-boundary frequency: 1.221826e+004 Hz
Detected average hi-cut frequency: 2.183441e+004 Hz
Detected average lo-cut frequency: 1.141981e+004 Hz
Maximum probablis boundary frequency: 2.189100e+004 Hz
Coefficient of nonlinearity of a phase: 1.423264e+000
First order smothness: 3.593220e-001
Second order smothness: 7.355932e-001
––––––––––––––––––––––––––––––
This track looks like CDDA with probability 100%.

––––––––––––––––––––––––––––––
[03 - Primavera de Tetuan.wav]
Detected average hi-boundary frequency: 2.031363e+004 Hz
Detected average lo-boundary frequency: 1.357135e+004 Hz
Detected average hi-cut frequency: 2.186554e+004 Hz
Detected average lo-cut frequency: 1.216633e+004 Hz
Maximum probablis boundary frequency: 1.928000e+004 Hz
Coefficient of nonlinearity of a phase: 1.720634e+000
First order smothness: 4.044444e-001
Second order smothness: 7.200000e-001
––––––––––––––––––––––––––––––
This track looks like CDDA with probability 100%.

––––––––––––––––––––––––––––––
[04 - Dialogos.wav]
Detected average hi-boundary frequency: 2.033809e+004 Hz
Detected average lo-boundary frequency: 1.396293e+004 Hz
Detected average hi-cut frequency: 2.184875e+004 Hz
Detected average lo-cut frequency: 1.527090e+004 Hz
Maximum probablis boundary frequency: 2.189600e+004 Hz
Coefficient of nonlinearity of a phase: 8.375397e-001
First order smothness: 4.841897e-001
Second order smothness: 7.154150e-001
––––––––––––––––––––––––––––––
This track looks like CDDA with probability 100%.

––––––––––––––––––––––––––––––
[05 - Capricho.wav]
Detected average hi-boundary frequency: 2.022907e+004 Hz
Detected average lo-boundary frequency: 1.228366e+004 Hz
Detected average hi-cut frequency: 2.181092e+004 Hz
Detected average lo-cut frequency: 1.132409e+004 Hz
Maximum probablis boundary frequency: 2.189100e+004 Hz
Coefficient of nonlinearity of a phase: 1.062084e+000
First order smothness: 3.476298e-001
Second order smothness: 8.171558e-001
––––––––––––––––––––––––––––––
This track looks like CDDA with probability 100%.

––––––––––––––––––––––––––––––
[06 - Danza del Sacromonte.wav]
Detected average hi-boundary frequency: 2.035564e+004 Hz
Detected average lo-boundary frequency: 1.256077e+004 Hz
Detected average hi-cut frequency: 2.183663e+004 Hz
Detected average lo-cut frequency: 1.391180e+004 Hz
Maximum probablis boundary frequency: 2.159500e+004 Hz
Coefficient of nonlinearity of a phase: 9.596468e-001
First order smothness: 4.385593e-001
Second order smothness: 7.478814e-001
––––––––––––––––––––––––––––––
This track looks like CDDA with probability 100%.

––––––––––––––––––––––––––––––
[07 - Mon Petit.wav]
Detected average hi-boundary frequency: 2.034236e+004 Hz
Detected average lo-boundary frequency: 1.413096e+004 Hz
Detected average hi-cut frequency: 2.185762e+004 Hz
Detected average lo-cut frequency: 1.253395e+004 Hz
Maximum probablis boundary frequency: 1.921600e+004 Hz
Coefficient of nonlinearity of a phase: 1.706232e+000
First order smothness: 3.460560e-001
Second order smothness: 7.837150e-001
––––––––––––––––––––––––––––––
This track looks like CDDA with probability 100%.

––––––––––––––––––––––––––––––
[08 - Romanza Nahawand.wav]
Detected average hi-boundary frequency: 2.028307e+004 Hz
Detected average lo-boundary frequency: 1.298537e+004 Hz
Detected average hi-cut frequency: 2.185119e+004 Hz
Detected average lo-cut frequency: 1.282752e+004 Hz
Maximum probablis boundary frequency: 2.190700e+004 Hz
Coefficient of nonlinearity of a phase: 1.729647e+000
First order smothness: 4.054054e-001
Second order smothness: 8.108108e-001
––––––––––––––––––––––––––––––
This track looks like CDDA with probability 100%.

––––––––––––––––––––––––––––––
[09 - Yurgo.wav]
Detected average hi-boundary frequency: 2.047598e+004 Hz
Detected average lo-boundary frequency: 1.434924e+004 Hz
Detected average hi-cut frequency: 2.185427e+004 Hz
Detected average lo-cut frequency: 1.660790e+004 Hz
Maximum probablis boundary frequency: 2.153600e+004 Hz
Coefficient of nonlinearity of a phase: 1.530680e+000
First order smothness: 5.247934e-001
Second order smothness: 7.892562e-001
––––––––––––––––––––––––––––––
This track looks like CDDA with probability 100%.

––––––––––––––––––––––––––––––
[10 - Jawater.wav]
Detected average hi-boundary frequency: 2.001835e+004 Hz
Detected average lo-boundary frequency: 1.231695e+004 Hz
Detected average hi-cut frequency: 2.183656e+004 Hz
Detected average lo-cut frequency: 1.195664e+004 Hz
Maximum probablis boundary frequency: 2.190700e+004 Hz
Coefficient of nonlinearity of a phase: 1.557138e+000
First order smothness: 3.176471e-001
Second order smothness: 8.156863e-001
––––––––––––––––––––––––––––––
This track looks like CDDA with probability 100%.

––––––––––––––––––––––––––––––
[11 - Longa Hicaz Kar.wav]
Detected average hi-boundary frequency: 2.037367e+004 Hz
Detected average lo-boundary frequency: 1.401811e+004 Hz
Detected average hi-cut frequency: 2.185057e+004 Hz
Detected average lo-cut frequency: 1.435475e+004 Hz
Maximum probablis boundary frequency: 2.190200e+004 Hz
Coefficient of nonlinearity of a phase: 1.469070e+000
First order smothness: 3.831522e-001
Second order smothness: 7.934783e-001
––––––––––––––––––––––––––––––
This track looks like CDDA with probability 100%.

foobar2000 1.1.14a / Dynamic Range Meter 1.1.1
log date: 2012-10-24 19:17:34

––––––––––––––––––––––––––––––––––––––––
Analyzed: Fathi Ben Yakoub & Matthieu Saglio / Danza del Sacromonte
––––––––––––––––––––––––––––––––––––––––

DR Peak RMS Duration Track
––––––––––––––––––––––––––––––––––––––––
DR7 0.00 dB -9.79 dB 5:20 01-Fantasia Nigriz
DR9 -0.01 dB -13.25 dB 4:09 02-Entre Espinas
DR9 0.00 dB -13.39 dB 3:11 03-Primavera de Tetuan
DR8 0.00 dB -10.46 dB 7:06 04-Dialogos
DR11 -0.44 dB -14.51 dB 6:13 05-Capricho
DR8 0.00 dB -10.46 dB 6:37 06-Danza del Sacromonte
DR11 -0.81 dB -15.90 dB 5:31 07-Mon Petit
DR9 0.00 dB -13.41 dB 4:10 08-Romanza Nahawand
DR8 0.00 dB -11.11 dB 3:25 09-Yurgo
DR9 -0.04 dB -11.87 dB 3:36 10-Jawater
DR8 0.00 dB -11.68 dB 5:07 11-Longa Hicaz Kar
––––––––––––––––––––––––––––––––––––––––

Number of tracks: 11
Official DR value: DR9

Samplerate: 44100 Hz
Channels: 2
Bits per sample: 16
Bitrate: 820 kbps
Codec: FLAC
================================================================================



CD Info:

Fathi Ben Yakoub & Matthieu Saglio - Danza del Sacromonte

Label: Samsaoui
Catalog#: -
Format: CD, Album
Country: Spain
Released: 2009
Genre: Classical, World Music

Tracklist:

01. Fantasía Nigriz (F. Ben Yacoub) 5:16
02. Entre Espinas (F. Ben Yacoub) 4:06
03. Primavera de Tetuán (F. Ben Yacoub) 3:07
04. Diálogos (M. Saglio) 7:02
05. Capricho (F. Ben Yacoub) 6:10
06. Danza del Sacromonte (F. Ben Yacoub) 6:33
07. Mon Petit (M. Saglio) 5:26
08. Romanza Nahawand (M. Albunâni/ Arr. F. Ben Yacoub) 4:06
09. Yurgo (Traditional/Arr. M. Saglio) 3:21
10. Jawater (F. Ben Yacoub) 3:32
11. Longa Hicaz Kar (Traditional) 5:07

Recording, mixing and mastering: Producciones Peligrosas, Peligros (Granada), January 2009

Fathi Ben Yakoub: Violin
Matthieu Saglio: Cello

Guests:
Khalid Ahaboune: Percussions
Mustafa Ahkam: Ney
Aziz Samsaoui: Qanun

Sample: http://www.youtube.com/watch?v=Asqg2nMcM6w

Fathi Ben Yakoub & Matthieu Saglio - Danza del Sacromonte {2009}


Eight strings over the Mediterranean

Morrocan violinist Fathi Ben Yakoub and the French cellist Matthieu Saglio have hanged a bridge over the Mediterranean held up by only 8 strings. The violin-cello duet is one of the rarest forms of chamber music, a chamber whose walls were knocked down by Fathi Ben Yakoub and Matthieu Saglio, and left open for the wind to run through.

Despite their separate origins (classical Arabic oriental music for the former and classical western music for the latter), the two virtuous men have coincided in their joint interest of different music cultures of the world.

The only thing left for them to invent is their own grammar to establish the dialogue. Fathi Ben Yakoub and Matthieu Saglio’s Project Orly has 8 chords, but all are significant.

Musicians

Composer and cellist, Matthieu Saglio came out of the mould with an original style in multiplying the approaches to his instrument. He has introduced the cello in flamenco music with the Jerez-Texas band that performs around the world (www.matsag.com).

Composer and virtuoso violonist Fathi Ben Yakoub is one of the great specialists of arabo-andalousian music. He has worked with the greatest names in flamenco (Carmen Linares, Enrique Morente, Arcángel) as well as with the composer Michael Nyman.

Thanks to jlgt!
Fathi Ben Yakoub & Matthieu Saglio - Danza del Sacromonte {2009}

// classical music \\
// all of my uploads \\
________________

Download:

Filepost FLAC
Filepost Artwork
________________