Subcategories

Fernando Gentile - Johann Sebastian Bach: Suites A Violoncello Solo Senza Basso BWV 1007, 1008 & 1009 (2010)

Posted By: Domestos
Fernando Gentile - Johann Sebastian Bach: Suites A Violoncello Solo Senza Basso BWV 1007, 1008 & 1009 (2010)

Fernando Gentile - Johann Sebastian Bach: Suites A Violoncello Solo Senza Basso BWV 1007, 1008 & 1009 (2010)
EAC Rip | FLAC (image+.cue, log) ~ 176.93 Mb + 16.63 Mb (Scans) | 53:28
Classical | Label: SonoAr (ECD3012)

Fernando Javier Gentile born in Santa Fe (Argentina), he began his first cello lessons at the age of eight at the Music School №9901 with Prof. Alberto Canto, six years later he made his first soloist performance with the Youth Symphony Orchestra which he has participated in numerous tours and music festivals all over the country. He has been awarded with the Mozarteum prize for young soloist.

In 1991, he continued his cello studies with Prof. Nicolas Finoli in Buenos Aires, in this period he became a member of the Santa Fe Symphony Orchestra and won the second prize in the «Pau Casals» cello competition in Rosario city.

In 1997, he won Antorchas foundation scholarship to make further cello and chamber music studies in the country, which interrupts in the same year to begin the studies at the Hoclzschule fur Musik und Theater Hamburg (University of Music and Theater Hamburg, Germany) in the cello class of Prof. Wolfgang Mehlhorn.

Track List:
Suite No. 1 en Do mayor BWV 1007
01 - I. Prélude
02 - II. Allemande
03 - III. Courante
04 - IV. Sarabande
05 - V. Menuett I\II
06 - VI. Gigue

Suite No. 2 en Re menor BWV 1008
07 - I. Prélude
08 - II. Allemande
09 - III. Courante
10 - IV. Sarabande
11 - V. Menuett I\II
12 - VI. Gigue

Suite No. 3 en Do mayor BWV 1009
08 - I. Prélude
09 - II. Allemande
10 - III. Courante
11 - IV. Sarabande
12 - V. Bourrée I\II
13 - VI. Gigue

Fernando Gentile - Johann Sebastian Bach: Suites A Violoncello Solo Senza Basso BWV 1007, 1008 & 1009 (2010)

Exact Audio Copy V1.3 from 2. September 2016

EAC extraction logfile from 25. September 2017, 8:14

Fernando Gentile / Suites a Violoncello Solo Senza Basso BWV 1007, 1008 & 1009

Used drive : HL-DT-STDVDRAM GH22NS70 Adapter: 1 ID: 0

Read mode : Secure
Utilize accurate stream : Yes
Defeat audio cache : Yes
Make use of C2 pointers : No

Read offset correction : 667
Overread into Lead-In and Lead-Out : No
Fill up missing offset samples with silence : Yes
Delete leading and trailing silent blocks : No
Null samples used in CRC calculations : Yes
Used interface : Native Win32 interface for Win NT & 2000

Used output format : Internal WAV Routines
Sample format : 44.100 Hz; 16 Bit; Stereo


TOC of the extracted CD

Track | Start | Length | Start sector | End sector
––––––––––––––––––––––––––––-
1 | 0:00.00 | 2:01.58 | 0 | 9132
2 | 2:01.58 | 3:40.20 | 9133 | 25652
3 | 5:42.03 | 2:37.01 | 25653 | 37428
4 | 8:19.04 | 2:41.71 | 37429 | 49574
5 | 11:01.00 | 3:01.26 | 49575 | 63175
6 | 14:02.26 | 1:51.26 | 63176 | 71526
7 | 15:53.52 | 3:15.10 | 71527 | 86161
8 | 19:08.62 | 2:54.56 | 86162 | 99267
9 | 22:03.43 | 2:03.31 | 99268 | 108523
10 | 24:06.74 | 4:00.74 | 108524 | 126597
11 | 28:07.73 | 2:48.23 | 126598 | 139220
12 | 30:56.21 | 2:31.04 | 139221 | 150549
13 | 33:27.25 | 2:54.45 | 150550 | 163644
14 | 36:21.70 | 3:43.24 | 163645 | 180393
15 | 40:05.19 | 2:38.49 | 180394 | 192292
16 | 42:43.68 | 3:49.29 | 192293 | 209496
17 | 46:33.22 | 3:47.70 | 209497 | 226591
18 | 50:21.17 | 3:07.06 | 226592 | 240622


Range status and errors

Selected range

Filename D:\Temp\Fernando Gentile - Suites a Violoncello Solo Senza Basso BWV 1007, 1008 & 1009.wav

Peak level 82.7 %
Extraction speed 1.8 X
Range quality 100.0 %
Copy CRC D1AB824F
Copy OK

No errors occurred


AccurateRip summary

Track 1 not present in database
Track 2 not present in database
Track 3 not present in database
Track 4 not present in database
Track 5 not present in database
Track 6 not present in database
Track 7 not present in database
Track 8 not present in database
Track 9 not present in database
Track 10 not present in database
Track 11 not present in database
Track 12 not present in database
Track 13 not present in database
Track 14 not present in database
Track 15 not present in database
Track 16 not present in database
Track 17 not present in database
Track 18 not present in database

None of the tracks are present in the AccurateRip database

End of status report

–– CUETools DB Plugin V2.1.6

[CTDB TOCID: pblV5FzHJQDH_un2Z5aCtVY86K0-] found
Submit result: already submitted
Track | CTDB Status
1 | (1/1) Accurately ripped
2 | (1/1) Accurately ripped
3 | (1/1) Accurately ripped
4 | (1/1) Accurately ripped
5 | (1/1) Accurately ripped
6 | (1/1) Accurately ripped
7 | (1/1) Accurately ripped
8 | (1/1) Accurately ripped
9 | (1/1) Accurately ripped
10 | (1/1) Accurately ripped
11 | (1/1) Accurately ripped
12 | (1/1) Accurately ripped
13 | (1/1) Accurately ripped
14 | (1/1) Accurately ripped
15 | (1/1) Accurately ripped
16 | (1/1) Accurately ripped
17 | (1/1) Accurately ripped
18 | (1/1) Accurately ripped


==== Log checksum 037D90A18A85552FB7DF7F02D7D5243B97CB350320652085EBF62D1B4F1B3B99 ====

All thanks go to the mosaiques

More Music in My Blog
Follow My RSS Channel