Tags
Language
Tags

Franco Ambrosetti Band - Lost Within You (2021)

Posted By: Domestos
Franco Ambrosetti Band - Lost Within You (2021)

Franco Ambrosetti Band - Lost Within You (2021)
EAC Rip | FLAC (tracks+.cue, log) ~ 314.20 Mb | MP3 CBR 320kbps ~ 166.91 Mb | 01:12:48 | Covers
Post-Bop, Contemporary Jazz | Label: Unit Records - UTR 4970

Swiss trumpeter / flugelhorninst Franco Ambrosetti opens his Lost Within You with "Peace," from the pen of pianist Horace Silver. The original rendition comes from Silver's Blowin' The Blues Away (Blue Note, 1959). It was a composition that Silver stumbled upon when he was "doodling around on the piano, and it just came to me." It featured Blue Mitchell's characteristically brassy trumpet tone. It was unusual in the Silver songbook—an introspective, patiently deployed ballad, instead of the normal hard-charging, romps that dominate his music.

Ambrosetti's take on the tune is time-stands-still gorgeous. His tone is softer and warmer than Mitchell's; Jack DeJohnette opens on a silky teardrop splatter of piano notes before he ruminates with soft chords. And yes, it is that Jack DeJohnette, drummer in Keith Jarrett's Standards Trio, and pianist / drummer on numerous recordings of his own; he plays drums elsewhere on the rest of Lost Within You.

Then Ambrosetti blows in, his horn sounding as if it is made of 24 carat gold. He steps back for guitarist John Scofield's crisp, understated solo that rides the cushioning flow of bassist Scott Colley's timekeeping. The tune is a ten minute jewel that sets a template of consistent cohesion throughout the seventy-four minute set of spacious balladry and unrelenting beauty, including the soul searching melancholy of Cy Coleman and Joseph McCarthy's "I'm Gonna Laugh You Right Out Of My Life," Dave Grusin's poignant "Love Like Ours," and a wandering take on the familiar touchstone "Body And Soul."

sits in at the keyboard on five tunes and Uri Caine plays on three more, making the recording as all-star an affair as it can be, one that somehow manages to achieve that "whole rising above the sum of the parts" sound—and that sum is substantial—from start to finish. Both "Body And Soul'' and the Miles Davis / Bill Evans-penned "Flamenco Sketches" take on masterpiece-like proportions, with ensemble interplay both edgy and elegant for the former, and tone poem-ish and mysteriously, gently boundary-pushing on the latter, featuring Ambrosetti's horn at its most impassioned, with Rosnes' piano solo sounding as if it was composed on another planet, a place of serene, color drenched landscapes and flowering vegetation, a world with a sense of beauty parallel to but foreign to ours.

This relaxed, "savor the moment" set of tunes also includes three Ambrossetti-penned gems, including the vivacious "Silli In the Sky" and the wistful "Dreams Of A Butterfly." The set closes with pianist McCoy Tyner's "You Taught My Heart To Sing," Ambrosetti's horn brimming with gratitude, the group slipping into an easy swing on Scofield's solo—an unhurried sound exuding a genuine feel for the unquestionable relevance of our "right now" temporal existence. ~ BY DAN MCCLENAGHAN



Track List:
01. Peace (Silver) - 10:36
02. I'm Gonna Laugh You Right Outta My Life (Coleman-McCarthy) - 7:13
03. Silli in the Sky (Ambrosetti) - 6:52
04. Love Like Ours (Bergman-Bergman-Grusin) - 7:35
05. Dreams of a Butterfly (Ambrosetti) - 6:56
06. Body and Soul (Green-Heyman-Sour-Eyton) - 11:26
07. People Time (Carter) - 7:20
08. Flamenco Sketches (Davis-Evans) - 7:43
09. You Taught My Heart to Sing (Tyner) - 7:07

Franco Ambrosetti - trumpet, flugelhorn
John Scofield - guitar
Renee Rosnes (#2-4,8,9), Uri Caine (#5-7) - piano
Scott Colley - bass
Jack DeJohnette - drums, piano (#1)

Recorded at Sear Sound Studios, New York on January 22-24, 2020.

Franco Ambrosetti Band - Lost Within You (2021)

Exact Audio Copy V1.6 from 23. October 2020

EAC extraction logfile from 15. November 2021, 21:57

Franco Ambrosetti Band / Lost Within You

Used drive : HL-DT-STDVDRAM GP65NB60 Adapter: 1 ID: 0

Read mode : Secure
Utilize accurate stream : Yes
Defeat audio cache : Yes
Make use of C2 pointers : No

Read offset correction : 6
Overread into Lead-In and Lead-Out : No
Fill up missing offset samples with silence : Yes
Delete leading and trailing silent blocks : No
Null samples used in CRC calculations : Yes
Used interface : Native Win32 interface for Win NT & 2000
Gap handling : Appended to previous track

Used output format : User Defined Encoder
Selected bitrate : 1024 kBit/s
Quality : High
Add ID3 tag : No
Command line compressor : C:\Program Files (x86)\Exact Audio Copy\Flac\flac.exe
Additional command line options : -8 -V -T "ARTIST=%artist%" -T "TITLE=%title%" -T "ALBUM=%albumtitle%" -T "DATE=%year%" -T "TRACKNUMBER=%tracknr%" -T "GENRE=%genre%" -T "PERFORMER=%albuminterpret%" -T "COMPOSER=%composer%" -T "ALBUMARTIST=%albumartist%" -T "DISCNUMBER=%cdnumber%" -T "TOTALDISCS=%totalcds%" -T "TOTALTRACKS=%numtracks%" -T "COMMENT=%comment%" %source% -o %dest%


TOC of the extracted CD

Track | Start | Length | Start sector | End sector
––––––––––––––––––––––––––––-
1 | 0:00.00 | 10:36.29 | 0 | 47728
2 | 10:36.29 | 7:12.46 | 47729 | 80174
3 | 17:49.00 | 6:52.13 | 80175 | 111087
4 | 24:41.13 | 7:35.00 | 111088 | 145212
5 | 32:16.13 | 6:56.33 | 145213 | 176445
6 | 39:12.46 | 11:25.67 | 176446 | 227887
7 | 50:38.38 | 7:19.45 | 227888 | 260857
8 | 57:58.08 | 7:42.38 | 260858 | 295545
9 | 65:40.46 | 7:07.05 | 295546 | 327575


Track 1

Filename D:\EAC Rips\Franco Ambrosetti Band - Lost Within You (2021) {UTR 4970} [CD FLAC]\01 - Peace.wav

Pre-gap length 0:00:02.00

Peak level 97.9 %
Extraction speed 1.4 X
Track quality 100.0 %
Test CRC B49F3B7E
Copy CRC B49F3B7E
Accurately ripped (confidence 1) [F62FD118] (AR v2)
Copy OK

Track 2

Filename D:\EAC Rips\Franco Ambrosetti Band - Lost Within You (2021) {UTR 4970} [CD FLAC]\02 - I'm Gonna Laugh You Right Outta My Life.wav

Peak level 97.9 %
Extraction speed 1.6 X
Track quality 100.0 %
Test CRC FBC5C530
Copy CRC FBC5C530
Accurately ripped (confidence 1) [71DA2B70] (AR v2)
Copy OK

Track 3

Filename D:\EAC Rips\Franco Ambrosetti Band - Lost Within You (2021) {UTR 4970} [CD FLAC]\03 - Silli In The Sky.wav

Peak level 98.3 %
Extraction speed 1.0 X
Track quality 99.8 %
Test CRC F29BB731
Copy CRC F29BB731
Accurately ripped (confidence 1) [8F34B1A5] (AR v2)
Copy OK

Track 4

Filename D:\EAC Rips\Franco Ambrosetti Band - Lost Within You (2021) {UTR 4970} [CD FLAC]\04 - Love Like Ours.wav

Pre-gap length 0:00:01.01

Peak level 98.0 %
Extraction speed 2.0 X
Track quality 100.0 %
Test CRC BB462470
Copy CRC BB462470
Accurately ripped (confidence 1) [EA399914] (AR v2)
Copy OK

Track 5

Filename D:\EAC Rips\Franco Ambrosetti Band - Lost Within You (2021) {UTR 4970} [CD FLAC]\05 - Dreams Of A Butterfly.wav

Peak level 98.1 %
Extraction speed 2.1 X
Track quality 100.0 %
Test CRC 4323DFC5
Copy CRC 4323DFC5
Accurately ripped (confidence 1) [69417916] (AR v2)
Copy OK

Track 6

Filename D:\EAC Rips\Franco Ambrosetti Band - Lost Within You (2021) {UTR 4970} [CD FLAC]\06 - Body And Soul.wav

Peak level 99.6 %
Extraction speed 2.2 X
Track quality 99.9 %
Test CRC DC459712
Copy CRC DC459712
Accurately ripped (confidence 1) [DBD84020] (AR v2)
Copy OK

Track 7

Filename D:\EAC Rips\Franco Ambrosetti Band - Lost Within You (2021) {UTR 4970} [CD FLAC]\07 - People Time.wav

Peak level 98.0 %
Extraction speed 2.4 X
Track quality 100.0 %
Test CRC 02A15AC5
Copy CRC 02A15AC5
Accurately ripped (confidence 1) [84D0F0F6] (AR v2)
Copy OK

Track 8

Filename D:\EAC Rips\Franco Ambrosetti Band - Lost Within You (2021) {UTR 4970} [CD FLAC]\08 - Flamenco Sketches.wav

Pre-gap length 0:00:00.96

Peak level 99.6 %
Extraction speed 2.6 X
Track quality 100.0 %
Test CRC 570A65CC
Copy CRC 570A65CC
Accurately ripped (confidence 1) [CDF1CFCA] (AR v2)
Copy OK

Track 9

Filename D:\EAC Rips\Franco Ambrosetti Band - Lost Within You (2021) {UTR 4970} [CD FLAC]\09 - You Taught My Heart To Sing.wav

Peak level 98.4 %
Extraction speed 2.7 X
Track quality 100.0 %
Test CRC A127FB58
Copy CRC A127FB58
Accurately ripped (confidence 1) [0785A345] (AR v2)
Copy OK


All tracks accurately ripped

No errors occurred

End of status report

–– CUETools DB Plugin V2.1.6

[CTDB TOCID: CaBdUn_h79cY9pxeivjRoZRAR_I-] found
Submit result: CaBdUn_h79cY9pxeivjRoZRAR_I- has been confirmed
Track | CTDB Status
1 | (9/9) Accurately ripped
2 | (9/9) Accurately ripped
3 | (9/9) Accurately ripped
4 | (9/9) Accurately ripped
5 | (9/9) Accurately ripped
6 | (9/9) Accurately ripped
7 | (9/9) Accurately ripped
8 | (9/9) Accurately ripped
9 | (9/9) Accurately ripped


==== Log checksum 35876889F477BECD5DE7B1DD8580DD948DB5A569FF636C5E433E9910E2D18FB8 ====

All thanks go to the turbomandoll

More Music in My Blog
Follow My RSS Channel