Subcategories
Tags
Language
Tags

Franco Battiato - Giubbe Rosse (30th Anniversary Remastered Edition) (1989/2020)

Posted By: delpotro
Franco Battiato - Giubbe Rosse (30th Anniversary Remastered Edition) (1989/2020)

Franco Battiato - Giubbe Rosse (30th Anniversary Remastered Edition) (1989/2020)
EAC Rip | FLAC (tracks+log+.cue) | 01:15:00 | Covers included | 495 Mb
Pop Rock, Progressive Rock | Label: Universal Music

The album collects recordings of the winter section of the Fisiognomica Tour in the theaters of Italy, France and Spain, with songs that span the entire career of the Sicilian singer-songwriter (excluding the sixties), from experimentation to the pop period.


Non essendo riportato il nome di Battiato sul fronte copertina (c'è scritto "La EMI italiana è abbastanza lieta di presentare il primo album dal vivo del cantautore siciliano"), per non confondere l'acquirente venne applicato sul cellophane esterno un adesivo rosso che chiariva la paternità dell'album.

La traccia Giubbe rosse è inedita e presente in versione studio.

Il brano Alexander Platz, composto nel 1978 per Alfredo Cohen, venne portato al successo da Milva nel 1981. Nella versione qui presentata, partecipa ai cori Giuni Russo.

Lettera al governatore della Libia è cantata in duetto con Giuni Russo, interprete originale del brano, all'interno dell'album Energie (1981).

Mesopotamia è una versione leggermente modificata del brano Che cosa resterà di me scritta da Battiato per l'album Dalla/Morandi (1988) di Lucio Dalla e Gianni Morandi, e cantata da quest'ultimo. Era già stata pubblicata nella versione spagnola di Fisiognomica, uscita l'anno prima.
Tracklist:
1. Giubbe Rosse (04:16)
2. Alexander Platz (03:22)
3. Lettera Al Governatore Della Libia (03:15)
4. Mesopotamia (04:24)
5. L'Era Del Cinghiale Bianco (03:35)
6. Un'Altra Vita (02:58)
7. Voglio Vederti Danzare (03:23)
8. Oceano Di Silenzio (04:11)
9. Sequenze E Frequenze (07:06)
10. Aria Di Rivoluzione (03:33)
11. No U Turn (02:22)
12. Summer On A Solitary Beach (03:30)
13. Cuccurucucu (02:55)
14. Centro Di Gravità Permanente (03:51)
15. Gli Uccelli (04:44)
16. E Ti Vengo A Cercare (03:49)
17. Casaca Roja (04:16)
18. Alexander Platz (03:23)
19. Carta Al Gobernador De Libia (03:26)

Exact Audio Copy V1.3 from 2. September 2016

EAC extraction logfile from 21. March 2020, 14:56

Franco Battiato / Giubbe Rosse - 30th Anniversary Remastered Edition

Used drive : ASUS BC-12D2HT Adapter: 0 ID: 0

Read mode : Secure
Utilize accurate stream : Yes
Defeat audio cache : Yes
Make use of C2 pointers : No

Read offset correction : 6
Overread into Lead-In and Lead-Out : No
Fill up missing offset samples with silence : Yes
Delete leading and trailing silent blocks : No
Null samples used in CRC calculations : Yes
Used interface : Installed external ASPI interface
Gap handling : Appended to previous track

Used output format : User Defined Encoder
Selected bitrate : 1024 kBit/s
Quality : High
Add ID3 tag : No
Command line compressor : C:\Program Files (x86)\Exact Audio Copy\FLAC\FLAC.EXE
Additional command line options : -8 -V -T "Artist=%artist%" -T "Title=%title%" -T "Album=%albumtitle%" -T "DATE=%year%" -T "TRACKNUMBER=%tracknr%" -T "Genre=%genre%" -T "ALBUMARTIST=%albumartist%" -T "ALBUM ARTIST=%albumartist%" -T "COMMENT=EAC Secure Mode, Test & Copy, AccurateRip, FLAC -8" %source%


TOC of the extracted CD

Track | Start | Length | Start sector | End sector
––––––––––––––––––––––––––––-
1 | 0:00.00 | 4:14.37 | 0 | 19086
2 | 4:14.37 | 3:23.48 | 19087 | 34359
3 | 7:38.10 | 3:26.32 | 34360 | 49841
4 | 11:04.42 | 4:23.20 | 49842 | 69586
5 | 15:27.62 | 3:38.20 | 69587 | 85956
6 | 19:06.07 | 3:00.32 | 85957 | 99488
7 | 22:06.39 | 3:24.63 | 99489 | 114851
8 | 25:31.27 | 4:25.22 | 114852 | 134748
9 | 29:56.49 | 7:05.09 | 134749 | 166632
10 | 37:01.58 | 3:34.17 | 166633 | 182699
11 | 40:36.00 | 4:24.21 | 182700 | 202520
12 | 45:00.21 | 3:30.61 | 202521 | 218331
13 | 48:31.07 | 2:58.38 | 218332 | 231719
14 | 51:29.45 | 3:53.28 | 231720 | 249222
15 | 55:22.73 | 4:43.42 | 249223 | 270489
16 | 60:06.40 | 3:58.19 | 270490 | 288358
17 | 64:04.59 | 4:16.52 | 288359 | 307610
18 | 68:21.36 | 3:20.41 | 307611 | 322651
19 | 71:42.02 | 3:17.73 | 322652 | 337499


Track 1

Filename C:\EAC\01. Franco Battiato - Giubbe rosse.wav

Pre-gap length 0:00:02.00

Peak level 96.2 %
Extraction speed 4.6 X
Track quality 100.0 %
Test CRC 798A5C52
Copy CRC 798A5C52
Track not present in AccurateRip database
Copy OK

Track 2

Filename C:\EAC\02. Franco Battiato - Alexander Platz - Live @ Teatro Lirico, Milano 1988.wav

Peak level 96.2 %
Extraction speed 4.9 X
Track quality 100.0 %
Test CRC D1BF8807
Copy CRC D1BF8807
Track not present in AccurateRip database
Copy OK

Track 3

Filename C:\EAC\03. Franco Battiato Featuring Giuni Russo - Lettera al governatore della Libia - Live @ Teatro Lirico, Milano 1988.wav

Peak level 96.2 %
Extraction speed 5.2 X
Track quality 100.0 %
Test CRC 8107EB79
Copy CRC 8107EB79
Track not present in AccurateRip database
Copy OK

Track 4

Filename C:\EAC\04. Franco Battiato - Mesopotamia - Live @ Theatre de la Ville, Paris 1988.wav

Peak level 96.2 %
Extraction speed 4.8 X
Track quality 99.9 %
Test CRC 4F6AC038
Copy CRC 4F6AC038
Track not present in AccurateRip database
Copy OK

Track 5

Filename C:\EAC\05. Franco Battiato - L'era del cinghiale bianco - Live @ Teatro Lirico, Milano 1988.wav

Pre-gap length 0:00:00.21

Peak level 96.2 %
Extraction speed 5.9 X
Track quality 100.0 %
Test CRC 80698A73
Copy CRC 80698A73
Track not present in AccurateRip database
Copy OK

Track 6

Filename C:\EAC\06. Franco Battiato - Un'altra vita - Live @ Alcalà Palace, Madrid 1988.wav

Pre-gap length 0:00:00.42

Peak level 96.2 %
Extraction speed 6.0 X
Track quality 100.0 %
Test CRC A7B9F8AB
Copy CRC A7B9F8AB
Track not present in AccurateRip database
Copy OK

Track 7

Filename C:\EAC\07. Franco Battiato - Voglio vederti danzare - Live @ Theatre de la Ville, Paris 1988.wav

Pre-gap length 0:00:00.10

Peak level 96.2 %
Extraction speed 5.1 X
Track quality 99.9 %
Test CRC 9C71871C
Copy CRC 9C71871C
Track not present in AccurateRip database
Copy OK

Track 8

Filename C:\EAC\08. Franco Battiato - Oceano di silenzio - Live @ Theatre de la Ville, Paris 1988.wav

Pre-gap length 0:00:00.20

Peak level 96.2 %
Extraction speed 5.8 X
Track quality 99.9 %
Test CRC B753B654
Copy CRC B753B654
Track not present in AccurateRip database
Copy OK

Track 9

Filename C:\EAC\09. Franco Battiato - Sequenze e frequenze - Live @ Alacalà Palace, Madrid 1988.wav

Pre-gap length 0:00:00.17

Peak level 96.2 %
Extraction speed 7.5 X
Track quality 100.0 %
Test CRC 2B88BA30
Copy CRC 2B88BA30
Track not present in AccurateRip database
Copy OK

Track 10

Filename C:\EAC\10. Franco Battiato - Aria di rivoluzione - Live @ Theatre de la Ville, Paris 1988.wav

Peak level 96.2 %
Extraction speed 7.4 X
Track quality 100.0 %
Test CRC C82D7515
Copy CRC C82D7515
Track not present in AccurateRip database
Copy OK

Track 11

Filename C:\EAC\11. Franco Battiato - No u turn - Live @ Theatre de la Ville, Paris 1988.wav

Peak level 96.2 %
Extraction speed 6.6 X
Track quality 99.9 %
Test CRC D529F746
Copy CRC D529F746
Track not present in AccurateRip database
Copy OK

Track 12

Filename C:\EAC\12. Franco Battiato - Summer on a solitary beach - Live @Alcalà Palace, Madrid 1988.wav

Pre-gap length 0:00:00.14

Peak level 96.2 %
Extraction speed 6.3 X
Track quality 99.9 %
Test CRC 90A7C8F4
Copy CRC 90A7C8F4
Track not present in AccurateRip database
Copy OK

Track 13

Filename C:\EAC\13. Franco Battiato - Cuccurucucù - Live @ Teatro Lirico, Milano 1988.wav

Peak level 96.2 %
Extraction speed 7.8 X
Track quality 100.0 %
Test CRC 2C44F508
Copy CRC 2C44F508
Track not present in AccurateRip database
Copy OK

Track 14

Filename C:\EAC\14. Franco Battiato - Centro di gravità permanente - Live @ Teatro Lirico, Milano 1988.wav

Peak level 96.2 %
Extraction speed 6.9 X
Track quality 99.9 %
Test CRC 94287838
Copy CRC 94287838
Track not present in AccurateRip database
Copy OK

Track 15

Filename C:\EAC\15. Franco Battiato - Gli uccelli - Live @ Teatro Lirico, Milano 1988.wav

Peak level 96.2 %
Extraction speed 8.6 X
Track quality 100.0 %
Test CRC 0BF1FCA5
Copy CRC 0BF1FCA5
Track not present in AccurateRip database
Copy OK

Track 16

Filename C:\EAC\16. Franco Battiato - E ti vengo a cercare - Live @ Teatro Lirico, Milano 1988.wav

Pre-gap length 0:00:00.25

Peak level 96.2 %
Extraction speed 8.7 X
Track quality 100.0 %
Test CRC 7574D99A
Copy CRC 7574D99A
Track not present in AccurateRip database
Copy OK

Track 17

Filename C:\EAC\17. Franco Battiato - Casaca roja - Bonus track.wav

Pre-gap length 0:00:01.12

Peak level 96.2 %
Extraction speed 9.0 X
Track quality 100.0 %
Test CRC E46BA0AE
Copy CRC E46BA0AE
Track not present in AccurateRip database
Copy OK

Track 18

Filename C:\EAC\18. Franco Battiato - Alexander Platz - Spanish Version - Live @ Alcalà Palace, Madrid 1988 - Bonus track.wav

Pre-gap length 0:00:00.05

Peak level 96.2 %
Extraction speed 8.7 X
Track quality 100.0 %
Test CRC 6A983889
Copy CRC 6A983889
Track not present in AccurateRip database
Copy OK

Track 19

Filename C:\EAC\19. Franco Battiato - Carta al gobernator de Libia - Live @ Alcalà Palace, Madrid 1988 - Bonus track.wav

Pre-gap length 0:00:00.66

Peak level 96.2 %
Extraction speed 8.9 X
Track quality 100.0 %
Test CRC E91F43E3
Copy CRC E91F43E3
Track not present in AccurateRip database
Copy OK


None of the tracks are present in the AccurateRip database

No errors occurred

End of status report

–– CUETools DB Plugin V2.1.6

[CTDB TOCID: nFl1HpE_J_DssXL24zXz6OwQD40-] found
Submit result: nFl1HpE_J_DssXL24zXz6OwQD40- has been confirmed
Track | CTDB Status
1 | (1/1) Accurately ripped
2 | (1/1) Accurately ripped
3 | (1/1) Accurately ripped
4 | (1/1) Accurately ripped
5 | (1/1) Accurately ripped
6 | (1/1) Accurately ripped
7 | (1/1) Accurately ripped
8 | (1/1) Accurately ripped
9 | (1/1) Accurately ripped
10 | (1/1) Accurately ripped
11 | (1/1) Accurately ripped
12 | (1/1) Accurately ripped
13 | (1/1) Accurately ripped
14 | (1/1) Accurately ripped
15 | (1/1) Accurately ripped
16 | (1/1) Accurately ripped
17 | (1/1) Accurately ripped
18 | (1/1) Accurately ripped
19 | (1/1) Accurately ripped


==== Log checksum C57818779BA4A8F7C40F5BAF459DE41046DF6653F526E9DAE7224DEFFE5DA66F ====

Thanks to the Original ripper !