Tags
Language
Tags
November 2022
Su Mo Tu We Th Fr Sa
30 31 1 2 3 4 5
6 7 8 9 10 11 12
13 14 15 16 17 18 19
20 21 22 23 24 25 26
27 28 29 30 1 2 3

Freddie Hubbard - Anthology: The Soul-Jazz and Fusion Years 66-82 (2002) {2CD Soul Brother Records CD SBPJ 10 D}

Posted By: ruskaval
Freddie Hubbard - Anthology: The Soul-Jazz and Fusion Years 66-82 (2002) {2CD Soul Brother Records CD SBPJ 10 D}

Freddie Hubbard - Anthology: The Soul-Jazz and Fusion Years 66-82 (2002) {2CD Soul Brother Records CD SBPJ 10 D}
EAC rip (secure mode) | FLAC (tracks)+CUE+LOG -> 0.99 Gb | MP3 @320 -> 365 Mb
Full Artwork @ 300 dpi (jpg) -> 26 Mb | 5% repair rar
© 1966-82, 2002 Soul Brother Records / Passion Music | CD SBPJ 10 D
Jazz / Soul Jazz / Jazz Funk / Fusion / Trumpet / Flugelhorn

This collection on the U.K.'s Soul Brother imprint is a very compelling look at a big slice of Freddie Hubbard's long career as a leader, and one that gets ignored for the most part. Hubbard recorded over 20 records between Backlash, his Atlantic debut in 1966, and Ride Like the Wind for Elektra in 1982, with lengthy stops at Columbia and CTI (as well some straight hard bop and post-bop outings for labels Fantasy and Pablo). In many cases, some of these original recordings were not only disregarded by more traditional jazzheads, they were regarded with outright hostility. It didn't matter to Hubbard, however, because at the time, these were among his best-selling albums and connected with the public deeply.

This 18-cut set leaves out the straighter jazz albums and his dates as a sideman – there were dozens – in favor of Hubbard's long sojourn into soul-jazz, fusion, and jazz-funk. The early soul-jazz sides on Atlantic are represented by a pair of cuts from Backlash and one each from High Blues Pressure and A Soul Experiment, before moving into his years with Creed Taylor. These years contain classics such as the title jams from Red Clay and First Light, but they go deeper and get stranger – as well as more cosmic – with the inclusion of tracks like "Povo," a wild reading of "People Make the World Go Around," and "Spirits of Trane" from Polar AC and Keep Your Soul Together. Disc two also includes far funkier jams such as "Baraka Sasa" and "Kuntu" from High Energy and Liquid Love, respectively. There are certainly albums left out from this period, even those that followed the grooved-out dictums of the tracks included, but it hardly matters since what is presented here is the best of the best, even following Hubbard's trail all the way down to albums like Splash and Born to Be Blue. In other words, this is a great introduction to the music of Hubbard after his initial Blue Note period and before he returned to his hard bop roots in the middle of the 1980s. In fact, the only thing that would surpass this set is owning the albums these tunes were culled from.
Freddie Hubbard - Anthology: The Soul-Jazz and Fusion Years 66-82 (2002) {2CD Soul Brother Records CD SBPJ 10 D}


Personnel:
Wayne Andre Trombone
Otis Ray Appleton Drums
Ray Barretto Percussion
Kenny Barron Piano, Piano (Electric)
Rubens Bassini Percussion
Thom Bell Composer
George Benson Guitar
Walter Bishop, Jr. Composer
Oscar Brashear Trumpet
Kent Brinkley Bass
Garnett Brown Trombone
Carl Burnett Drums
George Cables Clavinet, Composer, Piano, Piano (Electric), String Ensemble
Hadley Caliman Flute, Sax (Tenor)
Billy Childs Trio Keyboards
Buck Clarke Percussion
Billy Cobham Drums
Buddy Collette Flute, Sax (Tenor)
Junior Cook Flute, Sax (Tenor)
Chick Corea Keyboards
Mayuto Correa Percussion
Linda Creed Composer
Bob Cunningham Bass
Jack DeJohnette Drums
Chuck Domanico Bass
Joel Dorn Producer
Joe Farrell Flute, Sax (Tenor)
Paul Faulise Trombone (Bass)
Chuck Findley Trumpet
Henry Franklin Bass (Acoustic), Bass (Electric)
Gil Fuller Producer
Carlos Garnett Sax (Tenor)
Herbie Hancock Piano
Louis Hayes Drums
Steve Houghton Drums
Freddie Hubbard Composer, Flugelhorn, Producer, Trumpet
Dick Hyde Trombone
Gary Illingworth Organ
Al Jarreau Composer, Vocals
Keith Jarrett Piano, Piano (Electric)
Howard Johnson Tuba
Wally Kane Clarinet (Bass), Piccolo
Larry Klein Bass, Bass (Acoustic), Bass (Electric)
Phil Kraus Vibraphone
Harold Land Sax (Tenor)
Hubert Laws Flute, Soloist
Herbie Lewis Bass
Steve Madaio Trumpet
Arif Mardin Producer
George Marge Clarinet, Clarinet (Bass), Flute
Bennie Maupin Flute, Sax (Tenor)
Airto Moreira Percussion
Claus Ogerman Producer
Harold Ousley Composer
Ralph Penland Drums
Romeo Penque Clarinet, Flute, Horn (English), Oboe
Carl Randall, Jr. Flute, Sax (Tenor)
Phil Ranelin Trombone
Aurell Ray Guitar
Paul Rothchild Producer
Alan Rubin Flugelhorn, Trumpet
Jumma Santos Percussion
Tom Scott Flute, Sax (Tenor)
James Spaulding Flute, Sax (Alto), Soloist
Marvin Stamm Flugelhorn, Trumpet
Grady Tate Drums
Creed Taylor Producer
Phil Teele Trombone
Chester Thompson Drums
Ian Underwood Moog Synthesizer
Carlos "Patato" Valdes Conga, Maracas
Freddie Waits Drums
Ernie Watts Flute, Sax (Tenor)
Lenny White Drums
Reggie Workman Bass
Richard Wyands Piano
Snooky Young Trumpet
Kiane Zawadi Trombone

Freddie Hubbard - Anthology: The Soul-Jazz and Fusion Years 66-82 (2002) {2CD Soul Brother Records CD SBPJ 10 D}


tracklist:
CD1

01 - Return Of The Prodigal Son
02 - Little Sunflower (Original)
03 - Latina
04 - Soul Turnaround
05 - Gittin' Down
06 - Red Clay
07 - First Light
08 - People Make The World Go Around
09 - Spirits Of Trane
10 - Keep Your Soul Together

Freddie Hubbard - Anthology: The Soul-Jazz and Fusion Years 66-82 (2002) {2CD Soul Brother Records CD SBPJ 10 D}


CD2
01 - Povo
02 - Baraka Sasa
03 - Ebony Moonbeams
04 - Kuntu
05 - Liquid Love
06 - Little Sunflower (with Al Jarreau)
07 - Happines Is Now
08 - Gibraltar

Freddie Hubbard - Anthology: The Soul-Jazz and Fusion Years 66-82 (2002) {2CD Soul Brother Records CD SBPJ 10 D}


Exact Audio Copy V1.0 beta 1 from 15. November 2010

EAC extraction logfile from 11. February 2011, 16:20

Freddie Hubbard / Anthology: The Soul-Jazz And Fusion Years 66-82 (CD 1)

Used drive : TSSTcorpDVD+-RW TS-H653B Adapter: 0 ID: 1

Read mode : Secure
Utilize accurate stream : Yes
Defeat audio cache : Yes
Make use of C2 pointers : No

Read offset correction : 6
Overread into Lead-In and Lead-Out : No
Fill up missing offset samples with silence : Yes
Delete leading and trailing silent blocks : No
Null samples used in CRC calculations : Yes
Used interface : Native Win32 interface for Win NT & 2000
Gap handling : Appended to previous track

Used output format : User Defined Encoder
Selected bitrate : 768 kBit/s
Quality : High
Add ID3 tag : No
Command line compressor : C:\Program Files\Exact Audio Copy\FLAC\FLAC.EXE
Additional command line options : -8 -V -T "ARTIST=%a" -T "TITLE=%t" -T "ALBUM=%g" -T "DATE=%y" -T "TRACKNUMBER=%n" -T "TOTALTRACKS=%x" -T "GENRE=%m" -T "ALBUMARTIST=%v" -T "ALBUM ARTIST=%v" -T "COMMENT=EAC Secure Mode, Test & Copy, AccurateRip, FLAC -8" %s


TOC of the extracted CD

Track | Start | Length | Start sector | End sector
––––––––––––––––––––––––––––-
1 | 0:00.00 | 5:41.38 | 0 | 25612
2 | 5:41.38 | 7:51.35 | 25613 | 60972
3 | 13:32.73 | 4:47.36 | 60973 | 82533
4 | 18:20.34 | 4:01.19 | 82534 | 100627
5 | 22:21.53 | 6:41.07 | 100628 | 130709
6 | 29:02.60 | 12:11.43 | 130710 | 185577
7 | 41:14.28 | 11:07.65 | 185578 | 235667
8 | 52:22.18 | 5:54.17 | 235668 | 262234
9 | 58:16.35 | 9:08.73 | 262235 | 303407
10 | 67:25.33 | 9:52.62 | 303408 | 347869


Track 1

Filename C:\extract\16-44.1\Freddie Hubbard - Anthology - The Soul-Jazz And Fusion Years 66-82 (2002) [FLAC]\CD1\01 - Return Of The Prodigal Son.wav

Pre-gap length 0:00:02.00

Peak level 99.7 %
Extraction speed 5.3 X
Track quality 100.0 %
Test CRC 061B45CF
Copy CRC 061B45CF
Accurately ripped (confidence 1) [DB9C5767]
Copy OK

Track 2

Filename C:\extract\16-44.1\Freddie Hubbard - Anthology - The Soul-Jazz And Fusion Years 66-82 (2002) [FLAC]\CD1\02 - Little Sunflower (Original).wav

Pre-gap length 0:00:02.66

Peak level 99.7 %
Extraction speed 6.3 X
Track quality 100.0 %
Test CRC E7564434
Copy CRC E7564434
Accurately ripped (confidence 1) [03A93093]
Copy OK

Track 3

Filename C:\extract\16-44.1\Freddie Hubbard - Anthology - The Soul-Jazz And Fusion Years 66-82 (2002) [FLAC]\CD1\03 - Latina.wav

Pre-gap length 0:00:02.66

Peak level 70.6 %
Extraction speed 6.5 X
Track quality 100.0 %
Test CRC DEB86BA4
Copy CRC DEB86BA4
Accurately ripped (confidence 1) [0C2E54C2]
Copy OK

Track 4

Filename C:\extract\16-44.1\Freddie Hubbard - Anthology - The Soul-Jazz And Fusion Years 66-82 (2002) [FLAC]\CD1\04 - Soul Turnaround.wav

Pre-gap length 0:00:02.66

Peak level 88.8 %
Extraction speed 6.8 X
Track quality 100.0 %
Test CRC 41E42E04
Copy CRC 41E42E04
Accurately ripped (confidence 1) [C29E212B]
Copy OK

Track 5

Filename C:\extract\16-44.1\Freddie Hubbard - Anthology - The Soul-Jazz And Fusion Years 66-82 (2002) [FLAC]\CD1\05 - Gittin' Down.wav

Pre-gap length 0:00:02.66

Peak level 70.6 %
Extraction speed 7.7 X
Track quality 100.0 %
Test CRC 06C41E48
Copy CRC 06C41E48
Accurately ripped (confidence 1) [C0CB32B8]
Copy OK

Track 6

Filename C:\extract\16-44.1\Freddie Hubbard - Anthology - The Soul-Jazz And Fusion Years 66-82 (2002) [FLAC]\CD1\06 - Red Clay.wav

Pre-gap length 0:00:02.66

Peak level 99.7 %
Extraction speed 8.8 X
Track quality 100.0 %
Test CRC FC8830C8
Copy CRC FC8830C8
Accurately ripped (confidence 1) [244A39D9]
Copy OK

Track 7

Filename C:\extract\16-44.1\Freddie Hubbard - Anthology - The Soul-Jazz And Fusion Years 66-82 (2002) [FLAC]\CD1\07 - First Light.wav

Pre-gap length 0:00:02.66

Peak level 100.0 %
Extraction speed 9.6 X
Track quality 100.0 %
Test CRC 12D375DF
Copy CRC 12D375DF
Accurately ripped (confidence 1) [3CE92CBD]
Copy OK

Track 8

Filename C:\extract\16-44.1\Freddie Hubbard - Anthology - The Soul-Jazz And Fusion Years 66-82 (2002) [FLAC]\CD1\08 - People Make The World Go Around.wav

Pre-gap length 0:00:02.66

Peak level 99.7 %
Extraction speed 9.7 X
Track quality 100.0 %
Test CRC C318ECCD
Copy CRC C318ECCD
Accurately ripped (confidence 1) [FA965DAF]
Copy OK

Track 9

Filename C:\extract\16-44.1\Freddie Hubbard - Anthology - The Soul-Jazz And Fusion Years 66-82 (2002) [FLAC]\CD1\09 - Spirits Of Trane.wav

Pre-gap length 0:00:02.66

Peak level 74.7 %
Extraction speed 10.6 X
Track quality 100.0 %
Test CRC ADADF671
Copy CRC ADADF671
Accurately ripped (confidence 1) [FE527686]
Copy OK

Track 10

Filename C:\extract\16-44.1\Freddie Hubbard - Anthology - The Soul-Jazz And Fusion Years 66-82 (2002) [FLAC]\CD1\10 - Keep Your Soul Together.wav

Pre-gap length 0:00:02.66

Peak level 99.7 %
Extraction speed 11.2 X
Track quality 100.0 %
Test CRC 3F274F1D
Copy CRC 3F274F1D
Accurately ripped (confidence 1) [A4D1127F]
Copy OK


All tracks accurately ripped

No errors occurred

End of status report

==== Log checksum 4E6B958C8933C0350C0CEF386B18E83C1A7D92827C5E6CB9C1D45A43E5A7C41F ====

Exact Audio Copy V1.0 beta 1 from 15. November 2010

EAC extraction logfile from 11. February 2011, 14:51

Freddie Hubbard / Anthology: The Soul-Jazz And Fusion Years 66-82 (CD 2)

Used drive : TSSTcorpDVD+-RW TS-H653B Adapter: 0 ID: 1

Read mode : Secure
Utilize accurate stream : Yes
Defeat audio cache : Yes
Make use of C2 pointers : No

Read offset correction : 6
Overread into Lead-In and Lead-Out : No
Fill up missing offset samples with silence : Yes
Delete leading and trailing silent blocks : No
Null samples used in CRC calculations : Yes
Used interface : Native Win32 interface for Win NT & 2000
Gap handling : Appended to previous track

Used output format : User Defined Encoder
Selected bitrate : 768 kBit/s
Quality : High
Add ID3 tag : No
Command line compressor : C:\Program Files\Exact Audio Copy\FLAC\FLAC.EXE
Additional command line options : -8 -V -T "ARTIST=%a" -T "TITLE=%t" -T "ALBUM=%g" -T "DATE=%y" -T "TRACKNUMBER=%n" -T "TOTALTRACKS=%x" -T "GENRE=%m" -T "ALBUMARTIST=%v" -T "ALBUM ARTIST=%v" -T "COMMENT=EAC Secure Mode, Test & Copy, AccurateRip, FLAC -8" %s


TOC of the extracted CD

Track | Start | Length | Start sector | End sector
––––––––––––––––––––––––––––-
1 | 0:00.00 | 12:36.37 | 0 | 56736
2 | 12:36.37 | 10:31.06 | 56737 | 104067
3 | 23:07.43 | 7:02.31 | 104068 | 135748
4 | 30:09.74 | 13:20.28 | 135749 | 195776
5 | 43:30.27 | 5:50.10 | 195777 | 222036
6 | 49:20.37 | 9:21.17 | 222037 | 264128
7 | 58:41.54 | 7:55.32 | 264129 | 299785
8 | 66:37.11 | 12:12.37 | 299786 | 354722


Track 1

Filename C:\extract\16-44.1\Freddie Hubbard - Anthology - The Soul-Jazz And Fusion Years 66-82 (2002) [FLAC]\CD2\01 - Povo.wav

Pre-gap length 0:00:02.00

Peak level 79.2 %
Extraction speed 6.0 X
Track quality 100.0 %
Test CRC 3A272E72
Copy CRC 3A272E72
Accurately ripped (confidence 1) [87074B4A]
Copy OK

Track 2

Filename C:\extract\16-44.1\Freddie Hubbard - Anthology - The Soul-Jazz And Fusion Years 66-82 (2002) [FLAC]\CD2\02 - Baraka Sasa.wav

Pre-gap length 0:00:02.66

Peak level 100.0 %
Extraction speed 7.1 X
Track quality 100.0 %
Test CRC FBD76C8C
Copy CRC FBD76C8C
Accurately ripped (confidence 1) [95EA9196]
Copy OK

Track 3

Filename C:\extract\16-44.1\Freddie Hubbard - Anthology - The Soul-Jazz And Fusion Years 66-82 (2002) [FLAC]\CD2\03 - Ebony Moonbeams.wav

Pre-gap length 0:00:02.66

Peak level 100.0 %
Extraction speed 7.6 X
Track quality 100.0 %
Test CRC FBD27141
Copy CRC FBD27141
Accurately ripped (confidence 1) [D119AFF0]
Copy OK

Track 4

Filename C:\extract\16-44.1\Freddie Hubbard - Anthology - The Soul-Jazz And Fusion Years 66-82 (2002) [FLAC]\CD2\04 - Kuntu.wav

Pre-gap length 0:00:02.66

Peak level 99.7 %
Extraction speed 8.8 X
Track quality 100.0 %
Test CRC 1B5A3DCB
Copy CRC 1B5A3DCB
Accurately ripped (confidence 1) [2D3DE574]
Copy OK

Track 5

Filename C:\extract\16-44.1\Freddie Hubbard - Anthology - The Soul-Jazz And Fusion Years 66-82 (2002) [FLAC]\CD2\05 - Liquid Love.wav

Pre-gap length 0:00:02.66

Peak level 100.0 %
Extraction speed 8.9 X
Track quality 100.0 %
Test CRC 96AB2495
Copy CRC 96AB2495
Accurately ripped (confidence 1) [3A8DC9A4]
Copy OK

Track 6

Filename C:\extract\16-44.1\Freddie Hubbard - Anthology - The Soul-Jazz And Fusion Years 66-82 (2002) [FLAC]\CD2\06 - Little Sunflower (with Al Jarreau).wav

Pre-gap length 0:00:02.66

Peak level 74.7 %
Extraction speed 9.8 X
Track quality 100.0 %
Test CRC ECF649D6
Copy CRC ECF649D6
Accurately ripped (confidence 1) [0E6AD282]
Copy OK

Track 7

Filename C:\extract\16-44.1\Freddie Hubbard - Anthology - The Soul-Jazz And Fusion Years 66-82 (2002) [FLAC]\CD2\07 - Happines Is Now.wav

Pre-gap length 0:00:02.66

Peak level 99.7 %
Extraction speed 10.1 X
Track quality 100.0 %
Test CRC 39C00007
Copy CRC 39C00007
Accurately ripped (confidence 1) [3108EF73]
Copy OK

Track 8

Filename C:\extract\16-44.1\Freddie Hubbard - Anthology - The Soul-Jazz And Fusion Years 66-82 (2002) [FLAC]\CD2\08 - Gibraltar.wav

Pre-gap length 0:00:02.66

Peak level 99.7 %
Extraction speed 11.1 X
Track quality 100.0 %
Test CRC CD141337
Copy CRC CD141337
Accurately ripped (confidence 1) [B06E309A]
Copy OK


All tracks accurately ripped

No errors occurred

End of status report

==== Log checksum 31C4841A444E13E5698B4A02FC9BDA72AB543C7E69AAC233D64226D698D20B80 ====


Freddie Hubbard - Anthology: The Soul-Jazz and Fusion Years 66-82 (2002) {2CD Soul Brother Records CD SBPJ 10 D}


===