Tags
Language
Tags
April 2024
Su Mo Tu We Th Fr Sa
31 1 2 3 4 5 6
7 8 9 10 11 12 13
14 15 16 17 18 19 20
21 22 23 24 25 26 27
28 29 30 1 2 3 4

Friedrich Gulda - The Stuttgart Solo Recitals 1966-1979 (Remastered) (2019)

Posted By: delpotro
Friedrich Gulda - The Stuttgart Solo Recitals 1966-1979 (Remastered) (2019)

Friedrich Gulda - The Stuttgart Solo Recitals 1966-1979 (Remastered) (2019)
EAC Rip | FLAC (tracks+log+.cue) - 1,49 Gb | MP3 CBR 320 kbps - 1,01 Gb | Digital booklet | 07:20:00
Classical | Label: SWR Music

This is the first of four releases that feature the SWR recordings of Friedrich Gulda. All recordings on this album are being released here for the first time. The recording of the "Inner Circle" on album 7 is to date the only one of Guldas jazz ensemble. The series contains, among solo repertoire and concerts, also compositions by Freidrich Gulda himself. The whole series is thus an extensive documentation of Guldas music universe. Friedrich Gulda began his career in music studying at the Vienna Music Academy. He went on to win first prize at the 1946 Geneva International Music Competition, and made his Carnegie Hall debut in 1950. While most renowned for his Mozart and Beethoven interpretations, he is also remembered for his free improvisation and jazz interests.
Tracklist:
CD1
01. Piano Sonata No. 8 in C Minor, Op. 13 "Pathétique": I. Grave - Allegro di molto e con brio (Live)
02. Piano Sonata No. 8 in C Minor, Op. 13 "Pathétique": II. Adagio cantabile (Live)
03. Piano Sonata No. 8 in C Minor, Op. 13 "Pathétique": III. Rondo. Allegro (Live)
04. Piano Sonata No. 14 in C-Sharp Minor, Op. 27 No. 2 "Moonlight": I. Adagio sostenuto (Live)
05. Piano Sonata No. 14 in C-Sharp Minor, Op. 27 No. 2 "Moonlight": II. Allegretto (Live)
06. Piano Sonata No. 14 in C-Sharp Minor, Op. 27 No. 2 "Moonlight": III. Presto agitato (Live)
07. Piano Sonata No. 26 in E-Flat Major, Op. 81a "Les adieux": I. Das Lebewohl. Adagio - Allegro (Live)
08. Piano Sonata No. 26 in E-Flat Major, Op. 81a "Les adieux": II. Abwesenheit. Andante espressivo (Live)
09. Piano Sonata No. 26 in E-Flat Major, Op. 81a "Les adieux": III. Das Wiedersehen (Live)
10. Piano Sonata No. 29 in B-Flat Major, Op. 106 "Hammerklavier": I. Allegro (Live)
11. Piano Sonata No. 29 in B-Flat Major, Op. 106 "Hammerklavier": II. Scherzo. Assai vivace (Live)
12. Piano Sonata No. 29 in B-Flat Major, Op. 106 "Hammerklavier": III. Adagio sostenuto (Live)

CD2
01. Piano Sonata No. 29 in B-Flat Major, Op. 106 "Hammerklavier": IV. Largo - Allegro risoluto (Live)
02. Für Elise, WoO 59 (Live)
03. 6 Ecossaises, WoO 83 (Live)
04. English Suite No. 2 in A Minor, BWV 807: VI. Bourée (Live)
05. 4 Impromptus, Op. 90, D. 899: No. 4 in A-Flat Major (Live)
06. Pièces de clavecin, Livre 4, Ordre 26: No. 4, L'épineuse (Live)
07. Prelude & Fugue (1) [Live]
08. Piano Sonata No. 13 in B-Flat Major, K. 333 "Linz": I. Allegro (Live)
09. Piano Sonata No. 13 in B-Flat Major, K. 333 "Linz": II. Andante cantabile (Live)
10. Piano Sonata No. 13 in B-Flat Major, K. 333 "Linz": III. Allegretto grazioso (Live)
11. Piano Sonata No. 14 in C Minor, K. 457" I. Molto allegro (Live)
12. Piano Sonata No. 14 in C Minor, K. 457" II. Adagio (Live)
13. Piano Sonata No. 14 in C Minor, K. 457" III. Molto allegro (Live)

CD3
01. Piano Sonata No. 28 in A Major, Op. 101: I. Etwas lebhaft und mit der innigsten Empfindung (Live)
02. Piano Sonata No. 28 in A Major, Op. 101: II. Lebhaft. Marschmäßig (Live)
03. Piano Sonata No. 28 in A Major, Op. 101: III. Langsam und sehnsuchtsvoll (Live)
04. Piano Sonata No. 28 in A Major, Op. 101: IV. Geschwind, doch nicht zu sehr, und mit Entschlossenheit (Live)
05. Piano Sonata No. 31 in A-Flat Major, Op. 110: I. Moderato cantabile molto espressivo (Live)
06. Piano Sonata No. 31 in A-Flat Major, Op. 110: II. Allegro molto (Live)
07. Piano Sonata No. 31 in A-Flat Major, Op. 110: IIIa. Arioso dolente (Live)
08. Piano Sonata No. 31 in A-Flat Major, Op. 110: IIIb. Fuga. Allegro ma non troppo (Live)
09. Suite in E Minor, HWV 429: I. Fugue. Allegro (Live)
10. Suite in E Minor, HWV 429: II. Allemande (Live)
11. Suite in E Minor, HWV 429: III. Courante (Live)
12. Suite in E Minor, HWV 429: IV. Sarabande (Live)
13. Suite in E Minor, HWV 429: V. Gigue (Live)
14. Piano Sonata No. 16 in G Major, Op. 31 No. 1: I. Allegro vivace (Live)
15. Piano Sonata No. 16 in G Major, Op. 31 No. 1: II. Adagio grazioso (Live)
16. Piano Sonata No. 16 in G Major, Op. 31 No. 1: III. Rondo. Allegretto (Live)

CD4
01. Piano Sonata No. 17 in D Minor, Op. 31 No. 2 "Tempest": I. Largo - Allegro (Live)
02. Piano Sonata No. 17 in D Minor, Op. 31 No. 2 "Tempest": II. Adagio (Live)
03. Piano Sonata No. 17 in D Minor, Op. 31 No. 2 "Tempest": III. Allegretto (Live)
04. Eroica Variations, Op. 35 (Live)
05. Piano Sonata in A Minor, D. 845: I. Moderato (Live)
06. Piano Sonata in A Minor, D. 845: II. Andante poco mosso (Live)
07. Piano Sonata in A Minor, D. 845: III. Scherzo. Allegro vivace (Live)
08. Piano Sonata in A Minor, D. 845: IV. Rondo. Allegro vivace (Live)

CD5
01. Préludes, Book 2, L. 123: No. 1, Brouillards (Live)
02. Préludes, Book 2, L. 123: No. 2, Feuilles mortes (Live)
03. Préludes, Book 2, L. 123: No. 3, La puerta del vino (Live)
04. Préludes, Book 2, L. 123: No. 4, Les fées sont d'exquises danseuses (Live)
05. Préludes, Book 2, L. 123: No. 5, Bruyères (Live)
06. Préludes, Book 2, L. 123: No. 6, Général Lavine - Eccentric (Live)
07. Préludes, Book 2, L. 123: No. 7, La terrasse des audiences du clair de lune (Live)
08. Préludes, Book 2, L. 123: No. 8, Ondine (Live)
09. Préludes, Book 2, L. 123: No. 9, Hommage à S. Pickwick Esq. P.P.M.P.C. (Live)
10. Préludes, Book 2, L. 123: No. 10, Canope (Live)
11. Préludes, Book 2, L. 123: No. 11, Les tierces alternées (Live)
12. Préludes, Book 2, L. 123: No. 12, Feux d'artifice (Live)
13. Prelude & Fugue (2) [Live]
14. Rondo in D Major, K. 485 (Live)
15. Shuffle (Live)

CD6
01. Prelude & Fugue in D Major, BWV 874 (Live)
02. Prelude & Fugue in B Minor, BWV 893 (Live)
03. Prelude & Fugue in B Major, BWV 892 (Live)
04. Prelude & Fugue in E-Flat Minor, BWV 853 (Live)
05. Prelude & Fugue in A-Flat Major, BWV 886 (Live)
06. Prelude & Fugue in A Minor, BWV 889 (Live)
07. Chromatic Fantasia & Fugue in D Minor, BWV 903 (Live)
08. Fantasia in D Minor, K. 397 (Live)
09. Piano Sonata No. 18 in D Major, K. 576: I. Allegro (Live)
10. Piano Sonata No. 18 in D Major, K. 576: II. Adagio (Live)
11. Piano Sonata No. 18 in D Major, K. 576: III. Allegretto (Live)

CD7
01. Perspective No. 1 (Live)

Exact Audio Copy V1.6 from 23. October 2020

EAC extraction logfile from 15. February 2024, 10:07

Friedrich Gulda / Friedrich Gulda: The Stuttgart Solo Recitals 1966-1979 (Disc 1 of 7)

Used drive : ASUS BW-16D1HT Adapter: 1 ID: 0

Read mode : Secure
Utilize accurate stream : Yes
Defeat audio cache : Yes
Make use of C2 pointers : No

Read offset correction : 6
Overread into Lead-In and Lead-Out : No
Fill up missing offset samples with silence : Yes
Delete leading and trailing silent blocks : No
Null samples used in CRC calculations : Yes
Used interface : Native Win32 interface for Win NT & 2000
Gap handling : Appended to previous track

Used output format : User Defined Encoder
Selected bitrate : 896 kBit/s
Quality : High
Add ID3 tag : No
Command line compressor : C:\Program Files (x86)\Exact Audio Copy\Flac\flac.exe
Additional command line options : -8 -V -T "ARTIST=%artist%" -T "TITLE=%title%" -T "ALBUM=%albumtitle%" -T "DATE=%year%" -T "TRACKNUMBER=%tracknr%" -T "GENRE=%genre%" -T "COMMENT=%comment%" -T "ALBUMARTIST=%albuminterpret%" -T "COMPOSER=%composer%" -T "DISCNUMBER=%cdnumber%" -T "TOTALDISCS=%totalcds%" -T "TOTALTRACKS=%numtracks%" %source% -o %dest%


TOC of the extracted CD

Track | Start | Length | Start sector | End sector
––––––––––––––––––––––––––––-
1 | 0:00.00 | 8:48.34 | 0 | 39633
2 | 8:48.34 | 5:31.08 | 39634 | 64466
3 | 14:19.42 | 4:31.54 | 64467 | 84845
4 | 18:51.21 | 6:41.05 | 84846 | 114925
5 | 25:32.26 | 2:32.39 | 114926 | 126364
6 | 28:04.65 | 6:02.59 | 126365 | 153573
7 | 34:07.49 | 6:25.68 | 153574 | 182516
8 | 40:33.42 | 3:41.56 | 182517 | 199147
9 | 44:15.23 | 4:31.65 | 199148 | 219537
10 | 48:47.13 | 10:10.34 | 219538 | 265321
11 | 58:57.47 | 2:28.06 | 265322 | 276427
12 | 61:25.53 | 14:25.62 | 276428 | 341364


Track 1

Filename C:\EAC_working_dir\01. Piano Sonata No. 8 in C minor, Op. 13 - I. Grave – Allegro di molto e con brio.wav

Pre-gap length 0:00:02.00

Peak level 61.8 %
Extraction speed 5.7 X
Track quality 100.0 %
Test CRC A46F7E28
Copy CRC A46F7E28
Accurately ripped (confidence 13) [EDE0D453] (AR v2)
Copy OK

Track 2

Filename C:\EAC_working_dir\02. Piano Sonata No. 8 in C minor, Op. 13 - II. Adagio cantabile.wav

Peak level 45.8 %
Extraction speed 6.4 X
Track quality 100.0 %
Test CRC B1B5103D
Copy CRC B1B5103D
Accurately ripped (confidence 13) [CF8F28A8] (AR v2)
Copy OK

Track 3

Filename C:\EAC_working_dir\03. Piano Sonata No. 8 in C minor, Op. 13 - III. Rondo. Allegro.wav

Peak level 50.8 %
Extraction speed 6.8 X
Track quality 100.0 %
Test CRC E14C5831
Copy CRC E14C5831
Accurately ripped (confidence 13) [25A20F2E] (AR v2)
Copy OK

Track 4

Filename C:\EAC_working_dir\04. Piano Sonata No. 14 in C-sharp minor, Op. 27 No. 2 'Moonlight Sonata' - I. Adagio sostenuto.wav

Peak level 31.6 %
Extraction speed 7.0 X
Track quality 99.9 %
Test CRC 823594CF
Copy CRC 823594CF
Accurately ripped (confidence 13) [7E2A8A41] (AR v2)
Copy OK

Track 5

Filename C:\EAC_working_dir\05. Piano Sonata No. 14 in C-sharp minor, Op. 27 No. 2 'Moonlight Sonata' - II. Allegretto.wav

Peak level 29.3 %
Extraction speed 7.0 X
Track quality 100.0 %
Test CRC ABFFA83B
Copy CRC ABFFA83B
Accurately ripped (confidence 13) [27855BBD] (AR v2)
Copy OK

Track 6

Filename C:\EAC_working_dir\06. Piano Sonata No. 14 in C-sharp minor, Op. 27 No. 2 'Moonlight Sonata' - III. Presto agitato.wav

Peak level 45.3 %
Extraction speed 8.2 X
Track quality 100.0 %
Test CRC 925CE7FE
Copy CRC 925CE7FE
Accurately ripped (confidence 13) [1DE9DA37] (AR v2)
Copy OK

Track 7

Filename C:\EAC_working_dir\07. Piano Sonata No. 26 in E-flat major, Op. 81a 'Les Adieux' - I. Das Lebewohl. Adagio – Allegro.wav

Peak level 43.6 %
Extraction speed 8.8 X
Track quality 100.0 %
Test CRC 69CDFFBA
Copy CRC 69CDFFBA
Accurately ripped (confidence 13) [74552B44] (AR v2)
Copy OK

Track 8

Filename C:\EAC_working_dir\08. Piano Sonata No. 26 in E-flat major, Op. 81a 'Les Adieux' - II. Abwesenheit. Andante espressivo.wav

Peak level 41.9 %
Extraction speed 7.6 X
Track quality 99.9 %
Test CRC 93897A97
Copy CRC 93897A97
Accurately ripped (confidence 13) [A1B80009] (AR v2)
Copy OK

Track 9

Filename C:\EAC_working_dir\09. Piano Sonata No. 26 in E-flat major, Op. 81a 'Les Adieux' - III. Das Wiedersehen.wav

Peak level 49.5 %
Extraction speed 9.1 X
Track quality 100.0 %
Test CRC BEE0EAB2
Copy CRC BEE0EAB2
Accurately ripped (confidence 13) [204C7830] (AR v2)
Copy OK

Track 10

Filename C:\EAC_working_dir\10. Piano Sonata No. 29 in B-flat major, Op. 106 'Hammerklavier' - I. Allegro.wav

Peak level 85.4 %
Extraction speed 10.3 X
Track quality 100.0 %
Test CRC AA4242B7
Copy CRC AA4242B7
Accurately ripped (confidence 13) [C296ADEE] (AR v2)
Copy OK

Track 11

Filename C:\EAC_working_dir\11. Piano Sonata No. 29 in B-flat major, Op. 106 'Hammerklavier' - II. Scherzo. Assai vivace – Presto – Tempo I.wav

Peak level 81.7 %
Extraction speed 7.6 X
Track quality 99.9 %
Test CRC ED85F70E
Copy CRC ED85F70E
Accurately ripped (confidence 13) [FF3B6E2F] (AR v2)
Copy OK

Track 12

Filename C:\EAC_working_dir\12. Piano Sonata No. 29 in B-flat major, Op. 106 'Hammerklavier' - III. Adagio sostenuto. Appassionato e con molto sentimento.wav

Peak level 77.0 %
Extraction speed 10.9 X
Track quality 99.9 %
Test CRC 3C228EBF
Copy CRC 3C228EBF
Accurately ripped (confidence 12) [BCFAD61E] (AR v2)
Copy OK


All tracks accurately ripped

No errors occurred

End of status report

–– CUETools DB Plugin V2.2.5

[CTDB TOCID: x.MewTDo0yvTMSyNKj0NrjRF2I0-] found
Submit result: x.MewTDo0yvTMSyNKj0NrjRF2I0- has been confirmed
Track | CTDB Status
1 | (25/25) Accurately ripped
2 | (25/25) Accurately ripped
3 | (25/25) Accurately ripped
4 | (25/25) Accurately ripped
5 | (25/25) Accurately ripped
6 | (25/25) Accurately ripped
7 | (25/25) Accurately ripped
8 | (25/25) Accurately ripped
9 | (25/25) Accurately ripped
10 | (25/25) Accurately ripped
11 | (25/25) Accurately ripped
12 | (25/25) Accurately ripped


==== Log checksum 6AAA99BDD488F53086490C5F6A8FB80AAC5257CE3C5DE2571D214B59575FE446 ====
Exact Audio Copy V1.6 from 23. October 2020

EAC extraction logfile from 15. February 2024, 10:36

Friedrich Gulda / Friedrich Gulda: The Stuttgart Solo Recitals 1966-1979 (Disc 2 of 7)

Used drive : ASUS BW-16D1HT Adapter: 1 ID: 0

Read mode : Secure
Utilize accurate stream : Yes
Defeat audio cache : Yes
Make use of C2 pointers : No

Read offset correction : 6
Overread into Lead-In and Lead-Out : No
Fill up missing offset samples with silence : Yes
Delete leading and trailing silent blocks : No
Null samples used in CRC calculations : Yes
Used interface : Native Win32 interface for Win NT & 2000
Gap handling : Appended to previous track

Used output format : User Defined Encoder
Selected bitrate : 896 kBit/s
Quality : High
Add ID3 tag : No
Command line compressor : C:\Program Files (x86)\Exact Audio Copy\Flac\flac.exe
Additional command line options : -8 -V -T "ARTIST=%artist%" -T "TITLE=%title%" -T "ALBUM=%albumtitle%" -T "DATE=%year%" -T "TRACKNUMBER=%tracknr%" -T "GENRE=%genre%" -T "COMMENT=%comment%" -T "ALBUMARTIST=%albuminterpret%" -T "COMPOSER=%composer%" -T "DISCNUMBER=%cdnumber%" -T "TOTALDISCS=%totalcds%" -T "TOTALTRACKS=%numtracks%" %source% -o %dest%


TOC of the extracted CD

Track | Start | Length | Start sector | End sector
––––––––––––––––––––––––––––-
1 | 0:00.00 | 10:36.51 | 0 | 47750
2 | 10:36.51 | 3:31.45 | 47751 | 63620
3 | 14:08.21 | 2:07.44 | 63621 | 73189
4 | 16:15.65 | 3:47.69 | 73190 | 90283
5 | 20:03.59 | 6:40.25 | 90284 | 120308
6 | 26:44.09 | 2:46.65 | 120309 | 132823
7 | 29:30.74 | 4:13.43 | 132824 | 151841
8 | 33:44.42 | 7:40.51 | 151842 | 186392
9 | 41:25.18 | 5:32.01 | 186393 | 211293
10 | 46:57.19 | 6:22.24 | 211294 | 239967
11 | 53:19.43 | 4:10.45 | 239968 | 258762
12 | 57:30.13 | 6:35.19 | 258763 | 288406
13 | 64:05.32 | 4:03.41 | 288407 | 306672


Track 1

Filename C:\EAC_working_dir\01. Piano Sonata No. 29 in B-flat major, Op. 106 'Hammerklavier' - IV. Largo – Allegro risoluto.wav

Pre-gap length 0:00:02.00

Peak level 82.3 %
Extraction speed 5.9 X
Track quality 100.0 %
Test CRC 3C34D88D
Copy CRC 3C34D88D
Accurately ripped (confidence 13) [BF87848C] (AR v2)
Copy OK

Track 2

Filename C:\EAC_working_dir\02. Für Elise – Piano Piece in A minor, WoO 59.wav

Peak level 46.2 %
Extraction speed 6.1 X
Track quality 100.0 %
Test CRC 9306B227
Copy CRC 9306B227
Accurately ripped (confidence 13) [E0EF56E8] (AR v2)
Copy OK

Track 3

Filename C:\EAC_working_dir\03. Six Ecossaises in E-flat major, WoO 83.wav

Peak level 38.5 %
Extraction speed 5.7 X
Track quality 100.0 %
Test CRC C9CE0E8B
Copy CRC C9CE0E8B
Accurately ripped (confidence 13) [9643E201] (AR v2)
Copy OK

Track 4

Filename C:\EAC_working_dir\04. Bourrée (From English Suite No. 2, BWV 807).wav

Peak level 47.3 %
Extraction speed 6.7 X
Track quality 100.0 %
Test CRC 71F209DF
Copy CRC 71F209DF
Accurately ripped (confidence 13) [C4B43F16] (AR v2)
Copy OK

Track 5

Filename C:\EAC_working_dir\05. Impromptu in A-flat major, D899 No. 4.wav

Peak level 47.0 %
Extraction speed 7.7 X
Track quality 100.0 %
Test CRC C5F361B7
Copy CRC C5F361B7
Accurately ripped (confidence 13) [BFF2632B] (AR v2)
Copy OK

Track 6

Filename C:\EAC_working_dir\06. L'Épineuse in F-sharp minor (From Pièces de clavecin IV, 26e ordre).wav

Peak level 31.8 %
Extraction speed 7.2 X
Track quality 100.0 %
Test CRC C8F6ACB7
Copy CRC C8F6ACB7
Accurately ripped (confidence 13) [B35BD360] (AR v2)
Copy OK

Track 7

Filename C:\EAC_working_dir\07. Prelude and Fugue.wav

Peak level 43.4 %
Extraction speed 8.0 X
Track quality 100.0 %
Test CRC BB6624AA
Copy CRC BB6624AA
Accurately ripped (confidence 12) [16621A96] (AR v2)
Copy OK

Track 8

Filename C:\EAC_working_dir\08. Piano Sonata No. 13 in B-flat major, K. 333 (315c) 'Linz Sonata' - I. Allegro.wav

Peak level 45.6 %
Extraction speed 8.9 X
Track quality 100.0 %
Test CRC D3605492
Copy CRC D3605492
Accurately ripped (confidence 13) [72D655C1] (AR v2)
Copy OK

Track 9

Filename C:\EAC_working_dir\09. Piano Sonata No. 13 in B-flat major, K. 333 (315c) 'Linz Sonata' - II. Andante cantabile.wav

Peak level 44.0 %
Extraction speed 8.4 X
Track quality 99.9 %
Test CRC A4EFE049
Copy CRC A4EFE049
Accurately ripped (confidence 13) [466015FC] (AR v2)
Copy OK

Track 10

Filename C:\EAC_working_dir\10. Piano Sonata No. 13 in B-flat major, K. 333 (315c) 'Linz Sonata' - III. Allegretto grazioso.wav

Peak level 48.7 %
Extraction speed 9.7 X
Track quality 100.0 %
Test CRC 66B56561
Copy CRC 66B56561
Accurately ripped (confidence 13) [B5EDAAE8] (AR v2)
Copy OK

Track 11

Filename C:\EAC_working_dir\11. Piano Sonata No. 14 in C minor, K. 457 - I. Molto allegro.wav

Peak level 52.3 %
Extraction speed 9.6 X
Track quality 100.0 %
Test CRC 7ABEBB70
Copy CRC 7ABEBB70
Accurately ripped (confidence 13) [F47C4793] (AR v2)
Copy OK

Track 12

Filename C:\EAC_working_dir\12. Piano Sonata No. 14 in C minor, K. 457 - II. Adagio.wav

Peak level 37.9 %
Extraction speed 10.5 X
Track quality 100.0 %
Test CRC FBC65B54
Copy CRC FBC65B54
Accurately ripped (confidence 13) [3687ABA9] (AR v2)
Copy OK

Track 13

Filename C:\EAC_working_dir\13. Piano Sonata No. 14 in C minor, K. 457 - III. Molto allegro.wav

Peak level 47.2 %
Extraction speed 10.1 X
Track quality 100.0 %
Test CRC CEFF1DAA
Copy CRC CEFF1DAA
Accurately ripped (confidence 12) [155891B5] (AR v2)
Copy OK


All tracks accurately ripped

No errors occurred

End of status report

–– CUETools DB Plugin V2.2.5

[CTDB TOCID: D2l8NI9LmsjtGlKGk5P94iK_yDY-] found
Submit result: D2l8NI9LmsjtGlKGk5P94iK_yDY- has been confirmed
Track | CTDB Status
1 | (21/21) Accurately ripped
2 | (21/21) Accurately ripped
3 | (21/21) Accurately ripped
4 | (21/21) Accurately ripped
5 | (21/21) Accurately ripped
6 | (21/21) Accurately ripped
7 | (21/21) Accurately ripped
8 | (21/21) Accurately ripped
9 | (21/21) Accurately ripped
10 | (21/21) Accurately ripped
11 | (21/21) Accurately ripped
12 | (21/21) Accurately ripped
13 | (20/21) Accurately ripped


==== Log checksum B5675AD8456117F84C6AA2CDE99914AF049E1960B723A912380E5FFCB5002E07 ====
Exact Audio Copy V1.6 from 23. October 2020

EAC extraction logfile from 15. February 2024, 14:13

Friedrich Gulda / Friedrich Gulda: The Stuttgart Solo Recitals 1966-1979 (Disc 3 of 7)

Used drive : ASUS BW-16D1HT Adapter: 1 ID: 0

Read mode : Secure
Utilize accurate stream : Yes
Defeat audio cache : Yes
Make use of C2 pointers : No

Read offset correction : 6
Overread into Lead-In and Lead-Out : No
Fill up missing offset samples with silence : Yes
Delete leading and trailing silent blocks : No
Null samples used in CRC calculations : Yes
Used interface : Native Win32 interface for Win NT & 2000
Gap handling : Appended to previous track

Used output format : User Defined Encoder
Selected bitrate : 896 kBit/s
Quality : High
Add ID3 tag : No
Command line compressor : C:\Program Files (x86)\Exact Audio Copy\Flac\flac.exe
Additional command line options : -8 -V -T "ARTIST=%artist%" -T "TITLE=%title%" -T "ALBUM=%albumtitle%" -T "DATE=%year%" -T "TRACKNUMBER=%tracknr%" -T "GENRE=%genre%" -T "COMMENT=%comment%" -T "ALBUMARTIST=%albuminterpret%" -T "COMPOSER=%composer%" -T "DISCNUMBER=%cdnumber%" -T "TOTALDISCS=%totalcds%" -T "TOTALTRACKS=%numtracks%" %source% -o %dest%


TOC of the extracted CD

Track | Start | Length | Start sector | End sector
––––––––––––––––––––––––––––-
1 | 0:00.00 | 3:57.17 | 0 | 17791
2 | 3:57.17 | 6:28.35 | 17792 | 46926
3 | 10:25.52 | 3:04.09 | 46927 | 60735
4 | 13:29.61 | 7:15.52 | 60736 | 93412
5 | 20:45.38 | 6:43.44 | 93413 | 123681
6 | 27:29.07 | 1:57.63 | 123682 | 132519
7 | 29:26.70 | 3:12.32 | 132520 | 146951
8 | 32:39.27 | 6:36.30 | 146952 | 176681
9 | 39:15.57 | 3:28.58 | 176682 | 192339
10 | 42:44.40 | 2:13.29 | 192340 | 202343
11 | 44:57.69 | 1:20.52 | 202344 | 208395
12 | 46:18.46 | 5:10.66 | 208396 | 231711
13 | 51:29.37 | 1:57.35 | 231712 | 240521
14 | 53:26.72 | 4:46.18 | 240522 | 261989
15 | 58:13.15 | 8:15.24 | 261990 | 299138
16 | 66:28.39 | 5:57.71 | 299139 | 325984


Track 1

Filename C:\EAC_working_dir\01. Piano Sonata No. 28 in A major, Op. 101 - I. Etwas lebhaft und mit der innigsten Empfindung. Allegretto, ma non troppo.wav

Pre-gap length 0:00:02.00

Peak level 49.1 %
Extraction speed 5.0 X
Track quality 100.0 %
Test CRC 16D487ED
Copy CRC 16D487ED
Accurately ripped (confidence 13) [85C1DE7D] (AR v2)
Copy OK

Track 2

Filename C:\EAC_working_dir\02. Piano Sonata No. 28 in A major, Op. 101 - II. Lebhaft, marschmäßig. Vivace alla marcia.wav

Peak level 58.5 %
Extraction speed 5.9 X
Track quality 100.0 %
Test CRC 62F7375B
Copy CRC 62F7375B
Accurately ripped (confidence 13) [311452E2] (AR v2)
Copy OK

Track 3

Filename C:\EAC_working_dir\03. Piano Sonata No. 28 in A major, Op. 101 - III. Langsam und sehnsuchtsvoll. Adagio, ma non troppo, con affetto (attacca).wav

Peak level 75.7 %
Extraction speed 6.0 X
Track quality 100.0 %
Test CRC 6FC0214F
Copy CRC 6FC0214F
Accurately ripped (confidence 13) [40A31F4C] (AR v2)
Copy OK

Track 4

Filename C:\EAC_working_dir\04. Piano Sonata No. 28 in A major, Op. 101 - IV. Geschwind, doch nicht zu sehr, und mit Entschlossenheit. Allegro.wav

Peak level 63.1 %
Extraction speed 7.1 X
Track quality 100.0 %
Test CRC B1F0C9AD
Copy CRC B1F0C9AD
Accurately ripped (confidence 13) [6DC030EF] (AR v2)
Copy OK

Track 5

Filename C:\EAC_working_dir\05. Piano Sonata No. 31 in A-flat major, Op. 110 - I. Moderato cantabile molto espressivo.wav

Peak level 48.5 %
Extraction speed 7.8 X
Track quality 100.0 %
Test CRC F746F94F
Copy CRC F746F94F
Accurately ripped (confidence 13) [59E3D534] (AR v2)
Copy OK

Track 6

Filename C:\EAC_working_dir\06. Piano Sonata No. 31 in A-flat major, Op. 110 - II. Allegro molto.wav

Peak level 58.4 %
Extraction speed 5.5 X
Track quality 99.9 %
Test CRC 684E1D9F
Copy CRC 684E1D9F
Accurately ripped (confidence 13) [08F2BC9A] (AR v2)
Copy OK

Track 7

Filename C:\EAC_working_dir\07. Piano Sonata No. 31 in A-flat major, Op. 110 - III. Adagio, ma non troppo.wav

Peak level 49.6 %
Extraction speed 7.7 X
Track quality 100.0 %
Test CRC 5BBDB0DE
Copy CRC 5BBDB0DE
Accurately ripped (confidence 13) [AC98DC41] (AR v2)
Copy OK

Track 8

Filename C:\EAC_working_dir\08. Piano Sonata No. 31 in A-flat major, Op. 110 - IV. Fuga. Allegro ma non troppo.wav

Peak level 53.0 %
Extraction speed 8.1 X
Track quality 99.9 %
Test CRC 548F1B6C
Copy CRC 548F1B6C
Accurately ripped (confidence 13) [9450726D] (AR v2)
Copy OK

Track 9

Filename C:\EAC_working_dir\09. Suite for Harpsichord in E minor, HWV 429 - I. Fuga.wav

Peak level 48.1 %
Extraction speed 8.5 X
Track quality 100.0 %
Test CRC 719B7731
Copy CRC 719B7731
Accurately ripped (confidence 12) [A94C972C] (AR v2)
Copy OK

Track 10

Filename C:\EAC_working_dir\10. Suite for Harpsichord in E minor, HWV 429 - II. Allemande.wav

Peak level 33.4 %
Extraction speed 7.9 X
Track quality 100.0 %
Test CRC F3F41141
Copy CRC F3F41141
Accurately ripped (confidence 12) [726F21EA] (AR v2)
Copy OK

Track 11

Filename C:\EAC_working_dir\11. Suite for Harpsichord in E minor, HWV 429 - III. Courante.wav

Peak level 48.6 %
Extraction speed 6.9 X
Track quality 100.0 %
Test CRC A2B6EC08
Copy CRC A2B6EC08
Accurately ripped (confidence 12) [2B35060E] (AR v2)
Copy OK

Track 12

Filename C:\EAC_working_dir\12. Suite for Harpsichord in E minor, HWV 429 - IV. Sarabande.wav

Peak level 56.1 %
Extraction speed 9.5 X
Track quality 100.0 %
Test CRC 194839E2
Copy CRC 194839E2
Accurately ripped (confidence 12) [C9E9649D] (AR v2)
Copy OK

Track 13

Filename C:\EAC_working_dir\13. Suite for Harpsichord in E minor, HWV 429 - V Gigue.wav

Peak level 53.6 %
Extraction speed 8.3 X
Track quality 100.0 %
Test CRC D4B86E2A
Copy CRC D4B86E2A
Accurately ripped (confidence 12) [D410BB01] (AR v2)
Copy OK

Track 14

Filename C:\EAC_working_dir\14. Piano Sonata No. 16 in G major, Op. 31 No. 1 - I. Allegro vivace.wav

Peak level 75.0 %
Extraction speed 9.8 X
Track quality 100.0 %
Test CRC 88B5AE25
Copy CRC 88B5AE25
Accurately ripped (confidence 13) [36CEB7FD] (AR v2)
Copy OK

Track 15

Filename C:\EAC_working_dir\15. Piano Sonata No. 16 in G major, Op. 31 No. 1 - II. Adagio grazioso.wav

Peak level 73.9 %
Extraction speed 10.1 X
Track quality 99.9 %
Test CRC EC71644F
Copy CRC EC71644F
Accurately ripped (confidence 13) [09802422] (AR v2)
Copy OK

Track 16

Filename C:\EAC_working_dir\16. Piano Sonata No. 16 in G major, Op. 31 No. 1 - III. Rondo. Allegretto.wav

Peak level 76.4 %
Extraction speed 10.8 X
Track quality 100.0 %
Test CRC 391CD40E
Copy CRC 391CD40E
Accurately ripped (confidence 12) [B10F05C9] (AR v2)
Copy OK


All tracks accurately ripped

No errors occurred

End of status report

–– CUETools DB Plugin V2.2.5

[CTDB TOCID: JWssx1OYrxa1IPflfOXB7RmbGyg-] found
Submit result: JWssx1OYrxa1IPflfOXB7RmbGyg- has been confirmed
Track | CTDB Status
1 | (22/22) Accurately ripped
2 | (22/22) Accurately ripped
3 | (22/22) Accurately ripped
4 | (22/22) Accurately ripped
5 | (22/22) Accurately ripped
6 | (22/22) Accurately ripped
7 | (22/22) Accurately ripped
8 | (22/22) Accurately ripped
9 | (22/22) Accurately ripped
10 | (22/22) Accurately ripped
11 | (22/22) Accurately ripped
12 | (22/22) Accurately ripped
13 | (22/22) Accurately ripped
14 | (22/22) Accurately ripped
15 | (22/22) Accurately ripped
16 | (22/22) Accurately ripped


==== Log checksum 16AFC07B96CCB5A66A5BC6B2EBB27E07ED507AC5982FEDB41A4418C78B7173EB ====
Exact Audio Copy V1.6 from 23. October 2020

EAC extraction logfile from 15. February 2024, 11:53

Friedrich Gulda / Friedrich Gulda: The Stuttgart Solo Recitals 1966-1979 (Disc 4 of 7)

Used drive : ASUS BW-16D1HT Adapter: 1 ID: 0

Read mode : Secure
Utilize accurate stream : Yes
Defeat audio cache : Yes
Make use of C2 pointers : No

Read offset correction : 6
Overread into Lead-In and Lead-Out : No
Fill up missing offset samples with silence : Yes
Delete leading and trailing silent blocks : No
Null samples used in CRC calculations : Yes
Used interface : Native Win32 interface for Win NT & 2000
Gap handling : Appended to previous track

Used output format : User Defined Encoder
Selected bitrate : 896 kBit/s
Quality : High
Add ID3 tag : No
Command line compressor : C:\Program Files (x86)\Exact Audio Copy\Flac\flac.exe
Additional command line options : -8 -V -T "ARTIST=%artist%" -T "TITLE=%title%" -T "ALBUM=%albumtitle%" -T "DATE=%year%" -T "TRACKNUMBER=%tracknr%" -T "GENRE=%genre%" -T "COMMENT=%comment%" -T "ALBUMARTIST=%albuminterpret%" -T "COMPOSER=%composer%" -T "DISCNUMBER=%cdnumber%" -T "TOTALDISCS=%totalcds%" -T "TOTALTRACKS=%numtracks%" %source% -o %dest%


TOC of the extracted CD

Track | Start | Length | Start sector | End sector
––––––––––––––––––––––––––––-
1 | 0:00.00 | 5:37.32 | 0 | 25306
2 | 5:37.32 | 8:32.21 | 25307 | 63727
3 | 14:09.53 | 6:16.17 | 63728 | 91944
4 | 20:25.70 | 23:33.41 | 91945 | 197960
5 | 43:59.36 | 10:03.21 | 197961 | 243206
6 | 54:02.57 | 12:21.23 | 243207 | 298804
7 | 66:24.05 | 4:30.60 | 298805 | 319114
8 | 70:54.65 | 4:18.72 | 319115 | 338536


Track 1

Filename C:\EAC_working_dir\01. Piano Sonata No. 17 in D minor, Op. 31 No. 2 'Der Sturm' - I. Largo – Allegro.wav

Pre-gap length 0:00:02.00

Peak level 58.8 %
Extraction speed 5.3 X
Track quality 100.0 %
Test CRC 330F0173
Copy CRC 330F0173
Accurately ripped (confidence 13) [B37261C7] (AR v2)
Copy OK

Track 2

Filename C:\EAC_working_dir\02. Piano Sonata No. 17 in D minor, Op. 31 No. 2 'Der Sturm' - II. Adagio.wav

Peak level 39.8 %
Extraction speed 6.0 X
Track quality 99.9 %
Test CRC 819D254B
Copy CRC 819D254B
Accurately ripped (confidence 13) [F0F75D0C] (AR v2)
Copy OK

Track 3

Filename C:\EAC_working_dir\03. Piano Sonata No. 17 in D minor, Op. 31 No. 2 'Der Sturm' - III. Allegretto.wav

Peak level 49.6 %
Extraction speed 7.0 X
Track quality 100.0 %
Test CRC 5E2A5F2B
Copy CRC 5E2A5F2B
Accurately ripped (confidence 13) [A36EBC41] (AR v2)
Copy OK

Track 4

Filename C:\EAC_working_dir\04. 15 Variations with a Fugue in E-flat major, Op. 35 'Eroica Variations'.wav

Peak level 64.3 %
Extraction speed 8.9 X
Track quality 100.0 %
Test CRC 8A90D888
Copy CRC 8A90D888
Accurately ripped (confidence 12) [C7D6BFBB] (AR v2)
Copy OK

Track 5

Filename C:\EAC_working_dir\05. Piano Sonata in A minor, Op. 42 D. 845 - I. Moderato.wav

Peak level 54.7 %
Extraction speed 8.3 X
Track quality 100.0 %
Test CRC D451E12C
Copy CRC D451E12C
Accurately ripped (confidence 13) [FA7BA023] (AR v2)
Copy OK

Track 6

Filename C:\EAC_working_dir\06. Piano Sonata in A minor, Op. 42 D. 845 - II. Andante, poco mosso.wav

Peak level 51.1 %
Extraction speed 2.6 X
Track quality 100.0 %
Test CRC 933E8F88
Copy CRC 933E8F88
Accurately ripped (confidence 13) [A0FB7EE9] (AR v2)
Copy OK

Track 7

Filename C:\EAC_working_dir\07. Piano Sonata in A minor, Op. 42 D. 845 - III. Scherzo. Allegro vivace – Trio. Un poco più lento.wav

Peak level 58.5 %
Extraction speed 2.5 X
Track quality 100.0 %
Test CRC 8B2F4492
Copy CRC 8B2F4492
Accurately ripped (confidence 13) [BFEB8337] (AR v2)
Copy OK

Track 8

Filename C:\EAC_working_dir\08. Piano Sonata in A minor, Op. 42 D. 845 - IV. Rondo. Allegro vivace.wav

Peak level 54.3 %
Extraction speed 2.3 X
Track quality 99.9 %
Test CRC 2DBAED19
Copy CRC 2DBAED19
Accurately ripped (confidence 12) [6E7477FF] (AR v2)
Copy OK


All tracks accurately ripped

No errors occurred

End of status report

–– CUETools DB Plugin V2.2.5

[CTDB TOCID: BeSRdL4Vzlxx_d.CVSVMl3ESiFA-] found
Submit result: BeSRdL4Vzlxx_d.CVSVMl3ESiFA- has been confirmed
Track | CTDB Status
1 | (22/22) Accurately ripped
2 | (22/22) Accurately ripped
3 | (22/22) Accurately ripped
4 | (22/22) Accurately ripped
5 | (22/22) Accurately ripped
6 | (22/22) Accurately ripped
7 | (22/22) Accurately ripped
8 | (21/22) Accurately ripped


==== Log checksum A4DA3A649F17F6A0F8F6629B5CEB1631E405D17D337BC668D74E520A629F0F5F ====
Exact Audio Copy V1.6 from 23. October 2020

EAC extraction logfile from 15. February 2024, 12:40

Friedrich Gulda / Friedrich Gulda: The Stuttgart Solo Recitals 1966-1979 (Disc 5 of 7)

Used drive : ASUS BW-16D1HT Adapter: 1 ID: 0

Read mode : Secure
Utilize accurate stream : Yes
Defeat audio cache : Yes
Make use of C2 pointers : No

Read offset correction : 6
Overread into Lead-In and Lead-Out : No
Fill up missing offset samples with silence : Yes
Delete leading and trailing silent blocks : No
Null samples used in CRC calculations : Yes
Used interface : Native Win32 interface for Win NT & 2000
Gap handling : Appended to previous track

Used output format : User Defined Encoder
Selected bitrate : 896 kBit/s
Quality : High
Add ID3 tag : No
Command line compressor : C:\Program Files (x86)\Exact Audio Copy\Flac\flac.exe
Additional command line options : -8 -V -T "ARTIST=%artist%" -T "TITLE=%title%" -T "ALBUM=%albumtitle%" -T "DATE=%year%" -T "TRACKNUMBER=%tracknr%" -T "GENRE=%genre%" -T "COMMENT=%comment%" -T "ALBUMARTIST=%albuminterpret%" -T "COMPOSER=%composer%" -T "DISCNUMBER=%cdnumber%" -T "TOTALDISCS=%totalcds%" -T "TOTALTRACKS=%numtracks%" %source% -o %dest%


TOC of the extracted CD

Track | Start | Length | Start sector | End sector
––––––––––––––––––––––––––––-
1 | 0:00.00 | 2:45.09 | 0 | 12383
2 | 2:45.09 | 3:15.18 | 12384 | 27026
3 | 6:00.27 | 3:34.24 | 27027 | 43100
4 | 9:34.51 | 2:21.21 | 43101 | 53696
5 | 11:55.72 | 2:34.26 | 53697 | 65272
6 | 14:30.23 | 2:15.22 | 65273 | 75419
7 | 16:45.45 | 3:52.26 | 75420 | 92845
8 | 20:37.71 | 2:50.66 | 92846 | 105661
9 | 23:28.62 | 2:05.45 | 105662 | 115081
10 | 25:34.32 | 2:47.69 | 115082 | 127675
11 | 28:22.26 | 2:32.19 | 127676 | 139094
12 | 30:54.45 | 4:25.06 | 139095 | 158975
13 | 35:19.51 | 4:04.05 | 158976 | 177280
14 | 39:23.56 | 4:08.45 | 177281 | 195925
15 | 43:32.26 | 4:57.36 | 195926 | 218236


Track 1

Filename C:\EAC_working_dir\01. 12 Préludes (Book II), L. 123 - Brouillards.wav

Pre-gap length 0:00:02.00

Peak level 39.6 %
Extraction speed 4.1 X
Track quality 100.0 %
Test CRC C744F7B9
Copy CRC C744F7B9
Accurately ripped (confidence 12) [8983B5BE] (AR v2)
Copy OK

Track 2

Filename C:\EAC_working_dir\02. 12 Préludes (Book II), L. 123 - Feuilles mortes.wav

Peak level 52.5 %
Extraction speed 4.5 X
Track quality 100.0 %
Test CRC 776C194A
Copy CRC 776C194A
Accurately ripped (confidence 12) [66D3F333] (AR v2)
Copy OK

Track 3

Filename C:\EAC_working_dir\03. 12 Préludes (Book II), L. 123 - La puerta del vino.wav

Peak level 82.6 %
Extraction speed 5.1 X
Track quality 100.0 %
Test CRC 2920C364
Copy CRC 2920C364
Accurately ripped (confidence 12) [A8FFB24C] (AR v2)
Copy OK

Track 4

Filename C:\EAC_working_dir\04. 12 Préludes (Book II), L. 123 - «Les Fées sond d'exquises danseuses».wav

Peak level 65.8 %
Extraction speed 5.0 X
Track quality 100.0 %
Test CRC AC8E2ADD
Copy CRC AC8E2ADD
Accurately ripped (confidence 12) [B1AF2644] (AR v2)
Copy OK

Track 5

Filename C:\EAC_working_dir\05. 12 Préludes (Book II), L. 123 - Bruyères.wav

Peak level 47.6 %
Extraction speed 4.5 X
Track quality 99.9 %
Test CRC 3F78BC0C
Copy CRC 3F78BC0C
Accurately ripped (confidence 12) [583F392F] (AR v2)
Copy OK

Track 6

Filename C:\EAC_working_dir\06. 12 Préludes (Book II), L. 123 - «Général Lavine» – eccentric.wav

Peak level 76.4 %
Extraction speed 5.4 X
Track quality 100.0 %
Test CRC E5E77C71
Copy CRC E5E77C71
Accurately ripped (confidence 12) [4503779A] (AR v2)
Copy OK

Track 7

Filename C:\EAC_working_dir\07. 12 Préludes (Book II), L. 123 - La terrasses des audiences du clair de lune.wav

Peak level 59.7 %
Extraction speed 6.2 X
Track quality 100.0 %
Test CRC 0D51482B
Copy CRC 0D51482B
Accurately ripped (confidence 12) [F0E14F19] (AR v2)
Copy OK

Track 8

Filename C:\EAC_working_dir\08. 12 Préludes (Book II), L. 123 - Ondine.wav

Peak level 54.2 %
Extraction speed 6.2 X
Track quality 100.0 %
Test CRC ADB59DFD
Copy CRC ADB59DFD
Accurately ripped (confidence 12) [0E8A55F3] (AR v2)
Copy OK

Track 9

Filename C:\EAC_working_dir\09. 12 Préludes (Book II), L. 123 - Hommage à S. Pickwick Esq. P.P.M.P.C..wav

Peak level 71.0 %
Extraction speed 6.0 X
Track quality 100.0 %
Test CRC C42DFE4D
Copy CRC C42DFE4D
Accurately ripped (confidence 12) [28FA51F4] (AR v2)
Copy OK

Track 10

Filename C:\EAC_working_dir\10. 12 Préludes (Book II), L. 123 - Canope.wav

Peak level 40.8 %
Extraction speed 6.5 X
Track quality 100.0 %
Test CRC 82A0EB3B
Copy CRC 82A0EB3B
Accurately ripped (confidence 12) [49FFD0AA] (AR v2)
Copy OK

Track 11

Filename C:\EAC_working_dir\11. 12 Préludes (Book II), L. 123 - Les Tierces alternées.wav

Peak level 61.2 %
Extraction speed 6.6 X
Track quality 100.0 %
Test CRC 87BEF85E
Copy CRC 87BEF85E
Accurately ripped (confidence 12) [512BC9EF] (AR v2)
Copy OK

Track 12

Filename C:\EAC_working_dir\12. 12 Préludes (Book II), L. 123 - Feux d'artifice.wav

Peak level 69.8 %
Extraction speed 7.5 X
Track quality 100.0 %
Test CRC 07ACFD23
Copy CRC 07ACFD23
Accurately ripped (confidence 12) [F9C48DFA] (AR v2)
Copy OK

Track 13

Filename C:\EAC_working_dir\13. Prelude and Fugue.wav

Peak level 38.8 %
Extraction speed 7.7 X
Track quality 100.0 %
Test CRC C6FB9F14
Copy CRC C6FB9F14
Accurately ripped (confidence 12) [369B88A5] (AR v2)
Copy OK

Track 14

Filename C:\EAC_working_dir\14. Rondo in D major, K. 485.wav

Peak level 57.4 %
Extraction speed 8.0 X
Track quality 100.0 %
Test CRC 759A3733
Copy CRC 759A3733
Accurately ripped (confidence 12) [93798DFD] (AR v2)
Copy OK

Track 15

Filename C:\EAC_working_dir\15. Shuffle.wav

Peak level 51.3 %
Extraction speed 7.6 X
Track quality 99.9 %
Test CRC DDAF13EB
Copy CRC DDAF13EB
Accurately ripped (confidence 11) [014732E0] (AR v2)
Copy OK


All tracks accurately ripped

No errors occurred

End of status report

–– CUETools DB Plugin V2.2.5

[CTDB TOCID: xkOHNas10uM8SXSzbsI7W8ZXg2M-] found
Submit result: xkOHNas10uM8SXSzbsI7W8ZXg2M- has been confirmed
Track | CTDB Status
1 | (22/22) Accurately ripped
2 | (22/22) Accurately ripped
3 | (22/22) Accurately ripped
4 | (22/22) Accurately ripped
5 | (22/22) Accurately ripped
6 | (22/22) Accurately ripped
7 | (22/22) Accurately ripped
8 | (22/22) Accurately ripped
9 | (22/22) Accurately ripped
10 | (22/22) Accurately ripped
11 | (22/22) Accurately ripped
12 | (22/22) Accurately ripped
13 | (22/22) Accurately ripped
14 | (22/22) Accurately ripped
15 | (22/22) Accurately ripped


==== Log checksum 736482AA79549F50B2C88ABDDF10D621B0B929560E8D55B7C2428E88204DD156 ====
Exact Audio Copy V1.6 from 23. October 2020

EAC extraction logfile from 15. February 2024, 13:24

Friedrich Gulda / Friedrich Gulda: The Stuttgart Solo Recitals 1966-1979 (Disc 6 of 7)

Used drive : ASUS BW-16D1HT Adapter: 1 ID: 0

Read mode : Secure
Utilize accurate stream : Yes
Defeat audio cache : Yes
Make use of C2 pointers : No

Read offset correction : 6
Overread into Lead-In and Lead-Out : No
Fill up missing offset samples with silence : Yes
Delete leading and trailing silent blocks : No
Null samples used in CRC calculations : Yes
Used interface : Native Win32 interface for Win NT & 2000
Gap handling : Appended to previous track

Used output format : User Defined Encoder
Selected bitrate : 896 kBit/s
Quality : High
Add ID3 tag : No
Command line compressor : C:\Program Files (x86)\Exact Audio Copy\Flac\flac.exe
Additional command line options : -8 -V -T "ARTIST=%artist%" -T "TITLE=%title%" -T "ALBUM=%albumtitle%" -T "DATE=%year%" -T "TRACKNUMBER=%tracknr%" -T "GENRE=%genre%" -T "COMMENT=%comment%" -T "ALBUMARTIST=%albuminterpret%" -T "COMPOSER=%composer%" -T "DISCNUMBER=%cdnumber%" -T "TOTALDISCS=%totalcds%" -T "TOTALTRACKS=%numtracks%" %source% -o %dest%


TOC of the extracted CD

Track | Start | Length | Start sector | End sector
––––––––––––––––––––––––––––-
1 | 0:00.00 | 7:39.10 | 0 | 34434
2 | 7:39.10 | 4:41.41 | 34435 | 55550
3 | 12:20.51 | 4:26.67 | 55551 | 75567
4 | 16:47.43 | 10:03.04 | 75568 | 120796
5 | 26:50.47 | 5:46.73 | 120797 | 146819
6 | 32:37.45 | 7:30.11 | 146820 | 180580
7 | 40:07.56 | 9:22.66 | 180581 | 222796
8 | 49:30.47 | 6:00.53 | 222797 | 249849
9 | 55:31.25 | 5:04.01 | 249850 | 272650
10 | 60:35.26 | 5:27.61 | 272651 | 297236
11 | 66:03.12 | 3:59.03 | 297237 | 315164


Track 1

Filename C:\EAC_working_dir\01. Prelude and Fugue No. 5 in D major, BWV 874.wav

Pre-gap length 0:00:02.00

Peak level 28.0 %
Extraction speed 5.3 X
Track quality 99.9 %
Test CRC F219DD98
Copy CRC F219DD98
Accurately ripped (confidence 13) [184BE35E] (AR v2)
Copy OK

Track 2

Filename C:\EAC_working_dir\02. Prelude and Fugue No. 24 in B minor, BWV 893.wav

Peak level 24.7 %
Extraction speed 5.5 X
Track quality 99.9 %
Test CRC 0227FA75
Copy CRC 0227FA75
Accurately ripped (confidence 13) [74D5C3AD] (AR v2)
Copy OK

Track 3

Filename C:\EAC_working_dir\03. Prelude and Fugue No. 23 in B major, BWV 892.wav

Peak level 28.6 %
Extraction speed 5.9 X
Track quality 99.9 %
Test CRC 37C86610
Copy CRC 37C86610
Accurately ripped (confidence 13) [D0471713] (AR v2)
Copy OK

Track 4

Filename C:\EAC_working_dir\04. Prelude and Fugue No. 8 in E-flat minor, BWV 853.wav

Peak level 33.9 %
Extraction speed 7.7 X
Track quality 100.0 %
Test CRC DC338AB1
Copy CRC DC338AB1
Accurately ripped (confidence 13) [C0D62D31] (AR v2)
Copy OK

Track 5

Filename C:\EAC_working_dir\05. Prelude and Fugue No. 17 in A-flat major, BWV 886.wav

Peak level 31.4 %
Extraction speed 8.1 X
Track quality 100.0 %
Test CRC 502ECE61
Copy CRC 502ECE61
Accurately ripped (confidence 13) [3C55F514] (AR v2)
Copy OK

Track 6

Filename C:\EAC_working_dir\06. Prelude and Fugue No. 20 in A minor, BWV 889.wav

Peak level 30.7 %
Extraction speed 8.8 X
Track quality 100.0 %
Test CRC 4FAAE73C
Copy CRC 4FAAE73C
Accurately ripped (confidence 13) [A9F80B9F] (AR v2)
Copy OK

Track 7

Filename C:\EAC_working_dir\07. Chromatic Fantasia and Fugue in D minor, BWV 903.wav

Peak level 40.1 %
Extraction speed 9.6 X
Track quality 100.0 %
Test CRC 3B51E5A3
Copy CRC 3B51E5A3
Accurately ripped (confidence 13) [52D9B0B4] (AR v2)
Copy OK

Track 8

Filename C:\EAC_working_dir\08. Fantasia in D minor, K. 397 (385g).wav

Peak level 64.2 %
Extraction speed 9.8 X
Track quality 100.0 %
Test CRC CD46CE21
Copy CRC CD46CE21
Accurately ripped (confidence 13) [CC123077] (AR v2)
Copy OK

Track 9

Filename C:\EAC_working_dir\09. Piano Sonata No. 18 in D major, K. 576 - I. Allegro.wav

Peak level 51.2 %
Extraction speed 10.0 X
Track quality 100.0 %
Test CRC 1970905A
Copy CRC 1970905A
Accurately ripped (confidence 13) [44F49B21] (AR v2)
Copy OK

Track 10

Filename C:\EAC_working_dir\10. Piano Sonata No. 18 in D major, K. 576 - II. Adagio.wav

Peak level 33.8 %
Extraction speed 10.4 X
Track quality 100.0 %
Test CRC EEEE3DCC
Copy CRC EEEE3DCC
Accurately ripped (confidence 13) [9A3225D2] (AR v2)
Copy OK

Track 11

Filename C:\EAC_working_dir\11. Piano Sonata No. 18 in D major, K. 576 - III. Allegretto.wav

Peak level 54.8 %
Extraction speed 9.0 X
Track quality 99.9 %
Test CRC 9314633E
Copy CRC 9314633E
Accurately ripped (confidence 13) [01CB5392] (AR v2)
Copy OK


All tracks accurately ripped

No errors occurred

End of status report

–– CUETools DB Plugin V2.2.5

[CTDB TOCID: .0N4RDc_xeJq3AfJYqs9IU22L10-] found
Submit result: .0N4RDc_xeJq3AfJYqs9IU22L10- has been confirmed
Track | CTDB Status
1 | (22/22) Accurately ripped
2 | (22/22) Accurately ripped
3 | (22/22) Accurately ripped
4 | (22/22) Accurately ripped
5 | (22/22) Accurately ripped
6 | (22/22) Accurately ripped
7 | (22/22) Accurately ripped
8 | (22/22) Accurately ripped
9 | (22/22) Accurately ripped
10 | (22/22) Accurately ripped
11 | (22/22) Accurately ripped


==== Log checksum 3CA2EB882410BA3B3E3E469FE14696E93CFC68B2D3E5DAC995C63D220127B9A9 ====
Exact Audio Copy V1.6 from 23. October 2020

EAC extraction logfile from 15. February 2024, 13:42

Friedrich Gulda, Ursula Anders, Günther Rabl / Friedrich Gulda: The Stuttgart Solo Recitals 1966-1979 (Disc 7 of 7)

Used drive : ASUS BW-16D1HT Adapter: 1 ID: 0

Read mode : Secure
Utilize accurate stream : Yes
Defeat audio cache : Yes
Make use of C2 pointers : No

Read offset correction : 6
Overread into Lead-In and Lead-Out : No
Fill up missing offset samples with silence : Yes
Delete leading and trailing silent blocks : No
Null samples used in CRC calculations : Yes
Used interface : Native Win32 interface for Win NT & 2000
Gap handling : Appended to previous track

Used output format : User Defined Encoder
Selected bitrate : 896 kBit/s
Quality : High
Add ID3 tag : No
Command line compressor : C:\Program Files (x86)\Exact Audio Copy\Flac\flac.exe
Additional command line options : -8 -V -T "ARTIST=%artist%" -T "TITLE=%title%" -T "ALBUM=%albumtitle%" -T "DATE=%year%" -T "TRACKNUMBER=%tracknr%" -T "GENRE=%genre%" -T "COMMENT=%comment%" -T "ALBUMARTIST=%albuminterpret%" -T "COMPOSER=%composer%" -T "DISCNUMBER=%cdnumber%" -T "TOTALDISCS=%totalcds%" -T "TOTALTRACKS=%numtracks%" %source% -o %dest%


TOC of the extracted CD

Track | Start | Length | Start sector | End sector
––––––––––––––––––––––––––––-
1 | 0:00.00 | 29:47.32 | 0 | 134056


Track 1

Filename C:\EAC_working_dir\01. Perspektive Nr. 1.wav

Pre-gap length 0:00:02.00

Peak level 63.8 %
Extraction speed 6.4 X
Track quality 100.0 %
Test CRC CFA0DB15
Copy CRC CFA0DB15
Accurately ripped (confidence 9) [5A9B1BAF] (AR v2)
Copy OK


All tracks accurately ripped

No errors occurred

End of status report

–– CUETools DB Plugin V2.2.5

[CTDB TOCID: LxrFOCtmsuA76tm58YQIpzpZqcM-] found
Submit result: LxrFOCtmsuA76tm58YQIpzpZqcM- has been confirmed
Track | CTDB Status
1 | (23/23) Accurately ripped


==== Log checksum A0FE5144AAAE06E80CC362360D42041A8AD1D42CE657E14A08A8CAEAE2477785 ====

Thanks to the Original ripper !