Subcategories

Gabor Szabo - Gabor Szabo In Budapest Again (2018) {Kept Alive Records KARCD014 rec 1978, 1981}

Posted By: ruskaval
Gabor Szabo - Gabor Szabo In Budapest Again (2018) {Kept Alive Records KARCD014 rec 1978, 1981}

Gabor Szabo - Gabor Szabo In Budapest Again (2018) {Kept Alive Records KARCD014 rec 1978, 1981}
EAC rip (secure mode) | FLAC (tracks)+CUE+LOG -> 310 Mb | MP3 @320 -> 121 Mb
Full Artwork @ 600 dpi (jpg) -> 11 Mb | 5% repair rar
© 1978, 1981, 2018 Moiras Records / Kept Alive Records | KAR CD 014
Jazz / Cool / Contemporary Jazz / Fusion / Guitar

Collection of unreleased Hungarian recordings of Gábor Szabó from 1978-81. Features tracks from a concert in Hotel Hilton, Budapest, in collaboration with Hungarian artists like Kati Bontovics, Gyula Babos, János Másik and István Lerch and his last recording titled 'From A Dream', recorded in the studio of the Hungarian TV.
Gabor Szabo - Gabor Szabo In Budapest Again (2018) {Kept Alive Records KARCD014 rec 1978, 1981}


Personnel
Szabó Gábor - guitar
Babos Gyula - guitar
Bontovics Kati - vocals
Dandó Péter - bass guitar
Dés László - tenor saxophone
Garai Attila - piano
Lerch István - keyboards
Kőszegi Imre - drums, percussion
Másik János - Fender piano
Sipos Endre - bass guitar
Solti János - drums, percussion

Track Listing
01 - Concorde
02 - Magic Mystic Faces
03 - Django Part 1
04 - Django Part 2
05 - Killing Me Softly
06 - The Last Song
07 - The Biz
08 - From A Dream

Exact Audio Copy V1.3 from 2. September 2016

EAC extraction logfile from 31. May 2018, 19:34

Szabó Gábor / Gabor Szabo In Budapest Again

Used drive : PLEXTOR PX-891SAF PLUS Adapter: 1 ID: 0

Read mode : Secure
Utilize accurate stream : Yes
Defeat audio cache : Yes
Make use of C2 pointers : No

Read offset correction : 6
Overread into Lead-In and Lead-Out : No
Fill up missing offset samples with silence : Yes
Delete leading and trailing silent blocks : No
Null samples used in CRC calculations : Yes
Used interface : Native Win32 interface for Win NT & 2000
Gap handling : Appended to previous track

Used output format : User Defined Encoder
Selected bitrate : 1024 kBit/s
Quality : High
Add ID3 tag : No
Command line compressor : C:\Program Files (x86)\Exact Audio Copy\Flac\flac.exe
Additional command line options : -0 -V -T "ARTIST=%artist%" -T "TITLE=%title%" -T "ALBUM=%albumtitle%" -T "DATE=%year%" -T "TRACKNUMBER=%tracknr%" -T "TOTALTRACKS=%numtracks%" -T "GENRE=%genre%" -T "COMMENT=Naftamusic Release!" %source%


TOC of the extracted CD

Track | Start | Length | Start sector | End sector
––––––––––––––––––––––––––––-
1 | 0:00.00 | 11:03.72 | 0 | 49796
2 | 11:03.72 | 9:11.48 | 49797 | 91169
3 | 20:15.45 | 3:57.74 | 91170 | 109018
4 | 24:13.44 | 6:12.65 | 109019 | 136983
5 | 30:26.34 | 4:55.44 | 136984 | 159152
6 | 35:22.03 | 5:52.63 | 159153 | 185615
7 | 41:14.66 | 4:44.60 | 185616 | 206975
8 | 45:59.51 | 5:07.27 | 206976 | 230027


Track 1

Filename E:\Nafta Releases\Szabó Gábor - Gabor Szabo In Budapest Again (2018)[FLAC] - Naftamusic\01 - Concorde.wav

Pre-gap length 0:00:02.00

Peak level 98.8 %
Extraction speed 3.3 X
Track quality 100.0 %
Test CRC 6E892C71
Copy CRC 6E892C71
Track not present in AccurateRip database
Copy OK

Track 2

Filename E:\Nafta Releases\Szabó Gábor - Gabor Szabo In Budapest Again (2018)[FLAC] - Naftamusic\02 - Magic Mystic Faces.wav

Peak level 98.8 %
Extraction speed 4.0 X
Track quality 100.0 %
Test CRC 10172B91
Copy CRC 10172B91
Track not present in AccurateRip database
Copy OK

Track 3

Filename E:\Nafta Releases\Szabó Gábor - Gabor Szabo In Budapest Again (2018)[FLAC] - Naftamusic\03 - Django Part 1.wav

Peak level 98.8 %
Extraction speed 4.0 X
Track quality 100.0 %
Test CRC DF5A0B23
Copy CRC DF5A0B23
Track not present in AccurateRip database
Copy OK

Track 4

Filename E:\Nafta Releases\Szabó Gábor - Gabor Szabo In Budapest Again (2018)[FLAC] - Naftamusic\04 - Django Part 2.wav

Peak level 98.8 %
Extraction speed 4.5 X
Track quality 100.0 %
Test CRC EE7517BB
Copy CRC EE7517BB
Track not present in AccurateRip database
Copy OK

Track 5

Filename E:\Nafta Releases\Szabó Gábor - Gabor Szabo In Budapest Again (2018)[FLAC] - Naftamusic\05 - Killing Me Softly.wav

Peak level 98.8 %
Extraction speed 4.7 X
Track quality 100.0 %
Test CRC A1227CD6
Copy CRC A1227CD6
Track not present in AccurateRip database
Copy OK

Track 6

Filename E:\Nafta Releases\Szabó Gábor - Gabor Szabo In Budapest Again (2018)[FLAC] - Naftamusic\06 - The Last Song.wav

Peak level 98.8 %
Extraction speed 5.0 X
Track quality 100.0 %
Test CRC 09C9AD1A
Copy CRC 09C9AD1A
Track not present in AccurateRip database
Copy OK

Track 7

Filename E:\Nafta Releases\Szabó Gábor - Gabor Szabo In Budapest Again (2018)[FLAC] - Naftamusic\07 - The Biz.wav

Peak level 98.8 %
Extraction speed 5.1 X
Track quality 100.0 %
Test CRC 2A6C9A2F
Copy CRC 2A6C9A2F
Track not present in AccurateRip database
Copy OK

Track 8

Filename E:\Nafta Releases\Szabó Gábor - Gabor Szabo In Budapest Again (2018)[FLAC] - Naftamusic\08 - From A Dream.wav

Peak level 98.8 %
Extraction speed 5.3 X
Track quality 100.0 %
Test CRC 237D9A67
Copy CRC 237D9A67
Track not present in AccurateRip database
Copy OK


None of the tracks are present in the AccurateRip database

No errors occurred

End of status report

==== Log checksum B079AD038B2FE6693D9C102B50F015A6208AF2B0AC1C38BED902F87B0EDB5632 ====


Gabor Szabo - Gabor Szabo In Budapest Again (2018) {Kept Alive Records KARCD014 rec 1978, 1981}

Gabor Szabo - Gabor Szabo In Budapest Again (2018) {Kept Alive Records KARCD014 rec 1978, 1981}



===