Subcategories
Tags
Language
Tags

Gary Burton - New Vibe Man In Town (1961) {RCA--American Jazz Classics 99046 rel 2012}

Posted By: ruskaval
Gary Burton - New Vibe Man In Town (1961) {RCA--American Jazz Classics 99046 rel 2012}

Gary Burton - New Vibe Man In Town (1961) {RCA–American Jazz Classics 99046 rel 2012}
EAC rip (secure mode) | FLAC (tracks)+CUE+LOG -> 428 Mb | MP3 @320 -> 158 Mb
Full Artwork @ 600 dpi (jpg) -> 297 Mb | 5% repair rar
© 1961, 2012 RCA Victor / Columbia / American Jazz Classics | 99046
Jazz / Cool / Third Stream / Post-Bop / Vibes

One of the preeminent vibraphonist's in jazz, this CD contains two complete LPs from the onset of Gary Burton’s career. The trio album New Vibe Man in Town marks Burton’s debut LP as a leader, while the quartet album Jazz Winds from a New Direction showcase the vibraphonist in collaboration with celebrated guitarist Hank Garland. Drummer Joe Morello is featured on both albums.
The word "New" in the title of this 1961 album is particularly relevant when talking about Gary Burton. He pioneered a new method of playing the vibraphone, using four mallets instead of two. The importance of this device can be measured by the fact that most vibes players nowadays use four mallets. Burton also devised a method of bending notes by means of clever handling of the mallets. So you could say that this was an epoch-making album.

As the title suggests, New Vibe Man in Town was Burton's debut album as a leader, and he was placed very much in the limelight by being accompanied simply by bass and drums. Mind you, the drummer is Joe Morello, who can be almost overbearing at times. For example, the opening of You Stepped Out of a Dream is ragged because Morello's fierce drums fail to cohere with Gary Burton's playing. Similarly Sir John begins with a bass solo from Gene Cherico before Morello enters and the drummer doesn't always match the rhythm of Cherico's bass.

But these are minor flaws in what is generally a magnificent album, showing off Gary Burton's talent: his dexterity and his unfailing swing. The use of four mallets might seem a mere gimmick but they enable Burton to play speedy strings of notes, and chords as well as single lines. His virtuosity is astonishing, especially considering that he was only 18 when he recorded this album. The review of this album in Down Beat magazine echoed Emperor Joseph's complaint about Mozart's The Marriage of Figaro - "too many notes". But Burton's artistry is enhanced, not diminished, by his dexterity.

Despite what I said above about Morello's drumming sometimes not fitting in with Burton, Joe swaps some very cogent fours and eights with the vibes. And Gene Cherico provides a sturdy base for the music. In fact ballads like Over the Rainbow and So Many Things are virtually duets between the bass and vibes.

A year before New Vibe Man in Town was recorded, Gary Burton joined guitarist Hank Garland for Jazz Winds from a New Direction, which is added as the last six tracks on this CD. Hank Garland was best known as a studio musician on country music sessions, but he was equally adept as a jazz player. Sadly, Garland's career was curtailed by a motoring accident in 1961. However, his agility equals Gary Burton's perfectly on these six tracks. Note, for instance, the way that the two men weave around each other in All the Things You Are and match one another's playing in the up-tempo Move. Joe Morello is again the drummer and he thrusts the music along energetically. He works well with bassist Joe Benjamin, his former colleague in the Dave Brubeck Quartet. Benjamin states the melody in Always, followed by an eloquent solo from Hank Garland. Gary Burton is absent from this track but he makes a fine impression in the following Riot-Chorus with a solo that unites sprightliness with swing.
Gary Burton - New Vibe Man In Town (1961) {RCA--American Jazz Classics 99046 rel 2012}


PERSONNEL:

[1-8] NEW VIB MAN IN TOWN (RCA-Victor (LSP 2420)


GARY BURTON, vibraphone
GENE CHERICO, bass
JOE MORELLO, drums
New York, July 6 & July 7, 1961.

[9-14] BONUS ALBUM : JAZZ WINDS FROM A NEW DIRECTION (Columbia CS 8372):

GARY BURTON, vibraphone
HANK GARLAND, guitar
JOE BENJAMIN, bass
JOE MORELLO, drums
Nashville, Tennessee, August 23, 1960

TRACKS:


01. JOY SPRING
02. OVER THE RAINBOW
03. LIKE SOMEONE IN LOVE
04. MINOR BLUES
05. OUR WALTZ
06. SO MANY THINGS
07. SIR JOHN
08. YOU STEPPED OUT OF A DREAM
09. ALL THE THINGS YOU ARE
10. THREE-FOUR, THE BLUES
11. MOVE
12. ALWAYS
13. RIOT-CHORUS
14. RELAXING

Exact Audio Copy V1.3 from 2. September 2016

EAC extraction logfile from 24. March 2019, 11:12

Gary Burton / New Vibe Man In Town

Used drive : ATAPI iHAS122 F Adapter: 1 ID: 0

Read mode : Secure
Utilize accurate stream : Yes
Defeat audio cache : Yes
Make use of C2 pointers : No

Read offset correction : 6
Overread into Lead-In and Lead-Out : No
Fill up missing offset samples with silence : Yes
Delete leading and trailing silent blocks : No
Null samples used in CRC calculations : Yes
Used interface : Native Win32 interface for Win NT & 2000
Gap handling : Appended to previous track

Used output format : User Defined Encoder
Selected bitrate : 1024 kBit/s
Quality : High
Add ID3 tag : No
Command line compressor : C:\Program Files (x86)\Exact Audio Copy_v1.3\Flac\flac.exe
Additional command line options : -8 -V -T "ARTIST=%artist%" -T "TITLE=%title%" -T "ALBUM=%albumtitle%" -T "DATE=%year%" -T "TRACKNUMBER=%tracknr%" -T "TOTALTRACKS=%numtracks%" -T "GENRE=%genre%" -T "ALBUMARTIST=%albumartist%" -T "ALBUM ARTIST=%albumartist%" -T "COMMENT=EAC Secure Mode, Test & Copy, AccurateRip, FLAC -8" %source%


TOC of the extracted CD

Track | Start | Length | Start sector | End sector
––––––––––––––––––––––––––––-
1 | 0:00.00 | 3:43.38 | 0 | 16762
2 | 3:43.38 | 4:24.57 | 16763 | 36619
3 | 8:08.20 | 3:08.10 | 36620 | 50729
4 | 11:16.30 | 5:33.19 | 50730 | 75723
5 | 16:49.49 | 4:33.38 | 75724 | 96236
6 | 21:23.12 | 4:17.10 | 96237 | 115521
7 | 25:40.22 | 4:13.57 | 115522 | 134553
8 | 29:54.04 | 4:31.10 | 134554 | 154888
9 | 34:25.14 | 4:29.19 | 154889 | 175082
10 | 38:54.33 | 4:01.19 | 175083 | 193176
11 | 42:55.52 | 4:28.47 | 193177 | 213323
12 | 47:24.24 | 4:35.10 | 213324 | 233958
13 | 51:59.34 | 7:53.38 | 233959 | 269471
14 | 59:52.72 | 6:10.38 | 269472 | 297259


Track 1

Filename F:\_EAC\Gary Burton - New Vibe Man In Town (1961) [FLAC] {American Jazz Classics 99046 rel 2012}\01 - Joy Spring.wav

Pre-gap length 0:00:02.00

Peak level 92.2 %
Extraction speed 4.8 X
Track quality 100.0 %
Test CRC 376943B1
Copy CRC 376943B1
Accurately ripped (confidence 3) [E49D6DE2] (AR v2)
Copy OK

Track 2

Filename F:\_EAC\Gary Burton - New Vibe Man In Town (1961) [FLAC] {American Jazz Classics 99046 rel 2012}\02 - Over The Rainbow.wav

Peak level 92.2 %
Extraction speed 5.3 X
Track quality 100.0 %
Test CRC CBB63B4B
Copy CRC CBB63B4B
Accurately ripped (confidence 3) [9750B988] (AR v2)
Copy OK

Track 3

Filename F:\_EAC\Gary Burton - New Vibe Man In Town (1961) [FLAC] {American Jazz Classics 99046 rel 2012}\03 - Like Someone In Love.wav

Peak level 92.2 %
Extraction speed 5.3 X
Track quality 100.0 %
Test CRC 5BCF8907
Copy CRC 5BCF8907
Accurately ripped (confidence 3) [50DEED05] (AR v2)
Copy OK

Track 4

Filename F:\_EAC\Gary Burton - New Vibe Man In Town (1961) [FLAC] {American Jazz Classics 99046 rel 2012}\04 - Minor Blues.wav

Peak level 92.2 %
Extraction speed 6.2 X
Track quality 100.0 %
Test CRC DE856D42
Copy CRC DE856D42
Accurately ripped (confidence 3) [676E448B] (AR v2)
Copy OK

Track 5

Filename F:\_EAC\Gary Burton - New Vibe Man In Town (1961) [FLAC] {American Jazz Classics 99046 rel 2012}\05 - Our Waltz.wav

Peak level 92.2 %
Extraction speed 6.5 X
Track quality 100.0 %
Test CRC FCCEF6E7
Copy CRC FCCEF6E7
Accurately ripped (confidence 3) [622E2405] (AR v2)
Copy OK

Track 6

Filename F:\_EAC\Gary Burton - New Vibe Man In Town (1961) [FLAC] {American Jazz Classics 99046 rel 2012}\06 - So Many Things.wav

Peak level 92.2 %
Extraction speed 6.8 X
Track quality 100.0 %
Test CRC 6F97F706
Copy CRC 6F97F706
Accurately ripped (confidence 3) [77B37523] (AR v2)
Copy OK

Track 7

Filename F:\_EAC\Gary Burton - New Vibe Man In Town (1961) [FLAC] {American Jazz Classics 99046 rel 2012}\07 - Sir John.wav

Peak level 92.2 %
Extraction speed 7.1 X
Track quality 100.0 %
Test CRC F8E939EF
Copy CRC F8E939EF
Accurately ripped (confidence 3) [BEB9DEE8] (AR v2)
Copy OK

Track 8

Filename F:\_EAC\Gary Burton - New Vibe Man In Town (1961) [FLAC] {American Jazz Classics 99046 rel 2012}\08 - You Stepped Out Of A Dream.wav

Peak level 92.2 %
Extraction speed 7.4 X
Track quality 100.0 %
Test CRC 3BE7190A
Copy CRC 3BE7190A
Accurately ripped (confidence 3) [33696EDF] (AR v2)
Copy OK

Track 9

Filename F:\_EAC\Gary Burton - New Vibe Man In Town (1961) [FLAC] {American Jazz Classics 99046 rel 2012}\09 - All The Things You Are.wav

Peak level 92.2 %
Extraction speed 6.5 X
Track quality 99.9 %
Test CRC EE6579E2
Copy CRC EE6579E2
Accurately ripped (confidence 3) [A3B246F8] (AR v2)
Copy OK

Track 10

Filename F:\_EAC\Gary Burton - New Vibe Man In Town (1961) [FLAC] {American Jazz Classics 99046 rel 2012}\10 - Three-Four, The Blues.wav

Peak level 92.2 %
Extraction speed 7.8 X
Track quality 100.0 %
Test CRC 96F7CB18
Copy CRC 96F7CB18
Accurately ripped (confidence 3) [267E97DA] (AR v2)
Copy OK

Track 11

Filename F:\_EAC\Gary Burton - New Vibe Man In Town (1961) [FLAC] {American Jazz Classics 99046 rel 2012}\11 - Move.wav

Peak level 92.2 %
Extraction speed 8.3 X
Track quality 100.0 %
Test CRC 2E88E992
Copy CRC 2E88E992
Accurately ripped (confidence 3) [0DBDB2B4] (AR v2)
Copy OK

Track 12

Filename F:\_EAC\Gary Burton - New Vibe Man In Town (1961) [FLAC] {American Jazz Classics 99046 rel 2012}\12 - Always.wav

Peak level 84.6 %
Extraction speed 8.5 X
Track quality 100.0 %
Test CRC 2A6EB211
Copy CRC 2A6EB211
Accurately ripped (confidence 3) [471AB848] (AR v2)
Copy OK

Track 13

Filename F:\_EAC\Gary Burton - New Vibe Man In Town (1961) [FLAC] {American Jazz Classics 99046 rel 2012}\13 - Riot-Chorus.wav

Peak level 92.2 %
Extraction speed 9.3 X
Track quality 100.0 %
Test CRC 47431A0A
Copy CRC 47431A0A
Accurately ripped (confidence 3) [3EA2D350] (AR v2)
Copy OK

Track 14

Filename F:\_EAC\Gary Burton - New Vibe Man In Town (1961) [FLAC] {American Jazz Classics 99046 rel 2012}\14 - Relaxing.wav

Peak level 92.2 %
Extraction speed 8.2 X
Track quality 99.9 %
Test CRC 08D4E005
Copy CRC 08D4E005
Accurately ripped (confidence 3) [E22C2F70] (AR v2)
Copy OK


All tracks accurately ripped

No errors occurred

End of status report

–– CUETools DB Plugin V2.1.6

[CTDB TOCID: 77A9UiowQqn7iWykGAa2o9hnoRw-] found
Submit result: 77A9UiowQqn7iWykGAa2o9hnoRw- has been confirmed
Track | CTDB Status
1 | (12/12) Accurately ripped
2 | (12/12) Accurately ripped
3 | (12/12) Accurately ripped
4 | (12/12) Accurately ripped
5 | (12/12) Accurately ripped
6 | (12/12) Accurately ripped
7 | (12/12) Accurately ripped
8 | (12/12) Accurately ripped
9 | (12/12) Accurately ripped
10 | (12/12) Accurately ripped
11 | (12/12) Accurately ripped
12 | (12/12) Accurately ripped
13 | (12/12) Accurately ripped
14 | (12/12) Accurately ripped


==== Log checksum AEB305F79603A7BE57194329F36761B826B227D9D48530726B3C26F1BAA3D1AE ====


Gary Burton - New Vibe Man In Town (1961) {RCA--American Jazz Classics 99046 rel 2012}

Gary Burton - New Vibe Man In Town (1961) {RCA--American Jazz Classics 99046 rel 2012}



===