Subcategories

Ghost-Note - Swagism (2018)

Posted By: delpotro
Ghost-Note - Swagism (2018)

Ghost-Note - Swagism (2018)
EAC Rip | FLAC (tracks+log+.cue) - 570 Mb | MP3 CBR 320 kbps - 218 Mb | 01:34:58
Jazz Fusion, Jazz-Funk | Label: Ropeadope Records

Headed by Snarky Puppy’s multi-Grammy–winning percussion duo of Robert “Sput” Searight and Nate Werth, Ghost-Note is an explosion of sound. With an expansive roster of next-level musicians—representing members of Prince, Snoop Dogg, Erykah Badu, Herbie Hancock, Kendrick Lamar, Marcus Miller, Toto, Justin Timberlake, and more—the band is pushing funk music into the future, building on the uplifting, pioneering foundations laid out by the likes of James Brown and Sly & The Family Stone and infusing their fresh take with tastes of afrobeat, hip-hop, psychedelia, world folklore, and more.

With the release of 2018’s Swagism, Ghost-Note has made their mission clear. The album puts rhythm at the forefront, with irresistible, heavy-hitting beats underlying the group’s wild, rich music. Featuring numerous guest collaborators, including Kamasi Washington, Karl Denson, Bobby Sparks, Nigel Hall, Taz, and others, Swagism showcases the band’s stunning ability to meld and amplify sounds, ultimately adding to Ghost-Note’s sharp, complex collaborations.

Fearless, both in Swagism’s sonic depth and conscious social commentary, the band easily translates this adventurousness in a live setting. Ghost-Note’s live performances are bold and in your face, with the group offering up none of the tight-laced pretenses frequently associated with the band’s jazz roots. Focused on creating seductive danceable grooves and a contagious feel-good energy, each show is an opportunity to let loose and connect, for both fans and the musicians alike.

After forming in 2015, Ghost-Note has already begun to take the world by storm. The group’s two studio albums—2018’s Swagism and 2015’s Fortified—have earned critical acclaim and popular success around the globe, with both albums hitting the #1 spot on the iTunes Jazz Charts. Furthermore, the ever-growing family of musicians has mounted successful headlining tours in the United States, Europe, Australia, NEW ZEALAND, Canada, and Japan and performed at high-profile international music festivals and events across the globe.
Tracklist:
1. Jibble Jabble (01:53)
2. Swagism (04:08)
3. Pace Maker (06:48)
4. Fragile (06:59)
5. Weedie B. Good (07:55)
6. Milkshake (05:05)
7. Smack 'em (08:19)
8. Lookin' at the World (04:04)
9. Shrill Tones (07:30)
10. Dry Rub (05:51)
11. Bawllz (05:39)
12. No More Silence (05:10)
13. What's Next? (04:24)
14. Funk You Muthafunka (03:19)
15. Nod to Dilla (03:22)
16. The Lone Angel (04:22)
17. Nigel Duke (03:50)
18. Trifelife (06:20)

Exact Audio Copy V1.3 from 2. September 2016

EAC extraction logfile from 21. November 2019, 0:41

Ghost-Note / Swagism

Used drive : TSSTcorpDVD+-RW TS-T633C Adapter: 1 ID: 0

Read mode : Secure
Utilize accurate stream : Yes
Defeat audio cache : Yes
Make use of C2 pointers : No

Read offset correction : 6
Overread into Lead-In and Lead-Out : No
Fill up missing offset samples with silence : Yes
Delete leading and trailing silent blocks : No
Null samples used in CRC calculations : Yes
Used interface : Native Win32 interface for Win NT & 2000
Gap handling : Appended to previous track

Used output format : User Defined Encoder
Selected bitrate : 1024 kBit/s
Quality : High
Add ID3 tag : No
Command line compressor : C:\Program Files (x86)\Exact Audio Copy\Flac\flac.exe
Additional command line options : -8 -e -p -V -T "ARTIST=%artist%" -T "TITLE=%title%" -T "ALBUM=%albumtitle%" -T "DATE=%year%" -T "TRACKNUMBER=%tracknr%" -T "GENRE=%genre%" -T "PERFORMER=%albuminterpret%" -T "COMPOSER=%composer%" %haslyrics%–tag-from-file=LYRICS="%lyricsfile%"%haslyrics% -T "ALBUMARTIST=%albumartist%" -T "DISCNUMBER=%cdnumber%" -T "TOTALDISCS=%totalcds%" -T "TOTALTRACKS=%numtracks%" -T "COMMENT=%comment%" %source% -o %dest%


TOC of the extracted CD

Track | Start | Length | Start sector | End sector
––––––––––––––––––––––––––––-
1 | 0:00.00 | 1:52.67 | 0 | 8466
2 | 1:52.67 | 4:08.26 | 8467 | 27092
3 | 6:01.18 | 6:48.13 | 27093 | 57705
4 | 12:49.31 | 6:59.34 | 57706 | 89164
5 | 19:48.65 | 7:55.03 | 89165 | 124792
6 | 27:43.68 | 5:04.55 | 124793 | 147647
7 | 32:48.48 | 8:19.31 | 147648 | 185103
8 | 41:08.04 | 4:04.17 | 185104 | 203420
9 | 45:12.21 | 7:30.05 | 203421 | 237175


Track 1

Filename F:\EAC Rips\Ghost-Note - Swagism (2018) [FLAC] {Rodeadope}\Disc 1\01 - Jibble Jabble.wav

Pre-gap length 0:00:02.00

Peak level 100.0 %
Extraction speed 1.6 X
Track quality 99.9 %
Test CRC 023BCA24
Copy CRC 023BCA24
Accurately ripped (confidence 2) [D9A741DF] (AR v2)
Copy OK

Track 2

Filename F:\EAC Rips\Ghost-Note - Swagism (2018) [FLAC] {Rodeadope}\Disc 1\02 - Swagism.wav

Peak level 100.0 %
Extraction speed 2.3 X
Track quality 99.9 %
Test CRC 32FC9AEB
Copy CRC 32FC9AEB
Accurately ripped (confidence 2) [C7718626] (AR v2)
Copy OK

Track 3

Filename F:\EAC Rips\Ghost-Note - Swagism (2018) [FLAC] {Rodeadope}\Disc 1\03 - Pace Maker.wav

Peak level 100.0 %
Extraction speed 3.3 X
Track quality 100.0 %
Test CRC CCA788E4
Copy CRC CCA788E4
Accurately ripped (confidence 2) [348C549C] (AR v2)
Copy OK

Track 4

Filename F:\EAC Rips\Ghost-Note - Swagism (2018) [FLAC] {Rodeadope}\Disc 1\04 - Fragile.wav

Peak level 100.0 %
Extraction speed 3.7 X
Track quality 100.0 %
Test CRC C1477E01
Copy CRC C1477E01
Accurately ripped (confidence 2) [7C39C0BE] (AR v2)
Copy OK

Track 5

Filename F:\EAC Rips\Ghost-Note - Swagism (2018) [FLAC] {Rodeadope}\Disc 1\05 - Weedie B. Good.wav

Peak level 100.0 %
Extraction speed 4.2 X
Track quality 100.0 %
Test CRC 6CBC6ED8
Copy CRC 6CBC6ED8
Accurately ripped (confidence 2) [AFC5ACAB] (AR v2)
Copy OK

Track 6

Filename F:\EAC Rips\Ghost-Note - Swagism (2018) [FLAC] {Rodeadope}\Disc 1\06 - Milkshake.wav

Peak level 100.0 %
Extraction speed 4.3 X
Track quality 100.0 %
Test CRC 96C0D4D5
Copy CRC 96C0D4D5
Accurately ripped (confidence 2) [2E1F38CE] (AR v2)
Copy OK

Track 7

Filename F:\EAC Rips\Ghost-Note - Swagism (2018) [FLAC] {Rodeadope}\Disc 1\07 - Smack 'Em.wav

Peak level 100.0 %
Extraction speed 4.7 X
Track quality 100.0 %
Test CRC B1272A68
Copy CRC B1272A68
Accurately ripped (confidence 2) [B0B32016] (AR v2)
Copy OK

Track 8

Filename F:\EAC Rips\Ghost-Note - Swagism (2018) [FLAC] {Rodeadope}\Disc 1\08 - Lookin' at the World.wav

Peak level 100.0 %
Extraction speed 4.7 X
Track quality 100.0 %
Test CRC 411D2FA0
Copy CRC 411D2FA0
Accurately ripped (confidence 2) [3106AA2A] (AR v2)
Copy OK

Track 9

Filename F:\EAC Rips\Ghost-Note - Swagism (2018) [FLAC] {Rodeadope}\Disc 1\09 - Shrill Tones.wav

Peak level 100.0 %
Extraction speed 5.2 X
Track quality 100.0 %
Test CRC 529FACDD
Copy CRC 529FACDD
Accurately ripped (confidence 2) [5DCB33C7] (AR v2)
Copy OK


All tracks accurately ripped

No errors occurred

End of status report

–– CUETools DB Plugin V2.1.6

[CTDB TOCID: y8x6Icat1wLt7v2UGl6szdZEWZ8-] found
Submit result: y8x6Icat1wLt7v2UGl6szdZEWZ8- has been confirmed
Track | CTDB Status
1 | (16/16) Accurately ripped
2 | (16/16) Accurately ripped
3 | (16/16) Accurately ripped
4 | (16/16) Accurately ripped
5 | (16/16) Accurately ripped
6 | (16/16) Accurately ripped
7 | (16/16) Accurately ripped
8 | (16/16) Accurately ripped
9 | (16/16) Accurately ripped


==== Log checksum FDAAAE12E9EEEE3816F0DCD17AFF2FBDD30AC6165F23FDCA923BC77EC807D9C3 ====
Exact Audio Copy V1.3 from 2. September 2016

EAC extraction logfile from 21. November 2019, 1:25

Ghost-Note / Swagism

Used drive : TSSTcorpDVD+-RW TS-T633C Adapter: 1 ID: 0

Read mode : Secure
Utilize accurate stream : Yes
Defeat audio cache : Yes
Make use of C2 pointers : No

Read offset correction : 6
Overread into Lead-In and Lead-Out : No
Fill up missing offset samples with silence : Yes
Delete leading and trailing silent blocks : No
Null samples used in CRC calculations : Yes
Used interface : Native Win32 interface for Win NT & 2000
Gap handling : Appended to previous track

Used output format : User Defined Encoder
Selected bitrate : 1024 kBit/s
Quality : High
Add ID3 tag : No
Command line compressor : C:\Program Files (x86)\Exact Audio Copy\Flac\flac.exe
Additional command line options : -8 -e -p -V -T "ARTIST=%artist%" -T "TITLE=%title%" -T "ALBUM=%albumtitle%" -T "DATE=%year%" -T "TRACKNUMBER=%tracknr%" -T "GENRE=%genre%" -T "PERFORMER=%albuminterpret%" -T "COMPOSER=%composer%" %haslyrics%–tag-from-file=LYRICS="%lyricsfile%"%haslyrics% -T "ALBUMARTIST=%albumartist%" -T "DISCNUMBER=%cdnumber%" -T "TOTALDISCS=%totalcds%" -T "TOTALTRACKS=%numtracks%" -T "COMMENT=%comment%" %source% -o %dest%


TOC of the extracted CD

Track | Start | Length | Start sector | End sector
––––––––––––––––––––––––––––-
1 | 0:00.00 | 5:50.50 | 0 | 26299
2 | 5:50.50 | 5:39.31 | 26300 | 51755
3 | 11:30.06 | 5:09.48 | 51756 | 74978
4 | 16:39.54 | 4:23.52 | 74979 | 94755
5 | 21:03.31 | 3:18.55 | 94756 | 109660
6 | 24:22.11 | 3:21.63 | 109661 | 124798
7 | 27:43.74 | 4:22.29 | 124799 | 144477
8 | 32:06.28 | 3:49.54 | 144478 | 161706
9 | 35:56.07 | 6:20.21 | 161707 | 190227


Track 1

Filename F:\EAC Rips\Ghost-Note - Swagism (2018) [FLAC] {Rodeadope}\Disc 2\01 - Dry Rub.wav

Pre-gap length 0:00:02.00

Peak level 100.0 %
Extraction speed 2.8 X
Track quality 100.0 %
Test CRC 884BABFD
Copy CRC 884BABFD
Accurately ripped (confidence 1) [62CD06BB] (AR v2)
Copy OK

Track 2

Filename F:\EAC Rips\Ghost-Note - Swagism (2018) [FLAC] {Rodeadope}\Disc 2\02 - Bawllz.wav

Peak level 100.0 %
Extraction speed 3.2 X
Track quality 100.0 %
Test CRC 42695524
Copy CRC 42695524
Accurately ripped (confidence 2) [2511C60A] (AR v2)
Copy OK

Track 3

Filename F:\EAC Rips\Ghost-Note - Swagism (2018) [FLAC] {Rodeadope}\Disc 2\03 - No More Silence.wav

Peak level 100.0 %
Extraction speed 3.5 X
Track quality 100.0 %
Test CRC 0044C13A
Copy CRC 0044C13A
Accurately ripped (confidence 2) [C632A708] (AR v2)
Copy OK

Track 4

Filename F:\EAC Rips\Ghost-Note - Swagism (2018) [FLAC] {Rodeadope}\Disc 2\04 - What's Next.wav

Peak level 100.0 %
Extraction speed 3.7 X
Track quality 100.0 %
Test CRC 007C3C97
Copy CRC 007C3C97
Accurately ripped (confidence 2) [04805E7B] (AR v2)
Copy OK

Track 5

Filename F:\EAC Rips\Ghost-Note - Swagism (2018) [FLAC] {Rodeadope}\Disc 2\05 - Funk You Muthafunka.wav

Peak level 100.0 %
Extraction speed 3.7 X
Track quality 100.0 %
Test CRC 714B8AE9
Copy CRC 714B8AE9
Accurately ripped (confidence 2) [2E07C975] (AR v2)
Copy OK

Track 6

Filename F:\EAC Rips\Ghost-Note - Swagism (2018) [FLAC] {Rodeadope}\Disc 2\06 - Nod to Dilla.wav

Peak level 100.0 %
Extraction speed 3.0 X
Track quality 99.9 %
Test CRC D7A2F237
Copy CRC D7A2F237
Accurately ripped (confidence 2) [C632DF29] (AR v2)
Copy OK

Track 7

Filename F:\EAC Rips\Ghost-Note - Swagism (2018) [FLAC] {Rodeadope}\Disc 2\07 - The Lone Angel.wav

Peak level 100.0 %
Extraction speed 4.2 X
Track quality 100.0 %
Test CRC DE5FAD59
Copy CRC DE5FAD59
Accurately ripped (confidence 2) [2D483ECE] (AR v2)
Copy OK

Track 8

Filename F:\EAC Rips\Ghost-Note - Swagism (2018) [FLAC] {Rodeadope}\Disc 2\08 - Nigel Duke.wav

Peak level 100.0 %
Extraction speed 3.4 X
Track quality 99.9 %
Test CRC C15B93AA
Copy CRC C15B93AA
Accurately ripped (confidence 2) [1BB9FF5B] (AR v2)
Copy OK

Track 9

Filename F:\EAC Rips\Ghost-Note - Swagism (2018) [FLAC] {Rodeadope}\Disc 2\09 - Trifelife.wav

Peak level 100.0 %
Extraction speed 4.7 X
Track quality 100.0 %
Test CRC 59960560
Copy CRC 59960560
Accurately ripped (confidence 2) [33C5074C] (AR v2)
Copy OK


All tracks accurately ripped

No errors occurred

End of status report

–– CUETools DB Plugin V2.1.6

[CTDB TOCID: bkd1lJ.Pt9FM5CUKxB4OELcbjdY-] found
Submit result: bkd1lJ.Pt9FM5CUKxB4OELcbjdY- has been confirmed
Track | CTDB Status
1 | (14/16) Accurately ripped, or (1/16) differs in 10 samples @00:52:19,00:52:38,00:54:46, or (1/16) differs in 21 samples @02:10:36
2 | (16/16) Accurately ripped
3 | (16/16) Accurately ripped
4 | (16/16) Accurately ripped
5 | (16/16) Accurately ripped
6 | (16/16) Accurately ripped
7 | (16/16) Accurately ripped
8 | (15/16) Accurately ripped
9 | (15/16) Accurately ripped


==== Log checksum BD44BA75B1A57A04C1DBD2BFA2A0C0D43D5FC40B744D4C8F9C5EFF9C80CD4B76 ====

Thanks to the Original ripper !