Subcategories
Tags
Language
Tags

Gil Evans - Tokyo Concert 1976 (2010) {Japan Studio Songs Remaster, YZSO-10013}

Posted By: ruskaval
Gil Evans - Tokyo Concert 1976 (2010) {Japan Studio Songs Remaster, YZSO-10013}

Gil Evans - Tokyo Concert 1976 (2010) {Japan Studio Songs Remaster, YZSO-10013}
EAC rip (secure mode) | FLAC (tracks)+CUE+LOG -> 203 Mb | MP3 @320 -> 84 Mb | Artwork | 5% repair rar
© 1976, 2010 Studio Songs Japan | YZSO-10033
Jazz / Progressive Jazz / Post Bop

Reissue release from Gil Evans featuring his performance at Nakano Sun Plaza Hall in Tokyo on May 24 and June 8, 1976. Remastered by Ryo Kawasaki. A typical Gil Evans set - none the worse for that - but a slightly short album at 34 minutes. This is the first official release approved by Gil's widow Anita Evans. Ryo Kawasaki, who appears as a soloist on this album, is being remastered.
Gil Evans - Tokyo Concert 1976 (2010) {Japan Studio Songs Remaster, YZSO-10013}


Personnel:

The Gil Evans Orchestra

Lew Soloff - trumpet
Kunitoshi Shinohara - trumpet
Tom Malone - trombone, synthesizer
Pete Levin - French horn, synthesizer, organ
Bob Stewart - tuba
George Adams - tenor saxophone, flute
Kohsuke Mine - tenor saxophone
Gil Evans - piano, electric piano, arranger
Ryo Kawasaki, Keith Loving - guitar
Jeff Berlin - bass
Warren Smith - percussion
Sue Evans - drums

Recorded at the Nakano Sun Plaza, Tokyo on May 24 - June 8, 1976.

Track Listing:

01. Amanda
02. Orange Lady… (Orange Was the Colour of Her Dress)
03. Stratusphunk

Exact Audio Copy V1.0 beta 3 from 29. August 2011

EAC extraction logfile from 28. July 2013, 21:09

Gil Evans / Tokyo Concert

Used drive : HL-DT-STDVDRAM GH24NS50 Adapter: 2 ID: 1

Read mode : Secure
Utilize accurate stream : Yes
Defeat audio cache : Yes
Make use of C2 pointers : No

Read offset correction : 667
Overread into Lead-In and Lead-Out : No
Fill up missing offset samples with silence : Yes
Delete leading and trailing silent blocks : No
Null samples used in CRC calculations : Yes
Used interface : Native Win32 interface for Win NT & 2000
Gap handling : Appended to previous track

Used output format : User Defined Encoder
Selected bitrate : 1024 kBit/s
Quality : High
Add ID3 tag : No
Command line compressor : D:\Program Files\FLAC\flac.exe
Additional command line options : -8 -V -T "ARTIST=%artist%" -T "TITLE=%title%" -T "ALBUM=%albumtitle%" -T "DATE=%year%" -T "TRACKNUMBER=%tracknr%" -T "GENRE=%genre%" -T "PERFORMER=%albuminterpret%" -T "COMPOSER=%composer%" %haslyrics%–tag-from-file=LYRICS="%lyricsfile%"%haslyrics% -T "ALBUMARTIST=%albumartist%" -T "DISCNUMBER=%cdnumber%" -T "TOTALDISCS=%totalcds%" -T "TOTALTRACKS=%numtracks%" -T "COMMENT=%comment%" %source% -o %dest%


TOC of the extracted CD

Track | Start | Length | Start sector | End sector
––––––––––––––––––––––––––––-
1 | 0:00.00 | 11:29.12 | 0 | 51686
2 | 11:29.12 | 7:06.24 | 51687 | 83660
3 | 18:35.36 | 15:49.30 | 83661 | 154865


Track 1

Filename D:\01 - Amanda.wav

Pre-gap length 0:00:02.00

Peak level 98.8 %
Extraction speed 1.4 X
Track quality 100.0 %
Test CRC 952F4096
Copy CRC 952F4096
Accurately ripped (confidence 1) [0447C0C1] (AR v1)
Copy OK

Track 2

Filename D:\02 - Orange Lady ….wav

Peak level 98.8 %
Extraction speed 1.7 X
Track quality 100.0 %
Test CRC F553E493
Copy CRC F553E493
Accurately ripped (confidence 1) [907F1EAC] (AR v1)
Copy OK

Track 3

Filename D:\03 - Stratusphunk.wav

Peak level 98.8 %
Extraction speed 2.1 X
Track quality 100.0 %
Test CRC 019BA194
Copy CRC 019BA194
Accurately ripped (confidence 1) [5992285F] (AR v1)
Copy OK


All tracks accurately ripped

No errors occurred

End of status report

–– CUETools DB Plugin V2.1.3

[CTDB TOCID: wrUuEUTEd3XK96Y.Pxlp16utnsg-] found, Submit result: already submitted
[ef6e968a] (1/1) Accurately ripped


==== Log checksum 7E6E5104D5AA9F48F1945D01D61126C06CDAE9FE57A479B153B5097EFFEC1FC1 ====


Gil Evans - Tokyo Concert 1976 (2010) {Japan Studio Songs Remaster, YZSO-10013}


see more Japan YZSO Series…


===