Gilberto Gil - BandaDois (2009) {Warner Music 2564684258}

Posted By: ruskaval
Gilberto Gil - BandaDois (2009) {Warner Music 2564684258}

Gilberto Gil - BandaDois (2009) {Warner Music 2564684258}
EAC rip (secure mode) | FLAC (tracks)+CUE+LOG -> 360 Mb | MP3 @320 -> 161 Mb
Full Artwork @ 300 dpi (png) -> 13 Mb | 5% repair rar
© 2009 Warner Music Brasil / Warner Music Argentina / Geléia Geral | 2564684258
Música popular brasileira / MPB / Brazilian Traditions / Brazilian Pop / Worl Music

Brazil's former minister of culture is enjoying himself. Freed from the constraints of office, the country's best-known singer-songwriter is clearly determined to show that his voice, guitar work and range are as impressive as ever. His last studio album, Banda Larga Cordel, showed he was still willing to experiment, and this new live set is a further reminder of his ability to develop. His lengthy career has included playing a key role in the rock-influenced Tropicália movement, the establishment of a Brazilian reggae scene, and excursions into anything from forró to electronica. On this album he is backed by his own acoustic guitar, with just a little help from his sons Bem and José, adding additional guitar, percussion and occasional bass.

There is just one guest appearance, from Maria Rita, reviving the breezy Amor Até o Fim, a song by Gil once recorded by Maria Rita's remarkable mother, Elis Regina. For the most part, it's an exuberant solo set in which Gil reworks anything from Dorival Caymmi's lilting Saudade da Bahia to Jackson do Pandeiro's Chiclete Com Banana, with his own compositions ranging from the recent and thoughtful La Renaissance Africaine to the cheerful sing-along Expresso 2222, first recorded when he was exiled to London by the Brazilian military authorities in 1969.

tracklist:
01 - Esoterico
02 - A Linha e o Linho
03 - Superhomem - A Cancao
04 - Saudade da Bahia
05 - Chiclete com Banana
06 - Das Duas, Uma
07 - Quatro Coisas
08 - Amor Ate o Fim
09 - Lamento Sertanejo (Forro do Dominguinho)
10 - O Rouxinol
11 - Refazenda
12 - Banda Um
13 - La Renaissance Africaine
14 - Refavela
15 - Baba Alapala
16 - Expresso 2222

Exact Audio Copy V1.0 beta 3 from 29. August 2011

EAC extraction logfile from 15. August 2015, 2:16

Gilberto Gil / Bandadois

Used drive : TSSTcorpCDDVDW SH-S203N Adapter: 4 ID: 3

Read mode : Secure
Utilize accurate stream : Yes
Defeat audio cache : Yes
Make use of C2 pointers : No

Read offset correction : 6
Overread into Lead-In and Lead-Out : No
Fill up missing offset samples with silence : Yes
Delete leading and trailing silent blocks : No
Null samples used in CRC calculations : Yes
Used interface : Installed external ASPI interface
Gap handling : Appended to previous track

Used output format : User Defined Encoder
Selected bitrate : 1024 kBit/s
Quality : High
Add ID3 tag : No
Command line compressor : C:\Program Files (x86)\Exact Audio Copy\flac.exe
Additional command line options : -8 -V -T "ARTIST=%artist%" -T "TITLE=%title%" -T "ALBUM=%albumtitle%" -T "DATE=%year%" -T "TRACKNUMBER=%tracknr%" -T "TOTALTRACKS=%numtracks%" -T "GENRE=%genre%" -T "ALBUMARTIST=%albumartist%" -T "ALBUM ARTIST=%albumartist%" -T "COMPOSER=%composer%" -T "COMMENT=EAC, FLAC -8" %source%


TOC of the extracted CD

Track | Start | Length | Start sector | End sector
––––––––––––––––––––––––––––-
1 | 0:00.00 | 4:54.73 | 0 | 22122
2 | 4:54.73 | 6:07.01 | 22123 | 49648
3 | 11:01.74 | 4:29.72 | 49649 | 69895
4 | 15:31.71 | 3:57.01 | 69896 | 87671
5 | 19:28.72 | 3:43.51 | 87672 | 104447
6 | 23:12.48 | 3:27.50 | 104448 | 120022
7 | 26:40.23 | 3:45.31 | 120023 | 136928
8 | 30:25.54 | 4:50.65 | 136929 | 158743
9 | 35:16.44 | 4:40.63 | 158744 | 179806
10 | 39:57.32 | 4:07.46 | 179807 | 198377
11 | 44:05.03 | 2:08.57 | 198378 | 208034
12 | 46:13.60 | 5:09.33 | 208035 | 231242
13 | 51:23.18 | 4:32.37 | 231243 | 251679
14 | 55:55.55 | 3:40.25 | 251680 | 268204
15 | 59:36.05 | 4:22.14 | 268205 | 287868
16 | 63:58.19 | 4:13.03 | 287869 | 306846


Track 1

Filename D:\Music Rips\Gilberto Gil - Bandadois (2009) [FLAC]\01 - Esoterico.wav

Pre-gap length 0:00:02.00

Peak level 96.3 %
Extraction speed 4.7 X
Track quality 100.0 %
Test CRC 867D9D10
Copy CRC 867D9D10
Cannot be verified as accurate (confidence 7) [5AD0CEA5], AccurateRip returned [8B42144D] (AR v2)
Copy OK

Track 2

Filename D:\Music Rips\Gilberto Gil - Bandadois (2009) [FLAC]\02 - A Linha e o Linho.wav

Peak level 69.4 %
Extraction speed 5.5 X
Track quality 100.0 %
Test CRC B4937DD4
Copy CRC B4937DD4
Cannot be verified as accurate (confidence 7) [6EEC570B], AccurateRip returned [07228C48] (AR v2)
Copy OK

Track 3

Filename D:\Music Rips\Gilberto Gil - Bandadois (2009) [FLAC]\03 - Superhomem - A Cancao.wav

Peak level 77.7 %
Extraction speed 5.9 X
Track quality 100.0 %
Test CRC C2331528
Copy CRC C2331528
Cannot be verified as accurate (confidence 7) [A31F7819], AccurateRip returned [845B0D12] (AR v2)
Copy OK

Track 4

Filename D:\Music Rips\Gilberto Gil - Bandadois (2009) [FLAC]\04 - Saudade da Bahia.wav

Peak level 94.0 %
Extraction speed 4.8 X
Track quality 99.9 %
Test CRC 3B3E346A
Copy CRC 3B3E346A
Cannot be verified as accurate (confidence 7) [5671964D], AccurateRip returned [AD37B508] (AR v2)
Copy OK

Track 5

Filename D:\Music Rips\Gilberto Gil - Bandadois (2009) [FLAC]\05 - Chiclete com Banana.wav

Peak level 98.0 %
Extraction speed 6.3 X
Track quality 100.0 %
Test CRC 09FC9660
Copy CRC 09FC9660
Cannot be verified as accurate (confidence 7) [6DABA969], AccurateRip returned [96D1A464] (AR v2)
Copy OK

Track 6

Filename D:\Music Rips\Gilberto Gil - Bandadois (2009) [FLAC]\06 - Das Duas, Uma.wav

Peak level 96.0 %
Extraction speed 6.5 X
Track quality 100.0 %
Test CRC 19AB6A9B
Copy CRC 19AB6A9B
Cannot be verified as accurate (confidence 7) [22D16239], AccurateRip returned [45128FD3] (AR v2)
Copy OK

Track 7

Filename D:\Music Rips\Gilberto Gil - Bandadois (2009) [FLAC]\07 - Quatro Coisas.wav

Peak level 89.3 %
Extraction speed 5.6 X
Track quality 99.9 %
Test CRC 059DD384
Copy CRC 059DD384
Cannot be verified as accurate (confidence 7) [546968EC], AccurateRip returned [81BBF16B] (AR v2)
Copy OK

Track 8

Filename D:\Music Rips\Gilberto Gil - Bandadois (2009) [FLAC]\08 - Amor Ate o Fim.wav

Peak level 98.1 %
Extraction speed 7.5 X
Track quality 100.0 %
Test CRC 030FD491
Copy CRC 030FD491
Cannot be verified as accurate (confidence 7) [6AF2ED05], AccurateRip returned [30B255AF] (AR v2)
Copy OK

Track 9

Filename D:\Music Rips\Gilberto Gil - Bandadois (2009) [FLAC]\09 - Lamento Sertanejo (Forro do Dominguinho).wav

Peak level 91.2 %
Extraction speed 6.5 X
Track quality 99.9 %
Test CRC 2E9DFA04
Copy CRC 2E9DFA04
Cannot be verified as accurate (confidence 7) [2269C0BA], AccurateRip returned [E5E92450] (AR v2)
Copy OK

Track 10

Filename D:\Music Rips\Gilberto Gil - Bandadois (2009) [FLAC]\10 - O Rouxinol.wav

Peak level 98.0 %
Extraction speed 8.0 X
Track quality 100.0 %
Test CRC 2C92F614
Copy CRC 2C92F614
Cannot be verified as accurate (confidence 7) [58F6008C], AccurateRip returned [C1BBF1C3] (AR v2)
Copy OK

Track 11

Filename D:\Music Rips\Gilberto Gil - Bandadois (2009) [FLAC]\11 - Refazenda.wav

Peak level 86.4 %
Extraction speed 7.2 X
Track quality 100.0 %
Test CRC 2E73DA2D
Copy CRC 2E73DA2D
Cannot be verified as accurate (confidence 7) [23EB80CA], AccurateRip returned [EB87244D] (AR v2)
Copy OK

Track 12

Filename D:\Music Rips\Gilberto Gil - Bandadois (2009) [FLAC]\12 - Banda Um.wav

Peak level 98.1 %
Extraction speed 7.2 X
Track quality 99.9 %
Test CRC 5CD8132A
Copy CRC 5CD8132A
Cannot be verified as accurate (confidence 7) [542DF9C1], AccurateRip returned [E7149868] (AR v2)
Copy OK

Track 13

Filename D:\Music Rips\Gilberto Gil - Bandadois (2009) [FLAC]\13 - La Renaissance Africaine.wav

Peak level 98.1 %
Extraction speed 8.6 X
Track quality 100.0 %
Test CRC 98E37AEE
Copy CRC 98E37AEE
Cannot be verified as accurate (confidence 7) [66A9E824], AccurateRip returned [565EC5A0] (AR v2)
Copy OK

Track 14

Filename D:\Music Rips\Gilberto Gil - Bandadois (2009) [FLAC]\14 - Refavela.wav

Peak level 98.0 %
Extraction speed 8.6 X
Track quality 100.0 %
Test CRC 99615E2F
Copy CRC 99615E2F
Cannot be verified as accurate (confidence 7) [B41D993C], AccurateRip returned [A1896F31] (AR v2)
Copy OK

Track 15

Filename D:\Music Rips\Gilberto Gil - Bandadois (2009) [FLAC]\15 - Baba Alapala.wav

Peak level 98.1 %
Extraction speed 9.1 X
Track quality 100.0 %
Test CRC 830C4C60
Copy CRC 830C4C60
Cannot be verified as accurate (confidence 7) [C12850C0], AccurateRip returned [DCF4CF13] (AR v2)
Copy OK

Track 16

Filename D:\Music Rips\Gilberto Gil - Bandadois (2009) [FLAC]\16 - Expresso 2222.wav

Peak level 98.0 %
Extraction speed 9.2 X
Track quality 100.0 %
Test CRC D2666973
Copy CRC D2666973
Cannot be verified as accurate (confidence 7) [224C08B5], AccurateRip returned [4F04B24F] (AR v2)
Copy OK


No tracks could be verified as accurate
You may have a different pressing from the one(s) in the database

No errors occurred

End of status report

==== Log checksum 0CC76F32182F9E691815006C376084941FA076BF08B388F408B09E09976D7A9B ====


Gilberto Gil - BandaDois (2009) {Warner Music 2564684258}

Gilberto Gil - BandaDois (2009) {Warner Music 2564684258}


see more Gilberto Gil…


===