Subcategories

Gilberto Gil - Gil Luminoso (1999) {DRG Records 31618 rel 2006}

Posted By: ruskaval
Gilberto Gil - Gil Luminoso (1999) {DRG Records 31618 rel 2006}

Gilberto Gil - Gil Luminoso (1999) {DRG Records 31618 rel 2006}
EAC rip (secure mode) | FLAC (tracks)+CUE+LOG -> 298 Mb | MP3 @320 -> 146 Mb
Full Artwork @ 300 dpi (jpg) -> 6 Mb | 5% repair rar
© 1999, 2006 DRG Records / GeGe Prod / Sarapui Prod | 31618
Música popular brasileira / MPB / Brazilian Traditions / Brazilian Pop

Throughout his four-decades-plus career as one of Brazil's most popular singers, Gilberto Gil has restlessly sought new avenues of expression, from the heady and fiery psychedelic Tropicalia of the '60s to his 2002 album of Bob Marley covers, Kaya N'Gan Daya. But there was one thing Gil had never attempted until now, an album spotlighting nothing but his voice and guitar. Gil Luminoso is, by its very nature, one of the most intimate recordings he has ever made and, not surprisingly, one of the loveliest and most moving.

Gil's tender, placid voice and understated guitar work project much warmth and soulfulness, and despite the lack of accompaniment it's as whole as any music he's made before. Gil, Brazil's Minister of Culture at the time of this recording, reached into his considerable songbook for 15 songs that would be apropos for solo presentation, and chose material from as far back as the late '60s: romantic, spiritual, political, philosophical. It's quintessential Gil, at his finest, sans help. This CD was nominated for a Grammy award in 2007 for Best Contemporary World Music Album.

tracklist:
01 - Preciso Aprender A So Ser
02 - Aqui E Agora
03 - Copo Vazio
04 - Retiros Espirituais
05 - O Seu Amor
06 - Tempo Rei
07 - O Som Da Pessoa
08 - Cerebro Eletronico
09 - A Raca Humana
10 - Voce E Voce
11 - Super-Homem A Cancao
12 - Rebento
13 - Metafora
14 - Meditacao
15 - O Compositor Me Disse

Exact Audio Copy V0.99 prebeta 4 from 23. January 2008

EAC extraction logfile from 3. February 2009, 1:23

Gilberto Gil / Gil Luminoso

Used drive : ATAPI DVD D DH16D3S Adapter: 0 ID: 2

Read mode : Secure
Utilize accurate stream : Yes
Defeat audio cache : Yes
Make use of C2 pointers : No

Read offset correction : 6
Overread into Lead-In and Lead-Out : No
Fill up missing offset samples with silence : Yes
Delete leading and trailing silent blocks : No
Null samples used in CRC calculations : Yes
Used interface : Installed external ASPI interface
Gap handling : Appended to previous track

Used output format : User Defined Encoder
Selected bitrate : 1024 kBit/s
Quality : High
Add ID3 tag : No
Command line compressor : C:\Program Files (x86)\Exact Audio Copy\Flac\flac.exe
Additional command line options : -8 -V -T "ARTIST=%a" -T "TITLE=%t" -T "ALBUM=%g" -T "DATE=%y" -T "TRACKNUMBER=%n" -T "TOTALTRACKS=%x" -T "GENRE=%m" -T "ALBUMARTIST=%v" -T "ALBUM ARTIST=%v" -T "COMMENT=EAC, FLAC -8" %s


TOC of the extracted CD

Track | Start | Length | Start sector | End sector
––––––––––––––––––––––––––––-
1 | 0:00.00 | 4:43.30 | 0 | 21254
2 | 4:43.30 | 5:47.33 | 21255 | 47312
3 | 10:30.63 | 4:31.08 | 47313 | 67645
4 | 15:01.71 | 5:31.46 | 67646 | 92516
5 | 20:33.42 | 2:10.25 | 92517 | 102291
6 | 22:43.67 | 5:58.50 | 102292 | 129191
7 | 28:42.42 | 1:24.66 | 129192 | 135557
8 | 30:07.33 | 5:16.51 | 135558 | 159308
9 | 35:24.09 | 4:25.27 | 159309 | 179210
10 | 39:49.36 | 3:51.11 | 179211 | 196546
11 | 43:40.47 | 3:40.30 | 196547 | 213076
12 | 47:21.02 | 5:35.63 | 213077 | 238264
13 | 52:56.65 | 4:14.67 | 238265 | 257381
14 | 57:11.57 | 1:51.26 | 257382 | 265732
15 | 59:03.08 | 3:03.14 | 265733 | 279471


Track 1

Filename J:\Music Torrent\Gilberto Gil - Gil Luminoso (1999) [FLAC]\01 - Preciso Aprender A So Ser.wav

Pre-gap length 0:00:02.00

Peak level 98.0 %
Track quality 100.0 %
Test CRC 65FE85CA
Copy CRC 65FE85CA
Accurately ripped (confidence 6) [BDDB56EA]
Copy OK

Track 2

Filename J:\Music Torrent\Gilberto Gil - Gil Luminoso (1999) [FLAC]\02 - Aqui E Agora.wav

Peak level 97.4 %
Track quality 100.0 %
Test CRC 52D6AC7D
Copy CRC 52D6AC7D
Accurately ripped (confidence 6) [E3C7F612]
Copy OK

Track 3

Filename J:\Music Torrent\Gilberto Gil - Gil Luminoso (1999) [FLAC]\03 - Copo Vazio.wav

Peak level 97.6 %
Track quality 100.0 %
Test CRC 929492D5
Copy CRC 929492D5
Accurately ripped (confidence 6) [35034B0A]
Copy OK

Track 4

Filename J:\Music Torrent\Gilberto Gil - Gil Luminoso (1999) [FLAC]\04 - Retiros Espirituais.wav

Peak level 97.5 %
Track quality 100.0 %
Test CRC B093BB08
Copy CRC B093BB08
Accurately ripped (confidence 6) [B06FFE17]
Copy OK

Track 5

Filename J:\Music Torrent\Gilberto Gil - Gil Luminoso (1999) [FLAC]\05 - O Seu Amor.wav

Peak level 92.0 %
Track quality 100.0 %
Test CRC CD4295C2
Copy CRC CD4295C2
Accurately ripped (confidence 6) [4A7B25BD]
Copy OK

Track 6

Filename J:\Music Torrent\Gilberto Gil - Gil Luminoso (1999) [FLAC]\06 - Tempo Rei.wav

Peak level 97.5 %
Track quality 100.0 %
Test CRC A1ADA999
Copy CRC A1ADA999
Accurately ripped (confidence 6) [21E591B4]
Copy OK

Track 7

Filename J:\Music Torrent\Gilberto Gil - Gil Luminoso (1999) [FLAC]\07 - O Som Da Pessoa.wav

Peak level 94.9 %
Track quality 100.0 %
Test CRC A9B77171
Copy CRC A9B77171
Accurately ripped (confidence 6) [F965FD56]
Copy OK

Track 8

Filename J:\Music Torrent\Gilberto Gil - Gil Luminoso (1999) [FLAC]\08 - Cerebro Eletronico.wav

Peak level 96.7 %
Track quality 100.0 %
Test CRC 0ED5D1DF
Copy CRC 0ED5D1DF
Accurately ripped (confidence 6) [AFA65944]
Copy OK

Track 9

Filename J:\Music Torrent\Gilberto Gil - Gil Luminoso (1999) [FLAC]\09 - A Raca Humana.wav

Peak level 94.4 %
Track quality 100.0 %
Test CRC CC176F75
Copy CRC CC176F75
Accurately ripped (confidence 6) [153C54B8]
Copy OK

Track 10

Filename J:\Music Torrent\Gilberto Gil - Gil Luminoso (1999) [FLAC]\10 - Voce E Voce.wav

Peak level 98.9 %
Track quality 100.0 %
Test CRC 716034CF
Copy CRC 716034CF
Accurately ripped (confidence 6) [02E38DF5]
Copy OK

Track 11

Filename J:\Music Torrent\Gilberto Gil - Gil Luminoso (1999) [FLAC]\11 - Super-Homem A Cancao.wav

Peak level 96.4 %
Track quality 100.0 %
Test CRC EDFF8F9B
Copy CRC EDFF8F9B
Accurately ripped (confidence 6) [21FCBC2E]
Copy OK

Track 12

Filename J:\Music Torrent\Gilberto Gil - Gil Luminoso (1999) [FLAC]\12 - Rebento.wav

Peak level 98.2 %
Track quality 100.0 %
Test CRC 2296CDD0
Copy CRC 2296CDD0
Accurately ripped (confidence 6) [206CBDDD]
Copy OK

Track 13

Filename J:\Music Torrent\Gilberto Gil - Gil Luminoso (1999) [FLAC]\13 - Metafora.wav

Peak level 95.0 %
Track quality 100.0 %
Test CRC 361CE4E3
Copy CRC 361CE4E3
Accurately ripped (confidence 6) [6032C0F6]
Copy OK

Track 14

Filename J:\Music Torrent\Gilberto Gil - Gil Luminoso (1999) [FLAC]\14 - Meditacao.wav

Peak level 96.7 %
Track quality 100.0 %
Test CRC D8E0E541
Copy CRC D8E0E541
Accurately ripped (confidence 6) [4D222FAA]
Copy OK

Track 15

Filename J:\Music Torrent\Gilberto Gil - Gil Luminoso (1999) [FLAC]\15 - O Compositor Me Disse.wav

Peak level 97.9 %
Track quality 100.0 %
Test CRC D25CFA25
Copy CRC D25CFA25
Accurately ripped (confidence 6) [89BEB5BF]
Copy OK


All tracks accurately ripped

No errors occurred

End of status report


Gilberto Gil - Gil Luminoso (1999) {DRG Records 31618 rel 2006}

Gilberto Gil - Gil Luminoso (1999) {DRG Records 31618 rel 2006}


see also:
Gilberto Gil - Salvador 1962-1963 (2002) {Warner Music Brasil 092747212-2 rec 1961-1963}
Gilberto Gil - Ao Vivo - Montreux International Jazz Festival (1978) {Warner Music Brasil 092746057-2 rel 2002}
Gilberto Gil - Um Banda Um (1982) {Warner Music Brasil 092746040-2 rel 2002}
Gilberto Gil - Extra (1983) {Warner Music Brasil 092746041-2 rel 2002}
Gilberto Gil - Ao Vivo Em Tóquio (1986) {Warner Music Brasil 092746044-2 rel 2002}

Gilberto Gil - Dia Dorim Noite Neon (1985) {Warner Music Brasil 092746043-2 rel 2002}
Gilberto Gil - Em Concerto (1986) {Warner Music Brasil 092746058-2 rel 2002}
Gilberto Gil - Luar (1981) {Warner Music Brasil 092746039-2 rel 2002}
Gilberto Gil - As Canções de Eu Tu Eles (2000) {Warner Music Brasil 092746051-2 rel 2002}
Gilberto Gil - Fé Na Festa (2010) {EmArcy-Universal 0602527410555}

Gilberto Gil - Quilombo (1984) {Warner Music Brasil 092746053-2 rel 2002}
Gilberto Gil - Um Trem Para As Estrelas (1987) {Warner Music Brasil 092746055-2 rel 2002}
Gilberto Gil - Quanta Gente Veio Ver (1997-98) {2CD Warner Music Brasil 092746050-2 rel 2002}
Gilberto Gil - São João Vivo (2000) {Warner Music Brasil 092746052-2 rel 2002}
Gilberto Gil - Z: 300 Anos De Zumbi (1995) {Warner Music Brasil 092746054-2 rel 2002}

Gilberto Gil - It's Good To Be Alive Anos 90 (2002) {Warner Music Brasil 092747428-2 rec 1985-97}
Gilberto Gil - Soy Loco Por Ti America (1987) {Warner Music Brasil 092746045-2 rel 2002}
Gilberto Gil - Kaya N'gan Daya (2002) {Warner Music Brasil 092747177-2}
Gilberto Gil - To Be Alive Is Good Anos 80 (2002) {Warner Music Brasil 092747427-2 rec 1981-88}



===