Subcategories

Giovanni Tommaso Quintet - Over The Ocean (1993)

Posted By: Domestos
Giovanni Tommaso Quintet - Over The Ocean (1993)

Giovanni Tommaso Quintet - Over The Ocean (1993)
EAC Rip | FLAC (tracks+.cue, log) ~ 361.74 Mb + 33.29 Mb (Scans) | 01:01:21
Avant-garde Jazz, Post-Bop | Label: Red Record - 123256-2

Remarkable particularly for the performances of extraordinary pianist Danilo Rea and Italy's best kept secret, trumpeter Flavio Boltro, this recording of highly varied tunes by Italian bassist Giovanni Tommaso plays well in the company of an extraordinary quintet. The music is smack-dab in the middle of adventurous modern mainstream. In other words, it doesn't break any new ground but it pushes up against traditional boundaries. The solid front line of Boltro and saxophonist Pietro Tonolo wails over one of the world's great rhythm sections: drummer Roberto Gatto, Tommaso, and Rea. Rea does it all, with a superhuman two-handed approach. Boltro is one of the sharpest hard boppers around, able to play almost anything on his trumpet. The closer, a strange operatic tribute to Billie Holiday sung by Italian vocalist Carla Marcotulli, comes right out of left field. ~ AllMusic Review by Steve Loewy



Track List:
01. Over The Ocean (06:58)
02. Kelly's Tune (05:17)
03. BRAHMoSia (04:54)
04. Italia Dei Miei Stivali (07:24)
05. Theme Song (05:45)
06. Rag-giro (07:06)
07. Too Cool (07:09)
08. T'Amo Tango (05:21)
09. Hurry Up (08:18)
10. My Old Friend Billie (03:06)

Giovanni Tommaso - bass
Roberto Gatto - drums
Danilo Rea - piano
Pietro Tonolo - tenor sax, soprano sax
Flavio Boltro - tumpet
Carla Marcotulli - vocals

Giovanni Tommaso Quintet - Over The Ocean (1993)

Exact Audio Copy V1.3 from 2. September 2016

EAC extraction logfile from 4. February 2020, 10:12

Giovanni Tommaso Quintet / Over The Ocean

Used drive : HL-DT-STDVDRAM GH24NSD1 Adapter: 1 ID: 3

Read mode : Secure
Utilize accurate stream : Yes
Defeat audio cache : Yes
Make use of C2 pointers : No

Read offset correction : 6
Overread into Lead-In and Lead-Out : No
Fill up missing offset samples with silence : Yes
Delete leading and trailing silent blocks : No
Null samples used in CRC calculations : Yes
Used interface : Native Win32 interface for Win NT & 2000
Gap handling : Appended to previous track

Used output format : User Defined Encoder
Selected bitrate : 896 kBit/s
Quality : High
Add ID3 tag : No
Command line compressor : C:\Program Files (x86)\Exact Audio Copy\Flac\flac.exe
Additional command line options : -8 -V -T "ARTIST=%artist%" -T "TITLE=%title%" -T "ALBUM=%albumtitle%" -T "DATE=%year%" -T "TRACKNUMBER=%tracknr%" -T "TOTALTRACKS=%numtracks%" -T "GENRE=%genre%" -T "ALBUMARTIST=%albumartist%" -T "ALBUM ARTIST=%albumartist%" -T "COMMENT=EAC Secure Mode, Test & Copy, AccurateRip, FLAC -8" %source%


TOC of the extracted CD

Track | Start | Length | Start sector | End sector
––––––––––––––––––––––––––––-
1 | 0:00.33 | 6:58.35 | 33 | 31417
2 | 6:58.68 | 5:17.40 | 31418 | 55232
3 | 12:16.33 | 4:54.17 | 55233 | 77299
4 | 17:10.50 | 7:24.30 | 77300 | 110629
5 | 24:35.05 | 5:45.35 | 110630 | 136539
6 | 30:20.40 | 7:06.23 | 136540 | 168512
7 | 37:26.63 | 7:09.20 | 168513 | 200707
8 | 44:36.08 | 5:21.02 | 200708 | 224784
9 | 49:57.10 | 8:18.60 | 224785 | 262194
10 | 58:15.70 | 3:06.38 | 262195 | 276182


Track 1

Filename H:\! UPLOADS\Giovanni Tommaso Quintet - Over The Ocean (1993) [FLAC] {Red}\01 Over The Ocean.wav

Pre-gap length 0:00:02.44

Peak level 86.8 %
Extraction speed 1.1 X
Track quality 100.0 %
Test CRC 45D224F5
Copy CRC 45D224F5
Accurately ripped (confidence 3) [3812EA1F] (AR v2)
Copy OK

Track 2

Filename H:\! UPLOADS\Giovanni Tommaso Quintet - Over The Ocean (1993) [FLAC] {Red}\02 Kelly's Tune.wav

Peak level 89.1 %
Extraction speed 1.3 X
Track quality 100.0 %
Test CRC A35E1173
Copy CRC A35E1173
Accurately ripped (confidence 3) [3A8DE3B9] (AR v2)
Copy OK

Track 3

Filename H:\! UPLOADS\Giovanni Tommaso Quintet - Over The Ocean (1993) [FLAC] {Red}\03 BRAHMoSia.wav

Peak level 100.0 %
Extraction speed 1.4 X
Track quality 100.0 %
Test CRC AEC33D71
Copy CRC AEC33D71
Accurately ripped (confidence 3) [61F58E95] (AR v2)
Copy OK

Track 4

Filename H:\! UPLOADS\Giovanni Tommaso Quintet - Over The Ocean (1993) [FLAC] {Red}\04 Italia Dei Miei Stivali.wav

Peak level 98.5 %
Extraction speed 1.6 X
Track quality 100.0 %
Test CRC E9AEF14D
Copy CRC E9AEF14D
Accurately ripped (confidence 3) [5F19B285] (AR v2)
Copy OK

Track 5

Filename H:\! UPLOADS\Giovanni Tommaso Quintet - Over The Ocean (1993) [FLAC] {Red}\05 Theme Song.wav

Peak level 100.0 %
Extraction speed 1.7 X
Track quality 100.0 %
Test CRC DEE542BC
Copy CRC DEE542BC
Accurately ripped (confidence 3) [F65BD3D2] (AR v2)
Copy OK

Track 6

Filename H:\! UPLOADS\Giovanni Tommaso Quintet - Over The Ocean (1993) [FLAC] {Red}\06 Rag-giro.wav

Peak level 85.7 %
Extraction speed 1.8 X
Track quality 100.0 %
Test CRC E770A570
Copy CRC E770A570
Accurately ripped (confidence 3) [D0F54C5A] (AR v2)
Copy OK

Track 7

Filename H:\! UPLOADS\Giovanni Tommaso Quintet - Over The Ocean (1993) [FLAC] {Red}\07 Too Cool.wav

Peak level 83.7 %
Extraction speed 1.8 X
Track quality 99.9 %
Test CRC 6B3EBE6F
Copy CRC 6B3EBE6F
Accurately ripped (confidence 3) [832A8A58] (AR v2)
Copy OK

Track 8

Filename H:\! UPLOADS\Giovanni Tommaso Quintet - Over The Ocean (1993) [FLAC] {Red}\08 T'Amo Tango.wav

Peak level 100.0 %
Extraction speed 1.8 X
Track quality 99.9 %
Test CRC 6729277E
Copy CRC 6729277E
Accurately ripped (confidence 3) [4C277B47] (AR v2)
Copy OK

Track 9

Filename H:\! UPLOADS\Giovanni Tommaso Quintet - Over The Ocean (1993) [FLAC] {Red}\09 Hurry Up.wav

Peak level 93.8 %
Extraction speed 2.2 X
Track quality 100.0 %
Test CRC 24092AB0
Copy CRC 24092AB0
Accurately ripped (confidence 3) [714B92C6] (AR v2)
Copy OK

Track 10

Filename H:\! UPLOADS\Giovanni Tommaso Quintet - Over The Ocean (1993) [FLAC] {Red}\10 My Old Friend Billie.wav

Peak level 86.3 %
Extraction speed 2.0 X
Track quality 100.0 %
Test CRC CD255D17
Copy CRC CD255D17
Accurately ripped (confidence 3) [376BD63A] (AR v2)
Copy OK


All tracks accurately ripped

No errors occurred

End of status report

–– CUETools DB Plugin V2.1.6

[CTDB TOCID: 0isW8p99kO8mGBwaFMCjuggEkDk-] found
Submit result: 0isW8p99kO8mGBwaFMCjuggEkDk- has been confirmed
Track | CTDB Status
1 | (4/4) Accurately ripped
2 | (4/4) Accurately ripped
3 | (4/4) Accurately ripped
4 | (4/4) Accurately ripped
5 | (4/4) Accurately ripped
6 | (4/4) Accurately ripped
7 | (4/4) Accurately ripped
8 | (4/4) Accurately ripped
9 | (4/4) Accurately ripped
10 | (4/4) Accurately ripped


==== Log checksum 86F03C29ED8637F7D48F8ECBB2572751778C309158D563946B933C4872D3B067 ====

All thanks go to the Czongi

More Music in My Blog
Follow My RSS Channel