Subcategories

Grateful Dead - Fillmore West 1969 (2005) [3CD Deluxe Edition] {Rhino}

Posted By: ruskaval
Grateful Dead - Fillmore West 1969 (2005) [3CD Deluxe Edition] {Rhino}

Grateful Dead - Fillmore West 1969 (2005) [3CD Deluxe Edition] {Rhino}
EAC rip (secure mode) | FLAC (tracks)+CUE+LOG -> 1.22 Gb | MP3 @320 -> 484 Mb
Full Artwork @ 300 dpi (jpg) -> 98 Mb | 5% repair rar
© 2005 Rhino / GDP | 8122-73193-2
Rock / Psychedelic Rock

The 1969 double album Live/Dead holds a special place in the Deadhead universe; indeed, many band members and their inner circle consider it to be the band’s best overall collection as well. This expanded, three-CD edition is culled from the same February/March ’69 shows at the Dead’s de facto live home, San Francisco’s Fillmore West. What’s documented here are not only some of the greatest performances of the band’s early era, but the still-evolving template for much of the band’s later flights of improvisation. The first, blues-dominated disc pays tribute to a band that a couple years earlier had been but an ambitious bar covers ban! d, while the second chronicles the Dead’s expansive "Dark Star/St. Stephen/The Eleven" triptych wed to a cover of the Rev. Gary Davis’ "Death Don’t Have No Mercy," 2/28/69 performances that turn on the freeform interplay that would become their trademark for decades to follow.

The set’s final disc is highlighted by a vigorous, nearly hour-long workout that jams its way through the band’s early "Alligator," "Caution" and the obligatory drum break to the traditional closer, "We Bid You Goodnight." Said to be the first 16-track live recording, the epochal performances here are burnished to near sonic perfection via HDCD mastering, a heady, if ironic wedding of technology and the band’s rootsy, musical humanity.
Grateful Dead - Fillmore West 1969 (2005) [3CD Deluxe Edition] {Rhino}

This is a triple-disc distillation of the limited-edition ten-CD Fillmore West 1969: The Complete Recordings box set. The material was taken from the Grateful Dead's run of eight shows over four nights (February 27 through March 2, 1969) at the Fillmore West in San Francisco. These were the same concerts that yielded most of the definitive Live/Dead (1969). By the spring of 1969, the ever-evolving personnel had grown to include Mickey Hart (percussion) – whose contributions began in September of 1967 – and six months later, Tom Constanten (keyboards). They joined co-founders Jerry Garcia (guitar/vocals), Ron "Pigpen" McKernan (vocals/organ/harmonica), Bill Kreutzmann (percussion), Phil Lesh (bass/vocals), and Bob Weir (guitar/vocals). Collectively they created an incendiary ensemble embracing R&B with the same passion and sense of intrepid experimentation as they did their own unique imprint of sonic psychedelia. And nowhere is that seemingly odd amalgam as evident as it is here. According to Dennis McNally's liner essay, Live/Dead was "the first live 16-track album ever made." Three and a half decades later those tapes were revisited and revitalized by longtime Grateful Dead producer Jeffrey Norman. He has done a yeoman's effort, drawing out the warmth and subtle interplay occurring deep within not only the lengthy acidic "That's It for the Other One" suite, but the exhaustively jammed covers of "Good Morning Little School Girl," "Turn on Your Lovelight," and "Morning Dew" as well. Somewhat darker yet no less intense is the edgy update of blues staple "King Bee" and the sanctified "Death Don't Have No Mercy."

Grateful Dead - Fillmore West 1969 (2005) [3CD Deluxe Edition] {Rhino}


The latter was one of several Rev. Gary Davis compositions that the Dead worked into their repertoire over the years. Although it hadn't even been released at the time, Aoxomoxoa (1969) produced a sizable number of selections here. Notable among them are "Doin' That Rag," "Cosmic Charlie," "Saint Stephen," and "Dupree's Diamond Blues" – a tune twisted out of the traditional ballad "Betty & Dupree." Another title that surfaced on Aoxomoxoa was the stylish, acoustic-based "Mountains of the Moon." The combo took full advantage of the song's meditative ending to segue into the lysergic-influenced exploratory anthem "Dark Star." As alluded to above, the audio remastering is virtually perfect. One major caveat can be heard during the nearly half-hour instrumental "Jam" on disc three. According to Norman, the master tape ran out and "the only thing we had as a patch was a cassette…mix from the show. So when I edit in the cassette piece…the end result is like a big ol' audio band-aid." While that isn't the sole place that similar problems had to be addressed, it is the most noticeable. That said, the drastic change in sound quality is a small price to pay in order to hear the performance in its entirety.

INFO

Personnel:
Tom Constanten - organ
Jerry Garcia - lead guitar, vocals
Mickey Hart - drums
Bill Kreutzmann - drums
Phil Lesh - electric bass, vocals
Ron "Pigpen" McKernan - harmonica, organ, percussion, vocals
Bob Weir - rhythm guitar, vocals

tracklist:
CD1

01. Morning Dew
02. Good Morning Little Schoolgirl
03. Doin' That Rag
04. I'm a King Bee
05. Cosmic Charlie
06. Turn on Your Lovelight

CD2
01. Dupree's Diamond Blues
02. Mountains of the Moon
03. Dark Star
04. St. Stephen
05. The Eleven
06. Death Don't Have No Mercy

CD3
01. That's It for the Other One: Cryptical Envelopment/The Other …
02. Alligator
03. Drums
04. Jam
05. Caution (Do Not Stop on Tracks)
06. Feedback
07. We Bid You Goodnight

Grateful Dead - Fillmore West 1969 (2005) [3CD Deluxe Edition] {Rhino}

Grateful Dead - Fillmore West 1969 (2005) [3CD Deluxe Edition] {Rhino}

Exact Audio Copy V0.99 prebeta 5 from 4. May 2009

EAC extraction logfile from 11. June 2010, 17:45

Grateful Dead / Fillmore West 1969 - Disc 1 of 3

Used drive : HL-DT-STDVD-ROM GDR8164B Adapter: 0 ID: 1

Read mode : Secure
Utilize accurate stream : Yes
Defeat audio cache : Yes
Make use of C2 pointers : No

Read offset correction : 102
Overread into Lead-In and Lead-Out : No
Fill up missing offset samples with silence : Yes
Delete leading and trailing silent blocks : No
Null samples used in CRC calculations : Yes
Used interface : Native Win32 interface for Win NT & 2000
Gap handling : Appended to previous track

Used output format : User Defined Encoder
Selected bitrate : 768 kBit/s
Quality : High
Add ID3 tag : No
Command line compressor : C:\Archivos de programa\Exact Audio Copy\Flac\flac.exe
Additional command line options : -8 -V -T "ARTIST=%a" -T "TITLE=%t" -T "ALBUM=%g" -T "DATE=%y" -T "TRACKNUMBER=%n" -T "TOTALTRACKS=%x" -T "GENRE=%m" -T "ALBUM ARTIST=%v" -T "ALBUMARTIST=%v" -T "COMMENT=EAC V0.99 prebeta 5, Secure Mode, Test & Copy, Accurat


TOC of the extracted CD

Track | Start | Length | Start sector | End sector
––––––––––––––––––––––––––––-
1 | 0:00.00 | 11:05.35 | 0 | 49909
2 | 11:05.35 | 10:59.57 | 49910 | 99391
3 | 22:05.17 | 6:55.43 | 99392 | 130559
4 | 29:00.60 | 7:31.25 | 130560 | 164409
5 | 36:32.10 | 6:02.07 | 164410 | 191566
6 | 42:34.17 | 19:08.65 | 191567 | 277731


Track 1

Filename E:\EAC_RIP_FLAC\01 - Morning Dew.wav

Pre-gap length 0:00:02.00

Peak level 96.6 %
Track quality 99.9 %
Test CRC EFC749BD
Copy CRC EFC749BD
Cannot be verified as accurate (confidence 29) [50A333C4], AccurateRip returned [D3F32A16]
Copy OK

Track 2

Filename E:\EAC_RIP_FLAC\02 - Good Morning Little Schoolgirl.wav

Peak level 96.6 %
Track quality 100.0 %
Test CRC 41ABC238
Copy CRC 41ABC238
Cannot be verified as accurate (confidence 29) [70307628], AccurateRip returned [CC7611B1]
Copy OK

Track 3

Filename E:\EAC_RIP_FLAC\03 - Doin' That Rag.wav

Peak level 95.9 %
Track quality 100.0 %
Test CRC B8B0EC68
Copy CRC B8B0EC68
Cannot be verified as accurate (confidence 29) [9ED75BE3], AccurateRip returned [BD48B1D4]
Copy OK

Track 4

Filename E:\EAC_RIP_FLAC\04 - I'm A King Bee.wav

Peak level 96.6 %
Track quality 100.0 %
Test CRC F1F154B8
Copy CRC F1F154B8
Cannot be verified as accurate (confidence 29) [2B9F2551], AccurateRip returned [2C63FE9E]
Copy OK

Track 5

Filename E:\EAC_RIP_FLAC\05 - Cosmic Charlie.wav

Peak level 96.6 %
Track quality 100.0 %
Test CRC D7E4677A
Copy CRC D7E4677A
Cannot be verified as accurate (confidence 29) [34FBF847], AccurateRip returned [5B74A9EA]
Copy OK

Track 6

Filename E:\EAC_RIP_FLAC\06 - Turn On Your Lovelight.wav

Peak level 96.6 %
Track quality 99.9 %
Test CRC 3EBD9CCB
Copy CRC 3EBD9CCB
Cannot be verified as accurate (confidence 26) [07A07496], AccurateRip returned [15A227CF]
Copy OK


No tracks could be verified as accurate
You may have a different pressing from the one(s) in the database

No errors occurred

End of status report

Exact Audio Copy V0.99 prebeta 5 from 4. May 2009

EAC extraction logfile from 11. June 2010, 18:11

Grateful Dead / Fillmore West 1969 - Disc 2 of 3

Used drive : HL-DT-STDVD-ROM GDR8164B Adapter: 0 ID: 1

Read mode : Secure
Utilize accurate stream : Yes
Defeat audio cache : Yes
Make use of C2 pointers : No

Read offset correction : 102
Overread into Lead-In and Lead-Out : No
Fill up missing offset samples with silence : Yes
Delete leading and trailing silent blocks : No
Null samples used in CRC calculations : Yes
Used interface : Native Win32 interface for Win NT & 2000
Gap handling : Appended to previous track

Used output format : User Defined Encoder
Selected bitrate : 768 kBit/s
Quality : High
Add ID3 tag : No
Command line compressor : C:\Archivos de programa\Exact Audio Copy\Flac\flac.exe
Additional command line options : -8 -V -T "ARTIST=%a" -T "TITLE=%t" -T "ALBUM=%g" -T "DATE=%y" -T "TRACKNUMBER=%n" -T "TOTALTRACKS=%x" -T "GENRE=%m" -T "ALBUM ARTIST=%v" -T "ALBUMARTIST=%v" -T "COMMENT=EAC V0.99 prebeta 5, Secure Mode, Test & Copy, Accurat


TOC of the extracted CD

Track | Start | Length | Start sector | End sector
––––––––––––––––––––––––––––-
1 | 0:00.00 | 4:47.52 | 0 | 21576
2 | 4:47.52 | 4:51.53 | 21577 | 43454
3 | 9:39.30 | 19:43.15 | 43455 | 132194
4 | 29:22.45 | 7:50.70 | 132195 | 167514
5 | 37:13.40 | 15:12.47 | 167515 | 235961
6 | 52:26.12 | 9:58.20 | 235962 | 280831


Track 1

Filename E:\EAC_RIP_FLAC\01 - Dupree's Diamond Blues.wav

Pre-gap length 0:00:02.00

Peak level 96.6 %
Track quality 100.0 %
Test CRC 848E5C5D
Copy CRC 848E5C5D
Cannot be verified as accurate (confidence 27) [58E2D2B6], AccurateRip returned [BB34BB3B]
Copy OK

Track 2

Filename E:\EAC_RIP_FLAC\02 - Mountains Of The Moon.wav

Peak level 90.9 %
Track quality 100.0 %
Test CRC 2B645448
Copy CRC 2B645448
Cannot be verified as accurate (confidence 28) [1DF1F2D7], AccurateRip returned [5512CA1E]
Copy OK

Track 3

Filename E:\EAC_RIP_FLAC\03 - Dark Star.wav

Peak level 96.6 %
Track quality 100.0 %
Test CRC C2BC8E41
Copy CRC C2BC8E41
Cannot be verified as accurate (confidence 29) [0E5C995F], AccurateRip returned [25AFD81D]
Copy OK

Track 4

Filename E:\EAC_RIP_FLAC\04 - St. Stephen.wav

Peak level 96.5 %
Track quality 100.0 %
Test CRC DD230D78
Copy CRC DD230D78
Cannot be verified as accurate (confidence 29) [43905E2D], AccurateRip returned [65EFC182]
Copy OK

Track 5

Filename E:\EAC_RIP_FLAC\05 - The Eleven.wav

Peak level 96.5 %
Track quality 100.0 %
Test CRC 98277038
Copy CRC 98277038
Cannot be verified as accurate (confidence 29) [46F16249], AccurateRip returned [DCA6DCD9]
Copy OK

Track 6

Filename E:\EAC_RIP_FLAC\06 - Death Don't Have No Mercy.wav

Peak level 96.6 %
Track quality 99.9 %
Test CRC 45162EE7
Copy CRC 45162EE7
Cannot be verified as accurate (confidence 28) [416C433C], AccurateRip returned [279F2D7B]
Copy OK


No tracks could be verified as accurate
You may have a different pressing from the one(s) in the database

No errors occurred

End of status report

Exact Audio Copy V0.99 prebeta 5 from 4. May 2009

EAC extraction logfile from 11. June 2010, 18:55

Grateful Dead / Fillmore West 1969 - Disc 3 of 3

Used drive : HL-DT-STDVD-ROM GDR8164B Adapter: 0 ID: 1

Read mode : Secure
Utilize accurate stream : Yes
Defeat audio cache : Yes
Make use of C2 pointers : No

Read offset correction : 102
Overread into Lead-In and Lead-Out : No
Fill up missing offset samples with silence : Yes
Delete leading and trailing silent blocks : No
Null samples used in CRC calculations : Yes
Used interface : Native Win32 interface for Win NT & 2000
Gap handling : Appended to previous track

Used output format : User Defined Encoder
Selected bitrate : 768 kBit/s
Quality : High
Add ID3 tag : No
Command line compressor : C:\Archivos de programa\Exact Audio Copy\Flac\flac.exe
Additional command line options : -8 -V -T "ARTIST=%a" -T "TITLE=%t" -T "ALBUM=%g" -T "DATE=%y" -T "TRACKNUMBER=%n" -T "TOTALTRACKS=%x" -T "GENRE=%m" -T "ALBUM ARTIST=%v" -T "ALBUMARTIST=%v" -T "COMMENT=EAC V0.99 prebeta 5, Secure Mode, Test & Copy, Accurat


TOC of the extracted CD

Track | Start | Length | Start sector | End sector
––––––––––––––––––––––––––––-
1 | 0:00.00 | 23:30.17 | 0 | 105766
2 | 23:30.17 | 4:00.20 | 105767 | 123786
3 | 27:30.37 | 6:51.45 | 123787 | 154656
4 | 34:22.07 | 25:31.30 | 154657 | 269511
5 | 59:53.37 | 9:13.28 | 269512 | 311014
6 | 69:06.65 | 7:54.20 | 311015 | 346584
7 | 77:01.10 | 2:01.12 | 346585 | 355671


Track 1

Filename E:\EAC_RIP_FLAC\01 - That's It For The Other One.wav

Pre-gap length 0:00:02.00

Peak level 96.6 %
Track quality 99.9 %
Test CRC C2CC2F94
Copy CRC C2CC2F94
Cannot be verified as accurate (confidence 28) [FF4E3160], AccurateRip returned [C97AB340]
Copy OK

Track 2

Filename E:\EAC_RIP_FLAC\02 - Alligator.wav

Peak level 96.6 %
Track quality 99.7 %
Test CRC A3B54F24
Copy CRC A3B54F24
Cannot be verified as accurate (confidence 29) [4DE98638], AccurateRip returned [A8F90230]
Copy OK

Track 3

Filename E:\EAC_RIP_FLAC\03 - Drums.wav

Peak level 95.9 %
Track quality 100.0 %
Test CRC C9478861
Copy CRC C9478861
Cannot be verified as accurate (confidence 29) [E440121D], AccurateRip returned [A88AE394]
Copy OK

Track 4

Filename E:\EAC_RIP_FLAC\04 - Jam.wav

Peak level 96.6 %
Track quality 99.9 %
Test CRC EB5DA4B1
Copy CRC EB5DA4B1
Cannot be verified as accurate (confidence 27) [D29F1344], AccurateRip returned [4FA624BE]
Copy OK

Track 5

Filename E:\EAC_RIP_FLAC\05 - Caution (Do Not Stop On Tracks).wav

Peak level 96.6 %
Track quality 100.0 %
Test CRC E613D578
Copy CRC E613D578
Cannot be verified as accurate (confidence 28) [70C30258], AccurateRip returned [D210A030]
Copy OK

Track 6

Filename E:\EAC_RIP_FLAC\06 - Feedback.wav

Peak level 96.6 %
Track quality 99.9 %
Test CRC F5D9591C
Copy CRC F5D9591C
Cannot be verified as accurate (confidence 26) [07D137E5], AccurateRip returned [EE682DBF]
Copy OK

Track 7

Filename E:\EAC_RIP_FLAC\07 - We Bid You Goodnight.wav

Peak level 29.5 %
Track quality 100.0 %
Test CRC BD0C7ABD
Copy CRC BD0C7ABD
Cannot be verified as accurate (confidence 23) [B0579938], AccurateRip returned [88F56573]
Copy OK


No tracks could be verified as accurate
You may have a different pressing from the one(s) in the database

No errors occurred

End of status report


Thanks to jlgt!